<?xml version="1.0" standalone="no"?>
<!DOCTYPE svg PUBLIC "-//W3C//DTD SVG 1.1//EN" "http://www.w3.org/Graphics/SVG/1.1/DTD/svg11.dtd" >
<svg xmlns="http://www.w3.org/2000/svg" xmlns:xlink="http://www.w3.org/1999/xlink" version="1.1">
<metadata></metadata>
<defs>
<font id="crimsonitalic" horiz-adv-x="449" >
<font-face units-per-em="1024" ascent="742" descent="-282" />
<missing-glyph horiz-adv-x="227" />
<glyph unicode=" "  horiz-adv-x="227" />
<glyph unicode="&#x09;" horiz-adv-x="227" />
<glyph unicode="&#xa0;" horiz-adv-x="227" />
<glyph unicode="!" horiz-adv-x="234" d="M20 36q0 28 19 47t47 19q18 0 30.5 -14t12.5 -32q0 -29 -18.5 -49.5t-46.5 -20.5q-19 0 -31.5 15t-12.5 35zM192 631q15 0 23 -13t8 -30q0 -12 -16.5 -73.5t-45.5 -167.5t-47 -177q-2 -9 -12.5 -15.5t-15.5 -6.5q-6 0 -6 18q0 2 8.5 72t21.5 171t23 168q3 17 20 35.5 t39 18.5z" />
<glyph unicode="&#x22;" horiz-adv-x="331" d="M324 698q23 0 28.5 -10.5t-0.5 -54.5q-6 -31 -28.5 -94t-30.5 -90q-5 -15 -21 -15q-6 0 -11 3.5t-4 9.5q4 40 4 75.5t-2 68t-2 45.5q3 17 23 39.5t44 22.5zM174 698q23 0 28.5 -10.5t-0.5 -54.5q-6 -31 -28.5 -94t-30.5 -90q-5 -15 -21 -15q-6 0 -11 3.5t-4 9.5 q4 40 4 75.5t-2 68t-2 45.5q3 17 23 39.5t44 22.5z" />
<glyph unicode="#" horiz-adv-x="447" d="M350 370h80q5 0 5 -2q0 -12 -8.5 -30t-14.5 -18h-79l-30 -92h79q5 0 5 -3q0 -12 -8.5 -29.5t-14.5 -17.5h-79l-51 -153q0 -7 -31 -7q-13 0 -19 3q1 4 14 42t26 75l12 36l2 4h-93l-51 -153q0 -7 -31 -7q-13 0 -19 3q1 4 14 42t26 75l12 36l2 4h-80q-5 0 -5 3 q0 12 8.5 29.5t14.5 17.5h79l30 92h-79q-5 0 -5 3q0 12 8.5 29.5t14.5 17.5h79l51 153q0 7 31 7q11 0 19 -4q-1 -3 -14 -41t-26 -75l-12 -36l-2 -4h93l51 153q0 7 31 7q11 0 19 -4q-1 -3 -14 -41t-26 -75l-12 -36zM285 320h-92l-30 -92h92z" />
<glyph unicode="$" horiz-adv-x="435" d="M120 -52q-32 0 -31 9l16 45q-28 8 -75 30q-9 34 -11.5 87.5t0.5 57.5q4 6 24 6q7 0 10 -6q0 -34 17 -72.5t50 -59.5l83 240q-3 3 -23 18t-25.5 20t-21 18.5t-21 23.5t-14 25t-11.5 32t-3 36q0 53 32 96t78 65t92 22q22 0 41 -2l15 44q32 0 31 -7l-15 -43q9 -1 18.5 -3.5 t21.5 -6t20 -5.5q-7 -76 -20 -139q-1 -7 -9 -7q-14 0 -21 7q5 76 -27 106l-79 -229l8 -6q6 -5 31 -23t35 -27.5t26.5 -28t23 -39.5t6.5 -47q0 -84 -70.5 -138.5t-149.5 -54.5q-18 0 -36 3zM230 264l-81 -233q17 -5 37 -5q46 0 83 31t37 84q0 41 -18.5 67t-57.5 56zM235 376 l78 225q-17 6 -41 6q-55 0 -84 -32.5t-29 -74.5q0 -29 11.5 -53t26 -38.5t38.5 -32.5z" />
<glyph unicode="%" horiz-adv-x="630" d="M458 300q-45 0 -77 -53t-32 -115q0 -45 16 -78.5t49 -33.5q45 0 73.5 55t28.5 120q0 42 -13.5 73.5t-44.5 31.5zM468 327q55 0 84 -38.5t29 -93.5q0 -75 -54 -139t-125 -64q-54 0 -85 38.5t-31 92.5q0 76 54 140t128 64zM246 646q-45 0 -77 -53t-32 -115q0 -45 16 -78.5 t49 -33.5q45 0 73.5 55t28.5 120q0 42 -13.5 73.5t-44.5 31.5zM256 673q55 0 84 -38.5t29 -93.5q0 -75 -54 -139t-125 -64q-54 0 -85 38.5t-31 92.5q0 76 54 140t128 64zM647 650l-596 -650q-12 -12 -34 -12q-12 0 -15 11l596 653q11 11 22 11q22 0 27 -13z" />
<glyph unicode="&#x26;" horiz-adv-x="781" d="M418 536q35 0 59.5 -24.5t24.5 -59.5q0 -31 -14 -59.5t-38.5 -50t-52.5 -38.5t-62.5 -30.5t-60 -22t-53.5 -15.5q5 -104 53.5 -156.5t135.5 -52.5q71 0 129 48.5t58 116.5q0 12 -5 26.5t-10 19.5q-45 -15 -79.5 -39t-34.5 -54q0 -15 4 -22q-3 -2 -10 -0.5t-10 5.5 q-6 5 -10.5 13.5t-7.5 20t-3 23.5q0 32 28 57.5t87 50.5q201 86 191 249q11 1 20 -8q22 -44 22 -94q0 -57 -34.5 -103t-90.5 -73q6 -12 6 -36q0 -59 -39.5 -113t-105 -87t-137.5 -33q-50 0 -91.5 12t-75 37.5t-52.5 69t-20 102.5q-46 -11 -71 -25.5t-25 -36.5q0 -5 1 -9 t4 -7.5t4.5 -5.5t5.5 -5t5 -4q19 -17 19 -33q0 -21 -12.5 -32t-31.5 -11q-16 0 -25 5q-9 8 -14.5 24.5t-5.5 30.5q0 31 12.5 57t37 45t59.5 29q6 2 18.5 5.5t19.5 4.5q6 71 42 136.5t99 108.5t137 43zM221 274q188 65 188 161q0 59 -51 59t-91.5 -63t-45.5 -157z" />
<glyph unicode="'" horiz-adv-x="181" d="M174 698q23 0 28.5 -10.5t-0.5 -54.5q-6 -31 -28.5 -94t-30.5 -90q-5 -15 -21 -15q-6 0 -11 3.5t-4 9.5q4 40 4 75.5t-2 68t-2 45.5q3 17 23 39.5t44 22.5z" />
<glyph unicode="(" horiz-adv-x="260" d="M277 748q7 -3 7 -13q-37 -43 -78.5 -121.5t-74.5 -205.5t-23 -244q16 -188 95 -273q0 -10 -5 -12q-50 19 -94.5 98.5t-54.5 199.5q-7 85 6.5 166.5t38.5 142t61 116t64.5 88t57.5 58.5z" />
<glyph unicode=")" horiz-adv-x="260" d="M2 -121q-9 4 -7 13q37 43 78.5 121.5t74.5 205.5t23 244q-16 188 -95 273q0 10 5 12q50 -19 94.5 -98.5t54.5 -199.5q7 -85 -6.5 -166.5t-38.5 -142t-61 -116t-64.5 -88t-57.5 -58.5z" />
<glyph unicode="*" horiz-adv-x="400" d="M256 514q8 0 22.5 18.5t29 41t34.5 41t37 18.5q23 0 23 -24t-33 -47t-66.5 -40.5t-33.5 -30.5q0 -9 19.5 -15.5t42.5 -10.5t42.5 -16t19.5 -30q0 -14 -11 -25t-26 -11q-18 0 -38 20.5t-36.5 41.5t-26.5 21t-13.5 -18t-6.5 -51.5t-10 -55.5q-6 -21 -17.5 -32t-23.5 -11 q-10 0 -16.5 7.5t-6.5 20.5q0 22 32.5 74.5t32.5 63.5q0 9 -9 9q-8 0 -55 -20.5t-68 -20.5q-30 0 -30 24q0 9 3.5 17.5t18 17.5t39.5 9q16 0 42.5 -3.5t35.5 -3.5q25 0 25 17q0 10 -25.5 49.5t-25.5 63.5q0 18 10.5 29.5t23.5 11.5q11 0 18 -7t10 -20.5t4 -26t1 -30.5 q0 -66 12 -66z" />
<glyph unicode="+" horiz-adv-x="454" d="M23 217q-5 0 -5 8q0 18 13 35h172l33 175q2 8 17 12t24 4q6 0 8 -2.5t1 -5.5l-35 -183h171q3 0 3 -8q0 -22 -12 -35h-170l-35 -178q-3 -16 -35 -16q-14 0 -14 8l36 186h-172z" />
<glyph unicode="," horiz-adv-x="200" d="M-28 -89q19 9 43.5 33t24.5 54q0 26 -8.5 46t-8.5 35q0 22 16 36t39 14q20 0 28 -10q3 -8 3 -24q0 -64 -36 -123q-19 -31 -44.5 -52.5t-42.5 -28.5q-3 0 -8.5 7t-5.5 13z" />
<glyph unicode="-" horiz-adv-x="371" d="M74 261l227 12q6 0 6 -12q0 -11 -8 -30.5t-15 -20.5l-226 -11q-5 0 -5 15q0 10 7 28t14 19z" />
<glyph unicode="." horiz-adv-x="208" d="M8 33q0 27 21 48t46 21q19 0 31 -12.5t12 -32.5q0 -27 -20.5 -49t-45.5 -22q-19 0 -31.5 13.5t-12.5 33.5z" />
<glyph unicode="/" horiz-adv-x="382" d="M451 755l-424 -767q-3 -6 -17.5 -14t-29.5 -8q-9 0 -12 6l425 767q4 7 18.5 14.5t27.5 7.5q8 0 12 -6z" />
<glyph unicode="0" horiz-adv-x="456" d="M170 320q-25 -118 -7.5 -203t68.5 -85q59 0 108 84t74 209q23 118 6 199.5t-68 81.5q-57 0 -107 -82t-74 -204zM88 319q10 52 28 100t43 88.5t54.5 70.5t65.5 46.5t74 16.5q47 0 81 -26t50 -70t19.5 -102.5t-10.5 -123.5q-18 -88 -55.5 -160.5t-93 -117t-116.5 -44.5 q-62 0 -100.5 45t-47 116.5t7.5 160.5z" />
<glyph unicode="1" horiz-adv-x="456" d="M224 534q-11 6 -9 20q0 5 3 6q174 82 178 82h2q8 0 8 -19q-16 -33 -28 -94l-76 -394q-11 -61 -10 -89q1 -7 25 -13.5t33 -6.5q3 0 0 -18q-1 -8 -3 -11q-92 5 -110 5q-13 0 -108 -5q-3 4 0 16.5t6 12.5q12 0 39 6.5t30 13.5q8 17 16 57l70 360q6 26 8 40t3 27.5t-2.5 18.5 t-10.5 5q-6 0 -28.5 -7t-35.5 -13z" />
<glyph unicode="2" horiz-adv-x="456" d="M485 512q0 -63 -29 -114t-89 -112q-13 -14 -29.5 -30t-33 -31.5t-33.5 -32t-32.5 -31t-30.5 -28t-26.5 -24.5t-20.5 -19t-13.5 -12.5l-4.5 -4.5h170q72 0 105 74q4 9 13 9q2 0 6 -1t7.5 -2.5t3.5 -2.5q-64 -120 -77 -150h-325q-6 6 -6 15q41 37 127 125.5t130 138.5 q52 58 75.5 107.5t23.5 99.5q0 42 -22.5 66.5t-59.5 24.5q-34 0 -68.5 -18.5t-52 -35.5t-28.5 -32q-5 0 -10 6.5t-4 9.5q3 7 12 19t22.5 27t31.5 30.5t38.5 29t44.5 21.5t47 8q57 0 97.5 -36.5t40.5 -93.5z" />
<glyph unicode="3" horiz-adv-x="456" d="M360 642q39 0 70 -28.5t31 -80.5q0 -45 -35.5 -87t-80.5 -67q41 -5 72 -47t31 -88q0 -44 -20 -84.5t-50.5 -69.5t-67 -51t-71.5 -33t-62 -11q-69 0 -105 25q-9 11 -9 28q0 23 12.5 40.5t29.5 17.5q15 0 24 -7t17 -21.5t11 -18.5q19 -24 64 -24q48 0 95 52.5t47 131.5 q0 50 -26 79t-71 29q-19 0 -59 -10q-4 7 -4 14q0 13 3 17q31 5 62.5 19.5t58.5 35t44 49.5t17 61q0 39 -21.5 57t-55.5 18q-21 0 -41.5 -8.5t-32.5 -18.5t-24 -21t-13 -12q-4 0 -5.5 8.5t0.5 15.5q74 90 165 90z" />
<glyph unicode="4" horiz-adv-x="456" d="M476 644q6 0 10 -6t3 -12l-77 -395h56q4 0 6 -12.5t-1 -28.5q-2 -8 -7 -16h-65l-34 -175q-7 -5 -43 -5q-19 0 -26.5 1.5t-6.5 6.5l34 172h-262q-8 5 -5 19l385 426q6 7 17 16t16 9zM393 524l-264 -293h207z" />
<glyph unicode="5" horiz-adv-x="456" d="M448 247q0 -44 -19.5 -85t-50 -70.5t-67.5 -52t-72 -33.5t-62 -11q-69 0 -105 25q-9 11 -9 28q0 23 13 40.5t29 17.5q15 0 24 -7t17 -21.5t11 -18.5q19 -24 64 -24q48 0 95 52.5t47 131.5q0 11 -1.5 21t-5.5 24t-13 25.5t-21.5 21.5t-33 15.5t-46.5 5.5q-34 0 -75 -13 q-6 4 -14 14q26 76 55.5 180.5t34.5 117.5q204 6 234 13q10 -5 10 -13q0 -11 -11.5 -33.5t-21.5 -36.5q-15 -3 -47 -5t-62 -2.5t-56 -1t-31 -1.5q-2 -3 -11 -34.5t-22 -74t-21 -65.5q15 6 47 12t50 6q70 0 108.5 -45.5t38.5 -102.5z" />
<glyph unicode="6" horiz-adv-x="456" d="M325 380q38 0 68 -20.5t46 -55t16 -74.5q0 -56 -33.5 -111.5t-86.5 -90t-107 -34.5q-44 0 -77 21t-51.5 62t-18.5 96q0 64 31.5 142.5t92.5 148.5q45 51 122 100.5t162 78.5q4 0 6 -9.5t1 -15.5q-216 -92 -291 -268q-42 -99 -42 -190q0 -34 7 -62t25 -49.5t45 -21.5 q45 0 90 57.5t45 139.5q0 50 -23.5 79.5t-72.5 29.5q-23 0 -48 -14q-6 4 -6 10q0 10 38 30.5t62 20.5z" />
<glyph unicode="7" horiz-adv-x="456" d="M103 14q59 74 150 209.5t153 234.5l62 99h-232q-17 0 -34 -14t-26.5 -28t-21.5 -35q-1 -3 -7 -3q-12 0 -21 5q2 5 31 67.5t35 83.5h286q15 0 39 1.5l24 1.5q6 0 4 -9q-1 -5 -5 -13t-8.5 -14.5t-13 -19.5t-13.5 -20l-354 -563q-3 -3 -10 -3q-11 0 -25 7t-13 13z" />
<glyph unicode="8" horiz-adv-x="456" d="M358 643q64 0 100 -41.5t23 -110.5q-15 -75 -133 -147q-6 -1 -1 -6q43 -30 70.5 -76t18.5 -95q-14 -74 -77.5 -125t-134.5 -51q-77 0 -116.5 45t-24.5 118q5 29 21 54.5t41 46.5t40.5 32t40.5 26q6 3 9 5q6 4 2 6q-32 23 -53.5 64.5t-11.5 91.5q13 64 69 113.5t117 49.5z M346 608q-35 0 -64 -32t-39 -84q-13 -68 72 -128q4 -2 5 -2q3 0 6 2q71 45 87 122q9 47 -9 84.5t-58 37.5zM233 27q30 0 55.5 13.5t42.5 38.5t24 59q4 23 -3 47.5t-18 41t-28.5 34t-24 23t-15.5 11.5q-4 2 -5 2q-3 0 -4 -1q-44 -27 -67.5 -59t-32.5 -80q-8 -39 1.5 -69.5 t29.5 -45.5t45 -15z" />
<glyph unicode="9" horiz-adv-x="456" d="M255 257q-38 0 -68 20.5t-46 55t-16 74.5q0 42 20 85.5t52 76t73.5 53.5t81.5 21q66 0 106.5 -48t40.5 -131q0 -41 -12.5 -88t-41.5 -101.5t-70 -101.5q-45 -51 -122.5 -100.5t-161.5 -78.5q-4 0 -6 9.5t-1 15.5q216 92 291 268q42 99 42 190q0 24 -4 46.5t-12.5 42.5 t-24.5 32t-36 12q-46 0 -90.5 -57.5t-44.5 -139.5q0 -50 23 -79.5t73 -29.5q22 0 48 14q6 -4 6 -10q0 -10 -38 -30.5t-62 -20.5z" />
<glyph unicode=":" horiz-adv-x="236" d="M83 367q0 28 21.5 49.5t47.5 21.5q20 0 32.5 -13.5t12.5 -33.5q0 -28 -21 -50.5t-47 -22.5q-20 0 -33 14t-13 35zM19 34q0 28 21 50t47 22q20 0 32.5 -13.5t12.5 -34.5q0 -28 -21 -50t-47 -22q-20 0 -32.5 13.5t-12.5 34.5z" />
<glyph unicode=";" horiz-adv-x="252" d="M99 367q0 28 21.5 49.5t47.5 21.5q20 0 32.5 -13.5t12.5 -33.5q0 -28 -21 -50.5t-47 -22.5q-20 0 -33 14t-13 35zM-17 -89q19 9 43.5 33t24.5 54q0 26 -8.5 46t-8.5 35q0 22 16 36t39 14q20 0 28 -10q3 -8 3 -24q0 -64 -36 -123q-19 -31 -44.5 -52.5t-42.5 -28.5 q-3 0 -8.5 7t-5.5 13z" />
<glyph unicode="&#x3c;" horiz-adv-x="447" d="M87 209l274 -168q2 -1 2 -5q0 -9 -10.5 -29.5t-14.5 -20.5q-2 0 -4 1l-312 190q-10 7 -10 26q0 26 23 38l381 187q2 1 4 1q7 0 7 -35q0 -18 -5 -20z" />
<glyph unicode="=" horiz-adv-x="560" d="M39 117q-5 0 -5 6q0 5 8.5 27.5t14.5 22.5h416q6 0 6 -5q0 -2 -18 -45l-7 -6h-415zM67 259q-4 0 -4 6q0 4 8 27t14 23h415q6 0 6 -5t-17 -45q-1 -3 -3 -4.5t-4 -1.5h-1h-414z" />
<glyph unicode="&#x3e;" horiz-adv-x="448" d="M339 209l-272 165q-2 1 -2 4q0 6 11 29t15 23l4 -2l307 -187q12 -7 12 -20q0 -32 -24 -44l-385 -190q-4 -2 -6 -2q-6 0 -6 48l5 8z" />
<glyph unicode="?" horiz-adv-x="320" d="M40 32q0 28 20 49t45 21q19 0 32 -13t13 -33q0 -27 -21.5 -48.5t-46.5 -21.5q-19 0 -30.5 13t-11.5 33zM175 197q0 -10 -10 -16q-23 0 -61 32t-38 70q0 49 49 83q82 56 116 80q46 32 46 76q0 28 -14.5 44t-37.5 16t-43.5 -23t-38.5 -23q-34 0 -34 52q4 13 31.5 28 t54.5 15q54 0 93.5 -40.5t39.5 -88.5q0 -63 -44 -104q-13 -12 -54 -37.5t-61 -39.5q-33 -22 -33 -60q0 -19 13 -37t26 -27z" />
<glyph unicode="@" horiz-adv-x="759" d="M421 577q133 0 205 -83.5t72 -211.5q0 -73 -24 -131t-60.5 -90.5t-74.5 -49.5t-71 -17q-34 0 -52 19.5t-18 44.5q0 14 5 40q1 6 5 32q-25 -44 -67.5 -89.5t-80.5 -45.5q-41 0 -64.5 33.5t-23.5 86.5q0 119 92.5 219.5t196.5 100.5q38 0 73 -13l-64 -317q-7 -35 0.5 -55 t26.5 -20q55 0 107 79t52 158q0 127 -63 201t-180 74q-63 0 -125 -29.5t-111 -81t-79.5 -128t-30.5 -163.5q0 -58 26 -111.5t67 -86.5q26 -20 46 -29q-8 -7 -32 -7q-17 0 -39 15t-35 30q-71 84 -71 190q0 185 116.5 310.5t275.5 125.5zM413 395q-58 0 -112.5 -79.5 t-54.5 -165.5q0 -97 51 -97q36 0 80.5 72.5t59.5 147.5l21 107q-14 15 -45 15z" />
<glyph unicode="A" horiz-adv-x="586" d="M341 26q57 0 57 31q0 30 -3 49l-22 150h-199q-48 -87 -71 -131q-29 -56 -29 -75q0 -13 23 -18.5t39 -5.5q1 -2 -0.5 -13t-3.5 -16q-13 1 -28.5 2t-29 2t-31.5 1q-19 0 -33.5 -1t-31.5 -2t-33 -2q-1 2 1 13t5 16q11 0 30 5t27 14q25 27 62 94l276 495q6 11 19.5 20t20.5 9 q2 0 5 -3l86 -534q2 -14 5 -32t4.5 -26t1.5 -10q3 -13 18 -21t26 -9.5t19 -1.5q2 -6 0.5 -16t-3.5 -13q-92 5 -109 5q-19 0 -34.5 -1t-34.5 -2t-35 -2q-3 4 -1 14.5t7 14.5zM192 289h175l-38 246z" />
<glyph unicode="B" horiz-adv-x="566" d="M218 370h94q50 0 85.5 44t35.5 108q0 47 -27 77.5t-87 30.5q-43 0 -49 -10t-19 -75zM211 339l-44 -225q-13 -61 -6 -71q12 -17 70 -17q79 0 128.5 51.5t49.5 142.5q0 15 -0.5 24.5t-8 29.5t-21 32.5t-42.5 22.5t-69 10h-57zM233 657q16 0 59 1t73 1q69 0 112.5 -30.5 t43.5 -91.5q0 -108 -120 -171q37 -3 70 -42.5t33 -97.5q0 -101 -83.5 -165t-211.5 -64h-214q-3 4 -0.5 14.5t6.5 14.5q14 0 39 4.5t28 11.5q7 14 19 74l83 427q11 56 10 74q0 8 -23 12t-38 4q-2 4 -0.5 14.5t5.5 14.5q95 -5 109 -5z" />
<glyph unicode="C" horiz-adv-x="645" d="M569 173q6 0 13 -2t11 -4l4 -2q-3 -16 -32 -72t-40 -65q-69 -36 -195 -36q-119 0 -195 79.5t-76 193.5q0 121 58.5 215t150.5 141t197 45q59 -1 161 -26q-6 -109 -10 -146q0 -5 -8 -5q-13 0 -23 5q4 59 -40.5 100t-108.5 41q-120 0 -201.5 -97t-80.5 -256q0 -37 6.5 -73 t22 -70.5t38.5 -60t58.5 -41.5t78.5 -16q131 0 211 152z" />
<glyph unicode="D" horiz-adv-x="684" d="M252 546l-85 -434q-13 -62 -8 -72q6 -14 73 -14q114 0 202 73.5t115 213.5q31 161 -28.5 239.5t-182.5 78.5q-62 0 -67 -11q-6 -13 -19 -74zM368 658q158 0 231.5 -91t45.5 -233q-13 -68 -41.5 -125t-77 -106t-124.5 -77.5t-174 -28.5h-233q-3 4 -0.5 14.5t6.5 14.5 q14 0 39 4.5t28 11.5q7 14 19 74l83 427q12 59 10 74q-1 7 -24 11.5t-37 4.5q-2 4 -0.5 14.5t5.5 14.5q95 -5 109 -5q17 0 65.5 0.5t69.5 0.5z" />
<glyph unicode="E" horiz-adv-x="554" d="M233 657q42 0 145 3.5t155 3.5q-2 -12 -0.5 -69.5t1.5 -66.5q-5 -5 -18 -5q-11 0 -11 7q-4 56 -26 78t-62 22h-80q-61 0 -66 -11q-11 -21 -20 -72l-37 -192q0 -2 3 -3t9 -2t12.5 -1h14.5h49q66 0 83 13q11 9 32 56q0 2 1 3q3 7 16 7q11 0 14 -5l-36 -189q-4 -4 -16 -4 q-11 0 -13 8q-3 62 -13 70t-97 8q-67 0 -69 -9l-39 -198q-13 -63 -7 -69q10 -10 64 -10h44q77 0 124 31q44 30 78 101q3 6 15 6q18 0 22 -6q-6 -12 -28 -52.5t-35 -67t-20 -46.5q-48 0 -149.5 2t-166.5 2q-23 0 -58.5 -1.5t-52.5 -1.5q-3 4 -1 14.5t6 14.5q14 0 39.5 4.5 t28.5 11.5q7 14 19 74l83 427q11 56 9 74q-1 7 -24 11.5t-37 4.5q-2 4 0 14.5t6 14.5q95 -5 109 -5z" />
<glyph unicode="F" horiz-adv-x="508" d="M233 657q42 0 145 3.5t155 3.5q-2 -12 -0.5 -69.5t1.5 -66.5q-5 -5 -18 -5q-11 0 -11 7q-4 56 -26 78t-62 22h-80q-61 0 -66 -11q-11 -21 -20 -72l-37 -192q0 -2 3 -3t9 -2t12.5 -1h14.5h49q66 0 83 13q11 9 32 56q0 2 1 3q3 7 16 7q11 0 14 -5l-36 -189q-4 -4 -16 -4 q-11 0 -13 8q-3 62 -13 70t-97 8q-67 0 -69 -9l-37 -191q-11 -56 -9 -74q1 -7 28 -11.5t42 -4.5q2 -4 0 -14.5t-6 -14.5q-95 5 -117 5q-23 0 -58 -2.5t-52 -2.5q-3 4 -1 14.5t6 14.5q14 0 39.5 4.5t28.5 11.5q7 14 19 74l83 427q11 56 9 74q-1 7 -24 11.5t-37 4.5 q-2 4 0 14.5t6 14.5q95 -5 109 -5z" />
<glyph unicode="G" horiz-adv-x="697" d="M585 494q4 59 -40.5 100t-108.5 41q-120 0 -201.5 -97t-80.5 -256q0 -64 19 -121t66.5 -98.5t115.5 -41.5q61 0 112 34q8 6 10 17l20 103q12 59 10 74q-1 7 -26 11.5t-40 4.5q-2 4 -0.5 14.5t5.5 14.5q95 -5 108 -5q12 0 110 5q3 -4 1.5 -14.5t-5.5 -14.5 q-14 0 -37.5 -4.5t-26.5 -11.5q-7 -14 -19 -74l-14 -71q-3 -9 -0.5 -22t2.5 -14q0 -11 -22 -22q-36 -19 -52.5 -26.5t-63 -17.5t-103.5 -10q-114 0 -189.5 80t-75.5 193q0 121 58.5 215t150.5 141t197 45q59 -1 161 -26q-1 -21 -5.5 -82.5t-4.5 -63.5q0 -5 -8 -5 q-13 0 -23 5z" />
<glyph unicode="H" horiz-adv-x="686" d="M168 116q-12 -59 -10 -74q1 -7 24 -11.5t37 -4.5q2 -4 0 -14.5t-6 -14.5q-95 5 -107 5q-14 0 -111 -5q-3 4 -1 14.5t6 14.5q14 0 39.5 4.5t28.5 11.5q7 14 19 74l83 427q11 56 9 74q-1 7 -24 11.5t-37 4.5q-2 4 0 14.5t6 14.5q95 -5 109 -5q12 0 110 5q3 -4 0.5 -14.5 t-6.5 -14.5q-14 0 -39 -4.5t-28 -11.5q-10 -20 -19 -74l-37 -187h292l37 187q10 63 9 74q-1 7 -24 11.5t-37 4.5q-2 4 0 14.5t6 14.5q95 -5 109 -5q12 0 110 5q3 -4 0.5 -14.5t-6.5 -14.5q-14 0 -39 -4.5t-28 -11.5q-7 -14 -19 -74l-83 -427q-12 -59 -10 -74q1 -7 24 -11.5 t37 -4.5q2 -4 0 -14.5t-6 -14.5q-95 5 -108 5q-12 0 -110 -5q-3 4 -1 14.5t6 14.5q14 0 39.5 4.5t28.5 11.5q7 14 19 74l39 200h-292z" />
<glyph unicode="I" horiz-adv-x="313" d="M233 657q12 0 110 5q3 -4 0.5 -14.5t-6.5 -14.5q-14 0 -39 -4.5t-28 -11.5q-7 -14 -19 -74l-83 -427q-12 -59 -10 -74q1 -7 24 -11.5t37 -4.5q2 -4 0 -14.5t-6 -14.5q-95 5 -107 5q-14 0 -111 -5q-3 4 -1 14.5t6 14.5q14 0 39.5 4.5t28.5 11.5q7 14 19 74l83 427 q11 56 9 74q-1 7 -24 11.5t-37 4.5q-2 4 0 14.5t6 14.5q95 -5 109 -5z" />
<glyph unicode="J" horiz-adv-x="313" d="M164 543q10 63 9 74q-1 7 -24 11.5t-37 4.5q-2 4 0 14.5t6 14.5q95 -5 109 -5q13 0 110 5q3 -4 0.5 -14.5t-6.5 -14.5q-14 0 -39 -4.5t-28 -11.5q-10 -20 -19 -74l-81 -427q-18 -94 -51.5 -165t-72.5 -109t-75.5 -56.5t-69.5 -18.5q-3 5 -3 13l1 6q81 25 122.5 99 t68.5 224z" />
<glyph unicode="K" horiz-adv-x="614" d="M481 72q34 -41 92 -46q5 -7 -6 -29q-103 0 -130 11q-33 14 -55 43q-24 33 -160 253q-1 3 -8 3q-5 0 -9 -2l-37 -189q-11 -56 -9 -74q1 -7 24 -11.5t37 -4.5q2 -4 0 -14.5t-6 -14.5q-95 5 -108 5q-12 0 -110 -5q-3 4 -1 14.5t6 14.5q14 0 39 4.5t28 11.5q7 14 19 74 l83 427q12 59 10 74q-1 7 -24 11.5t-37 4.5q-2 4 0 14.5t6 14.5q95 -5 109 -5q11 0 109 5q3 -4 1 -14.5t-6 -14.5q-14 0 -39.5 -4.5t-28.5 -11.5q-7 -14 -19 -74l-39 -203q32 19 124 99q12 10 29 25t23.5 20.5t17 15t15.5 14t12.5 12t14 14.5t14.5 15.5t19 20.5q17 19 19 31 q5 25 -47 25q-4 12 6 30q102 -6 105 -6q24 0 58.5 3t43.5 3q1 -5 -2 -17.5t-6 -12.5q-1 0 -6.5 -0.5t-10.5 -1t-13 -2t-16.5 -4t-17.5 -6t-18 -9.5t-17 -14q-69 -66 -257 -229q-8 -7 -2 -16q126 -208 181 -278z" />
<glyph unicode="L" horiz-adv-x="530" d="M166 112q-13 -67 -8 -72q10 -10 64 -10h53q61 0 108 27q48 27 85 105q3 6 15 6q18 0 22 -6q-6 -12 -28 -52.5t-35 -67t-20 -46.5q-48 0 -149.5 2t-166.5 2q-23 0 -58.5 -1.5t-52.5 -1.5q-3 4 -0.5 14.5t6.5 14.5q14 0 39 4.5t28 11.5q7 14 19 74l83 427q12 59 10 74 q-1 7 -24 11.5t-37 4.5q-2 4 -0.5 14.5t5.5 14.5q95 -5 109 -5q12 0 110 5q3 -4 0.5 -14.5t-6.5 -14.5q-14 0 -39 -4.5t-28 -11.5q-7 -14 -19 -74z" />
<glyph unicode="M" horiz-adv-x="838" d="M397 49q-6 -10 -22 -30t-23 -21q-1 0 -8 2l-114 584q-20 -96 -47.5 -221t-45.5 -205.5t-18 -82.5q-4 -17 -2 -31q2 -10 28 -14t42 -4q2 -4 0 -15t-4 -14q-92 5 -97 5q-2 0 -110 -5q-1 2 1 13t5 16q15 0 43 5t35 13q13 15 21 50q97 421 106 478q6 28 4 40q-1 8 -25 14.5 t-36 6.5q-2 5 0.5 16t5.5 13q58 -4 90 -4q39 0 81 4q3 -28 28 -159t49 -247l23 -117l56 101q56 100 113 201l56 101l64 120q58 -4 70 -4q44 0 92 4l-2 -29q-13 0 -39 -5.5t-31 -12.5q-8 -15 -12 -38l-76 -437q-12 -67 -7 -97q1 -9 24 -13t37 -4q5 -16 -3 -29q-93 5 -110 5 q-5 0 -113 -5q-1 2 1 13t5 16q43 0 63 11q8 5 16 42q1 6 13.5 83t33 203t32.5 201z" />
<glyph unicode="N" horiz-adv-x="732" d="M628 541q10 53 3 72q-3 9 -27 14.5t-40 5.5q-6 14 3 29q74 -4 102 -4q18 0 104 4q6 -14 -4 -29q-13 0 -41 -5.5t-34 -13.5q-13 -17 -22 -68l-79 -407q-18 -97 -25 -140q-4 -4 -17 -4q-15 0 -27 23l-300 551l-88 -454q-10 -52 -4 -69q3 -7 28 -13.5t39 -6.5q5 -11 -4 -29 q-93 5 -104 5q-19 0 -34.5 -1t-34 -2t-34.5 -2q-5 12 6 29q13 0 41.5 6t34.5 14q14 19 23 68l84 434q9 52 4 68q-3 8 -28 12.5t-40 4.5q-5 17 5 29q84 -4 85 -4q30 0 82 4q16 -39 124 -230t145 -270z" />
<glyph unicode="O" horiz-adv-x="710" d="M406 635q-98 0 -174.5 -107t-76.5 -260q0 -47 8 -88t26.5 -79.5t54 -60.5t84.5 -22q73 0 131.5 57t88.5 142t30 176q0 41 -7.5 79t-25 77t-53.5 62.5t-86 23.5zM415 665q116 0 186.5 -80t70.5 -203q0 -172 -103 -282.5t-250 -110.5q-118 0 -188 81t-70 203 q0 168 106.5 280t247.5 112z" />
<glyph unicode="P" horiz-adv-x="511" d="M523 508q0 -94 -70 -160t-163 -66q-32 0 -45 10q-8 8 -8 16q0 2 4 4q8 -4 33 -4q59 0 109.5 53t50.5 133q0 136 -116 136q-42 0 -48 -10t-19 -75l-84 -429q-11 -56 -9 -74q1 -7 24 -11.5t37 -4.5q2 -4 0 -14.5t-6 -14.5q-95 5 -108 5t-110 -5q-3 4 -1 14.5t6 14.5 q14 0 39.5 4.5t28.5 11.5q7 14 19 74l83 427q11 56 9 74q-1 7 -24 11.5t-37 4.5q-2 4 0 14.5t6 14.5q95 -5 111 -5t46.5 1t60.5 1q80 0 130.5 -41.5t50.5 -109.5z" />
<glyph unicode="Q" horiz-adv-x="710" d="M415 665q116 0 186.5 -80t70.5 -203q0 -151 -81 -256t-205 -130q16 -9 46 -29t43.5 -27t40.5 -14t59 -7q45 0 91 13q5 0 12 -5t7 -8q-108 -55 -176 -55q-42 0 -86.5 25.5t-97 62t-97.5 52.5q-79 28 -123 100.5t-44 168.5q0 168 106.5 280t247.5 112zM406 635 q-98 0 -174.5 -107t-76.5 -260q0 -47 8 -88t26.5 -79.5t54 -60.5t84.5 -22q73 0 131.5 57t88.5 142t30 176q0 41 -7.5 79t-25 77t-53.5 62.5t-86 23.5z" />
<glyph unicode="R" horiz-adv-x="579" d="M553 -3q-73 0 -113 9.5t-56 40.5q-55 108 -105 244q-4 12 -26 12h-49l-36 -187q-12 -59 -10 -74q1 -7 24 -11.5t37 -4.5q2 -4 0 -14.5t-6 -14.5q-95 5 -107 5q-14 0 -111 -5q-3 4 -1 14.5t6 14.5q14 0 39.5 4.5t28.5 11.5q7 14 19 74l83 427q11 56 9 74q-1 7 -24 11.5 t-37 4.5q-2 4 0 14.5t6 14.5q95 -5 112 -5q16 0 59 1t73 1q67 0 111.5 -37t44.5 -104t-49.5 -120.5t-114.5 -77.5q51 -140 106 -234q18 -31 37 -44t56 -16q5 -7 -6 -29zM210 333h50q67 0 121 47t54 132q0 19 -4 36.5t-15 37.5t-36 32t-61 12q-43 0 -49 -10t-19 -75z" />
<glyph unicode="S" horiz-adv-x="472" d="M312 666q21 0 40.5 -2.5t30 -4.5t34 -8.5t32.5 -8.5q-6 -70 -21 -144q-1 -7 -10 -7q-14 0 -21 7q4 63 -19 100t-74 37q-57 0 -90.5 -36t-33.5 -79q0 -24 5.5 -42.5t21 -36.5t23.5 -26t34 -27.5t31 -23.5q7 -5 32.5 -24t36 -29t27 -29t23.5 -40.5t7 -48.5 q0 -88 -70.5 -144.5t-157.5 -56.5q-74 0 -147 42q-9 36 -11.5 86.5t-0.5 63.5q4 6 25 6q7 0 10 -6q0 -32 12.5 -67t45 -65t78.5 -30q52 0 89.5 34t37.5 91q0 34 -15.5 62.5t-31 43t-48.5 41.5q-11 8 -36.5 26.5t-38 29.5t-29 30t-24 43t-7.5 53q0 81 67 135.5t143 54.5z" />
<glyph unicode="T" horiz-adv-x="587" d="M550 655q29 0 59 15q12 6 18 2q-9 -110 -9 -172q-8 -8 -20 -7q-10 0 -12 5q1 55 -15 88.5t-49 33.5h-118l-99 -504q-12 -59 -10 -74q1 -7 24 -11.5t37 -4.5q2 -4 0.5 -14.5t-5.5 -14.5q-95 5 -108 5t-111 -5q-3 4 -0.5 14.5t6.5 14.5q14 0 39 4.5t28 11.5q7 14 19 74 l99 504h-120q-33 0 -62.5 -33.5t-50.5 -88.5q-3 -5 -14 -5q-11 -1 -17 7q28 72 58 172q8 4 20 -3q23 -14 50 -14h363z" />
<glyph unicode="U" horiz-adv-x="661" d="M218 657q13 0 110 5q3 -4 0.5 -14.5t-6.5 -14.5q-14 0 -39 -4.5t-28 -11.5q-7 -14 -19 -74l-48 -247q-23 -119 5 -176q33 -66 121 -66q78 0 128.5 49t76.5 171l53 271q10 52 4 69q-3 7 -26.5 13.5t-36.5 6.5q-5 11 4 29q92 -5 100 -5q19 0 34 1t33.5 2t34.5 2 q5 -13 -5 -29q-13 0 -42 -6t-35 -14q-13 -17 -22 -68l-53 -270q-29 -146 -98 -213t-181 -67q-106 0 -158 72q-49 70 -27 183l57 292q12 59 10 74q-1 7 -24 11.5t-37 4.5q-2 4 0 14.5t6 14.5q95 -5 108 -5z" />
<glyph unicode="V" horiz-adv-x="596" d="M175 657q21 0 116 5q1 -5 -1.5 -16.5t-5.5 -12.5q-7 0 -18.5 -2t-26.5 -10t-17 -21q-3 -17 4 -71q5 -41 20 -139.5t27 -179t13 -82.5l225 396q21 35 27 70q4 21 -16.5 30t-36.5 9q-3 1 -1 13t6 16q85 -5 98 -5q19 0 33 1t29.5 2t29.5 2q1 -4 -2 -16.5t-5 -12.5 q-10 0 -31 -6.5t-34 -19.5q-23 -23 -66 -101l-273 -474q-19 -34 -42 -34q-2 0 -6 16q-13 77 -37.5 236.5t-41.5 263.5q-9 62 -24 96q-5 11 -24.5 17t-31.5 6q-1 0 0 7t3 14t3 8q105 -5 107 -5z" />
<glyph unicode="W" horiz-adv-x="841" d="M172 657q18 0 113 5q1 -5 -2 -16.5t-6 -12.5q-7 0 -18.5 -2t-26.5 -10t-17 -21q-1 -7 2 -55q6 -102 30 -400l229 484q7 14 19.5 23.5t20.5 9.5q4 0 8 -16q5 -52 59 -502l171 380q19 42 24 70q3 14 -9.5 24t-25 12.5t-21.5 2.5q-3 1 -0.5 13t6.5 16q85 -5 99 -5q19 0 33 1 t29.5 2t29.5 2q1 -4 -2 -16.5t-5 -12.5q-8 0 -29.5 -7.5t-35.5 -18.5q-20 -16 -48 -76l-233 -499q-6 -13 -19.5 -23.5t-22.5 -10.5q-6 0 -6 16q-8 72 -61 497l-228 -479q-6 -13 -19 -23.5t-22 -10.5q-7 0 -7 16l-48 518q0 4 -1 14t-1 13.5t-1 11t-1.5 10.5t-1.5 8.5t-2.5 9 t-3.5 7.5t-5 7q-7 9 -23.5 14.5t-27.5 5.5q-1 0 0 7t3 14t3 8q15 -1 33.5 -2t33.5 -2t34 -1z" />
<glyph unicode="X" horiz-adv-x="620" d="M224 657q25 0 120 5q1 -5 -1.5 -17t-5.5 -12q-17 0 -38 -7.5t-24 -24.5q-3 -11 5 -30l74 -179q154 174 172 200q7 11 8 16q1 4 -3 9t-19 10t-39 5q-3 1 -1 12t5 17q62 -5 99 -5q46 0 103 5q2 -4 -0.5 -14.5t-7.5 -14.5q-7 0 -19 -2t-34 -12t-37 -26l-213 -231l123 -295 q17 -40 83 -40q5 -9 -5 -29q-93 5 -94 5q-7 0 -137 -5q-3 4 -1 16.5t6 12.5q13 0 35 8t25 20q1 3 -2 12l-96 234q-102 -115 -199 -234q-7 -11 -8 -16q-1 -4 4.5 -9t21.5 -10t40 -5q2 -4 0 -15t-4 -14q-85 5 -104 5q-20 0 -115 -5q-1 4 2 15t5 14q8 0 23 2t40.5 12t40.5 26 l237 266l-89 216q-19 49 -48 69q-22 16 -49 16q-2 1 -2 6.5t2.5 13t5.5 9.5q112 -5 115 -5z" />
<glyph unicode="Y" horiz-adv-x="556" d="M211 116l29 151q2 17 -1 28l-83 253q-15 46 -48 69q-22 16 -49 16q-2 1 -2 6.5t2.5 13t5.5 9.5q113 -5 115 -5q25 0 120 5q1 -5 -1.5 -17t-5.5 -12q-17 0 -38 -7.5t-24 -24.5q-2 -8 5 -30l81 -240q136 190 175 261q5 7 6 15q1 4 -3.5 9.5t-20 10.5t-39.5 5q-2 2 0 14 t4 15q85 -5 93 -5t103 5q0 -3 -3 -16t-5 -13q-60 0 -89 -40l-205 -291q-4 -6 -10 -31l-31 -154q-12 -59 -10 -74q1 -7 24 -11.5t37 -4.5q2 -4 0.5 -14.5t-5.5 -14.5q-95 5 -108 5q-14 0 -111 -5q-3 4 -0.5 14.5t6.5 14.5q14 0 39 4.5t28 11.5q7 14 19 74z" />
<glyph unicode="Z" horiz-adv-x="602" d="M279 629q-46 0 -86 -37t-68 -100q-3 -4 -11 -4q-18 0 -23 8q32 59 64 173q51 -8 75 -8h181q65 0 197 10q4 -1 8.5 -9t3.5 -13q-2 -4 -85 -105.5t-210 -252t-222 -259.5h244q61 0 110 53q9 10 18.5 23t13.5 20.5t13.5 24.5t10.5 19q1 3 13 3q14 0 21 -9q-47 -98 -73 -166 h-470q-8 0 -13 5t-1 9l518 616z" />
<glyph unicode="[" horiz-adv-x="260" d="M161 717q0 2 2 6.5t7.5 10.5t13.5 6q45 0 98 4l52 5q5 0 5 -6q0 -5 -1.5 -10t-4 -9t-6 -7.5t-6 -5.5t-4.5 -3l-2 -2q-46 -11 -96 -11q-3 0 -5 -2t-2 -4l-1 -2l-144 -736q-1 -7 5 -8q62 -7 93 -25q3 -1 8 -8t5 -13q0 -5 -2 -8.5t-4 -4.5l-1 -2q-81 16 -157 16q-9 0 -7 11z " />
<glyph unicode="\" horiz-adv-x="368" d="M290 -4q2 -11 -8 -23.5t-19 -12.5q-8 0 -12 3l-136 792q5 7 14 7q14 0 24.5 -13t12.5 -24z" />
<glyph unicode="]" horiz-adv-x="258" d="M109 749l9 -1q8 -1 22 -2.5t32 -2.5t40.5 -2t44.5 -1q13 0 13 -15q0 -5 -1 -8l-154 -796q0 -2 -1.5 -6.5t-7 -10.5t-13.5 -6q-34 0 -70.5 -3t-56.5 -6l-20 -3q-4 3 -4 9q0 11 20 31q49 17 96 17q3 0 5 2t3 4l1 2l143 736q1 8 -5 8q-22 0 -45 2.5t-35 5.5l-12 3 q-12 12 -12 22q0 21 8 21z" />
<glyph unicode="^" horiz-adv-x="303" d="M13 499q2 4 28 25.5t64 62.5t69 90l2.5 5l2 4t1.5 2t2.5 1.5t3.5 0.5q10 0 13 -6.5t12.5 -34.5t25.5 -61q6 -13 21 -34t26.5 -36.5t11.5 -17.5q-2 -8 -7 -16.5t-10 -8.5q-14 0 -52.5 46.5t-54.5 75.5q-33 -39 -87 -80.5t-64 -41.5q-8 0 -8 24z" />
<glyph unicode="_" horiz-adv-x="475" d="M-39 -37q0 5 9.5 27.5t14.5 22.5h414q6 0 6 -4q0 -6 -18 -46l-6 -6h-415q-5 0 -5 6z" />
<glyph unicode="`" horiz-adv-x="201" d="M183 490q-13 0 -88 44t-75 57q0 15 13 22.5t26 7.5q23 0 37 -10q10 -7 52.5 -56t42.5 -55q0 -2 -3 -6t-5 -4z" />
<glyph unicode="a" d="M305 435q43 0 78 -13l-61 -316q-14 -57 6 -57q5 0 12.5 4t14.5 10t15 14t13.5 14t10.5 11l4 5q2 0 6 -7.5t4 -11.5q-12 -21 -56 -57.5t-75 -36.5q-16 0 -25 14.5t-9 37.5q0 16 7 53q4 24 5 31q-23 -42 -66 -88.5t-81 -46.5q-40 0 -64.5 32.5t-24.5 85.5q0 63 27.5 123.5 t69.5 103t93 69t96 26.5zM259 395q-58 0 -112 -79t-54 -165q0 -98 51 -98q36 0 80.5 73t59.5 148l21 106q-13 15 -46 15z" />
<glyph unicode="b" horiz-adv-x="429" d="M275 380q-34 0 -88 -72.5t-69 -151.5q-25 -129 46 -129q39 0 75.5 52.5t55.5 116t19 106.5q0 78 -39 78zM143 285q47 78 95.5 114t79.5 36q34 0 52 -30t18 -83q0 -86 -41 -163.5t-99 -121t-112 -43.5q-43 0 -68 31t-25 86q0 11 6 47l79 401q9 41 9 53q0 19 -61 19 q-2 3 -0.5 10.5t4.5 10.5q55 5 132 33q6 -4 6 -19q0 -10 -13 -75z" />
<glyph unicode="c" horiz-adv-x="359" d="M275 435q32 0 62 -25q9 -12 9 -27q0 -19 -9 -32t-25 -13q-24 0 -36 20q-22 36 -52 36q-44 0 -83 -68t-39 -164q0 -109 69 -109q8 0 17 3t17.5 7.5t17 10.5t15.5 12t14 12.5t11 11t7 8.5l4 4q2 0 7 -8t5 -12q-15 -25 -62.5 -66.5t-88.5 -41.5q-53 0 -82 38t-29 108 q0 114 84 204.5t167 90.5z" />
<glyph unicode="d" d="M296 341q3 19 -6.5 36.5t-28.5 17.5q-60 0 -114 -79t-54 -166q0 -97 51 -97q37 0 81 73.5t59 149.5zM339 559q1 6 3.5 18t4 21t1.5 14q0 19 -61 19q-2 3 -0.5 10.5t4.5 10.5q55 5 132 33q6 -4 6 -19q0 -10 -13 -75l-94 -485q-4 -16 -4 -33q0 -24 10 -24q5 0 12.5 4 t14.5 10t15 14t13.5 14t10.5 11l4 5q2 0 6 -7.5t4 -11.5q-12 -21 -56 -57.5t-75 -36.5q-16 0 -25 14.5t-9 37.5q0 16 7 53q2 8 5 31q-18 -37 -63.5 -86t-84.5 -49q-43 0 -65.5 36t-22.5 85q0 116 92.5 217.5t191.5 101.5h5h8z" />
<glyph unicode="e" horiz-adv-x="363" d="M274 435q35 0 50.5 -18t15.5 -44q0 -44 -47 -88t-102 -68t-88 -24q-2 -6 -2 -32q0 -108 69 -108q8 0 17 3t17.5 7.5t17 10.5t15.5 12t14 12.5t11 11t8 8.5l3 4q2 0 7 -8t5 -12q-16 -27 -63.5 -67.5t-88.5 -40.5q-53 0 -81.5 37.5t-28.5 107.5q0 109 81.5 202.5 t169.5 93.5zM105 218q38 0 99.5 43t61.5 93q0 19 -13 29.5t-29 10.5q-46 0 -80 -62.5t-39 -113.5z" />
<glyph unicode="f" horiz-adv-x="296" d="M336 685q41 0 54 -25v-9q-4 -47 -30 -47q-17 0 -38 23q-15 15 -29 15q-28 0 -46.5 -50.5t-43.5 -178.5h100q5 0 5 -12q0 -11 -9 -25h-103q-35 -207 -59 -333q-23 -120 -84 -198t-123 -78q-41 0 -54 25q0 11 1 16q6 40 29 40q17 0 38 -23q15 -15 29 -15q28 0 46.5 50.5 t43.5 178.5l60 337h-85q-2 0 -2 3q0 9 15 21.5t31 12.5h47q23 119 84 195.5t123 76.5z" />
<glyph unicode="g" horiz-adv-x="412" d="M278 -118q0 22 -14 41t-41 32.5t-47 21.5t-49 17q-101 -43 -101 -104q0 -88 143 -88q49 0 79 23.5t30 56.5zM212 407q-45 0 -71.5 -51t-26.5 -109q0 -40 16 -68t46 -28q45 0 71 45t26 98q0 41 -17 77t-44 36zM333 381q0 -1 4 -13.5t7 -28t3 -27.5q0 -37 -10.5 -68.5 t-28 -51.5t-29 -30t-23.5 -17t-43.5 -19.5t-51.5 -23t-20 -20.5t31.5 -22.5t69 -25.5t69 -42.5t31.5 -69.5q0 -71 -63.5 -113t-170.5 -42q-69 0 -112.5 26t-43.5 72q0 75 144 141l-18 12q-25 17 -25 36q0 17 35.5 39t64.5 29q-32 0 -72.5 32t-40.5 85q0 82 58.5 139.5 t130.5 57.5q39 0 85 -22q6 -3 18.5 0t26.5 8.5t18 6.5q12 -4 26.5 -15t14.5 -20q0 -14 -12 -14q-2 0 -33.5 1t-39.5 0z" />
<glyph unicode="h" horiz-adv-x="470" d="M207 591l-51 -261l-18 -92q21 40 89 118.5t110 78.5q55 0 55 -66q0 -43 -14 -109l-33 -154q-4 -16 -4 -32q0 -25 10 -25q5 0 12.5 4t14.5 10t15 14t13.5 14t9.5 11l5 5q2 0 6 -7.5t4 -11.5q-12 -21 -56 -57.5t-75 -36.5q-16 0 -25 14.5t-9 37.5q0 24 7 53l35 165 q7 32 7 54q0 43 -19 43t-56.5 -35t-74.5 -94t-48 -113q-7 -36 -25 -119q-13 -4 -36 -4q-18 0 -34 4l108 559q1 6 3.5 18t4 21t1.5 14q0 19 -61 19q-2 3 -0.5 10.5t4.5 10.5q55 5 132 33q6 -4 6 -19q0 -10 -13 -75z" />
<glyph unicode="i" horiz-adv-x="262" d="M111 323q4 24 4 32q0 25 -10 25q-5 0 -12.5 -4t-14.5 -10t-15 -14t-13.5 -14t-9.5 -11l-5 -5q-2 0 -6 7.5t-4 11.5q13 22 54 58t72 36q16 0 27.5 -15t11.5 -37q0 -16 -7 -53l-51 -224q-4 -20 -4 -32q0 -25 10 -25q5 0 12.5 4t14.5 10t15 14t13.5 14t10.5 11l4 5 q2 0 6 -7.5t4 -11.5q-12 -21 -56 -57.5t-75 -36.5q-16 0 -25 14.5t-9 37.5q0 16 7 53zM168 646q15 0 25.5 -12t10.5 -28q0 -24 -15.5 -42t-38.5 -18q-16 0 -25 12.5t-9 30.5q0 23 15 40t37 17z" />
<glyph unicode="j" horiz-adv-x="249" d="M117 323q4 24 4 32q0 25 -10 25q-5 0 -12.5 -4t-14.5 -10t-15 -14t-13.5 -14t-9.5 -11l-5 -5q-2 0 -6 7.5t-4 11.5q13 22 54 58t72 36q16 0 27.5 -15t11.5 -37q0 -16 -7 -53l-55 -285q-20 -101 -71 -169q-29 -38 -69 -68.5t-70 -42.5q-9 7 -9 20q50 29 88 91.5t54 145.5z M185 646q15 0 25.5 -12t10.5 -28q0 -24 -15.5 -42t-38.5 -18q-16 0 -25 12.5t-9 30.5q0 23 15 40t37 17z" />
<glyph unicode="k" horiz-adv-x="460" d="M325 435q30 0 52.5 -19.5t22.5 -48.5q0 -64 -59 -102t-152 -54q66 -99 96 -129.5t61 -30.5q11 0 33.5 20.5t34.5 35.5q2 0 6 -7.5t4 -11.5q-11 -19 -52.5 -55.5t-69.5 -36.5q-22 0 -43 12t-40 37t-31.5 45t-31.5 54.5t-26 46.5l-37 -191q-18 -5 -35 -5q-16 0 -36 5 l109 559q9 41 9 53q0 19 -61 19q-2 3 -0.5 10.5t4.5 10.5q55 5 132 33q6 -4 6 -19q0 -10 -13 -75l-52 -269l11 13q11 13 26.5 28.5t36 32.5t46 28t49.5 11zM289 388q-42 0 -91.5 -55t-59.5 -103q61 0 122.5 34t61.5 90q0 34 -33 34z" />
<glyph unicode="l" horiz-adv-x="243" d="M134 559q9 41 9 53q0 19 -61 19q-2 3 -0.5 10.5t4.5 10.5q55 5 132 33q6 -4 6 -19q0 -10 -13 -75l-95 -485q-4 -16 -4 -32q0 -25 10 -25q5 0 12.5 4t14.5 10t15 14t13.5 14t10.5 11l4 5q2 0 6 -7.5t4 -11.5q-12 -21 -56 -57.5t-75 -36.5q-16 0 -25 14.5t-9 37.5 q0 16 7 53z" />
<glyph unicode="m" horiz-adv-x="714" d="M517 99l35 165q7 32 7 54q0 15 -1 23t-5 14t-13 6q-33 0 -97 -79t-77 -150l-25 -132q-21 -3 -37 -3t-35 3l56 284q4 21 4 38q0 39 -20 39q-34 0 -95 -84t-76 -155l-25 -122q-15 -4 -36 -4q-11 0 -35 4l66 323q4 24 4 32q0 25 -10 25q-5 0 -12.5 -4t-14.5 -10t-15 -14 t-13.5 -14t-10.5 -11l-4 -5q-2 0 -6 7.5t-4 11.5q13 22 54 58t72 36q16 0 27.5 -15t11.5 -37q0 -11 -8 -53q-5 -24 -20 -93q38 67 91 132.5t87 65.5q67 0 67 -95q0 -49 -14 -89q33 58 91 121t93 63q62 0 62 -66q0 -45 -14 -109l-33 -154q-4 -20 -4 -32q0 -25 10 -25 q5 0 12.5 4t14.5 10t15 14t13.5 14t9.5 11l5 5q2 0 6 -7.5t4 -11.5q-12 -21 -56 -57.5t-75 -36.5q-16 0 -25 14.5t-9 37.5q0 16 7 53z" />
<glyph unicode="n" horiz-adv-x="497" d="M179 330l-18 -84q20 39 86.5 114t109.5 75q62 0 62 -66q0 -41 -14 -109l-33 -154q-4 -20 -4 -32q0 -25 10 -25q5 0 12.5 4t14.5 10t15 14t13.5 14t10.5 11l4 5q2 0 6 -7.5t4 -11.5q-12 -21 -56 -57.5t-75 -36.5q-16 0 -25 14.5t-9 37.5q0 16 7 53l35 165q7 32 7 54 q0 15 -1 23t-5 14t-13 6q-34 0 -101.5 -77t-83.5 -162q-4 -20 -25 -122q-16 -4 -36 -4q-19 0 -35 4l66 323q4 24 4 32q0 25 -10 25q-5 0 -12.5 -4t-14.5 -10t-15 -14t-13.5 -14t-10.5 -11l-4 -5q-2 0 -6 7.5t-4 11.5q13 22 54 58t72 36q16 0 27.5 -15t11.5 -37q0 -19 -8 -53 z" />
<glyph unicode="o" horiz-adv-x="414" d="M237 403q-58 0 -96.5 -80t-38.5 -165q0 -60 15 -95.5t42 -35.5q39 0 70 41.5t46 96.5t15 108q0 130 -53 130zM251 435q58 0 87.5 -40t29.5 -107q0 -106 -71.5 -199.5t-156.5 -93.5q-58 0 -87 38t-29 105q0 107 71 202t156 95z" />
<glyph unicode="p" horiz-adv-x="448" d="M280 380q-24 0 -60.5 -25.5t-57.5 -54.5l-33 -169q-8 -42 7.5 -71.5t39.5 -29.5q61 0 109 89.5t48 183.5q0 77 -53 77zM320 435q87 0 87 -121q0 -76 -37 -150.5t-96 -121.5t-119 -47q-38 0 -46 13l-33 -153q-3 -14 -3 -28q0 -19 14 -23q13 -3 47 -3q3 -1 2 -14t-5 -14 q-7 0 -18.5 0.5t-16.5 0.5q-73 0 -148 -9q-4 1 -3.5 14t4.5 15q27 0 40 16q9 12 16 43l79 397l-48 -48q-6 8 -6 20q0 4 3 7l59 63l26 141q15 4 38 4q18 0 32 -7q-12 -59 -16 -84q96 89 148 89z" />
<glyph unicode="q" horiz-adv-x="426" d="M317 -228q-7 0 -20.5 0.5t-19.5 0.5q-76 0 -150 -8q-2 1 -1.5 14t4.5 13q62 6 68 37l56 301q-23 -42 -66 -88.5t-81 -46.5q-43 0 -65.5 36t-22.5 85q0 116 92.5 217.5t191.5 101.5q44 0 79 -13l-61 -316l-46 -256q-2 -16 -2 -21q0 -9 2 -14.5t13 -10.5t31 -5q2 0 2.5 -6 t-1 -13t-3.5 -8zM296 341q3 19 -6.5 36.5t-28.5 17.5q-60 0 -114 -79t-54 -166q0 -97 51 -97q37 0 81 73.5t59 149.5z" />
<glyph unicode="r" horiz-adv-x="356" d="M307 435q30 0 49 -21q9 -11 9 -28q0 -20 -9.5 -32t-26.5 -12t-30 15q-6 8 -20 8q-28 0 -76.5 -83.5t-62.5 -159.5l-22 -122q-16 -3 -34 -3q-19 0 -37 3l60 323q4 24 4 32q0 25 -10 25q-5 0 -12.5 -4t-14.5 -10t-15 -14t-13.5 -14t-9.5 -11l-5 -5q-2 0 -6 7.5t-4 11.5 q13 22 54 58t72 36q16 0 27.5 -15t11.5 -37q0 -11 -8 -53q-5 -27 -17 -84q26 63 70 126t76 63z" />
<glyph unicode="s" horiz-adv-x="322" d="M199 438q55 0 86 -27q10 -14 10 -32q0 -17 -9.5 -29t-24.5 -12q-22 0 -47 35q-1 1 -3.5 5t-3.5 5.5t-3.5 4.5t-4 4.5t-4.5 4t-5.5 3.5t-6 2t-7.5 1.5t-9 0.5q-24 0 -36.5 -18.5t-12.5 -37.5q0 -11 3 -22t12 -23.5t13.5 -18.5t19.5 -22t18 -20q61 -71 61 -125 q0 -55 -40.5 -89t-104.5 -34q-53 0 -88 30q-10 17 -10 30q0 21 10.5 33.5t26.5 12.5q9 0 15 -5t16 -21t12 -19q21 -29 53 -29q27 0 38 18.5t11 39.5q0 16 -9.5 34.5t-16 26.5t-26.5 31q-24 27 -35.5 41.5t-24 41t-12.5 53.5q0 46 40 86t99 40z" />
<glyph unicode="t" horiz-adv-x="278" d="M117 413l11 59q12 15 36 40.5t29 25.5q9 0 17 -6l-22 -119h75q5 0 5 -12q0 -11 -9 -25h-78l-53 -270q-4 -20 -4 -32q0 -25 10 -25q5 0 12.5 4t14.5 10t15 14t13.5 14t10.5 11l4 5q2 0 6 -7.5t4 -11.5q-12 -21 -56 -57.5t-75 -36.5q-16 0 -25 14.5t-9 37.5q0 16 7 53 l54 277h-67q-2 0 -2 3q0 9 15 21.5t31 12.5h30z" />
<glyph unicode="u" horiz-adv-x="491" d="M292 99q3 15 5.5 28.5t6.5 30t6 28.5q-24 -52 -90 -122t-111 -70q-50 0 -50 72q0 35 14 103l33 154q4 24 4 32q0 25 -10 25q-5 0 -12.5 -4t-14.5 -10t-15 -14t-13.5 -14t-10.5 -11l-4 -5q-2 0 -6 7.5t-4 11.5q13 22 54 58t72 36q16 0 27.5 -15t11.5 -37q0 -16 -7 -53 l-35 -165q-7 -32 -7 -54q0 -43 19 -43t56.5 35.5t74.5 96.5t48 119q3 18 10.5 52.5t11.5 57.5q13 4 31 4q23 0 39 -4l-62 -323q-4 -20 -4 -32q0 -25 10 -25q5 0 12.5 4t14.5 10t15 14t13.5 14t10.5 11l4 5q2 0 6 -7.5t4 -11.5q-12 -21 -56 -57.5t-75 -36.5q-16 0 -25 14.5 t-9 37.5q0 16 7 53z" />
<glyph unicode="v" horiz-adv-x="439" d="M186 65q51 44 77 77.5t51 83.5t25 107q0 37 -26 63q5 15 18 27t29 12q27 0 41 -22t14 -58q0 -45 -37 -109.5t-87 -119t-100.5 -93.5t-75.5 -39q-8 9 -8 154v207q0 25 -10 25q-5 0 -12.5 -4t-14.5 -10t-15 -14t-13.5 -14t-9.5 -11l-5 -5q-2 0 -6 7.5t-4 11.5q13 22 54 58 t72 36q16 0 27.5 -16t11.5 -38v-53v-152q0 -83 4 -111z" />
<glyph unicode="w" horiz-adv-x="629" d="M385 375q3 -135 6 -192q4 -90 15 -107q76 66 107 153q14 38 14 104q0 37 -26 63q5 15 18 27t29 12q27 0 41 -22t14 -58q0 -59 -51.5 -147t-115 -151t-97.5 -63q-5 5 -12 66.5t-8 89.5l-2 64q-154 -220 -202 -220q-8 9 -8 154v207q0 25 -10 25q-5 0 -12.5 -4t-14.5 -10 t-15 -14t-13.5 -14t-9.5 -11l-5 -5q-2 0 -6 7.5t-4 11.5q13 22 54 58t72 36q16 0 27.5 -16t11.5 -38v-53v-152q0 -58 4 -86q50 54 113 165q17 31 43 92q18 22 43 28z" />
<glyph unicode="x" horiz-adv-x="482" d="M295 89q7 -37 35 -37q11 0 36.5 20.5t36.5 34.5q2 0 6 -7.5t4 -11.5q-11 -19 -52.5 -55.5t-69.5 -36.5q-23 0 -42 23t-27 63l-17 86q-7 -14 -19.5 -39.5t-18.5 -37.5t-16.5 -31t-18 -28t-17.5 -19t-20 -14t-22 -4q-28 0 -47 12q-11 15 -11 34t10 31.5t27 12.5 q10 0 23 -14t23 -15q16 -1 30 23q35 59 69 125l-28 138q-7 38 -32 38q-13 0 -39 -21t-37 -35q-2 0 -6 7.5t-4 11.5q11 19 52.5 55.5t69.5 36.5q23 0 42 -23t27 -63l14 -68q49 98 64 118q28 35 58 36q28 0 47 -12q11 -15 11 -34t-10 -31.5t-27 -12.5q-10 0 -23 14t-23 15 q-16 1 -30 -23q-47 -82 -60 -107z" />
<glyph unicode="y" horiz-adv-x="447" d="M132 435q30 0 50 -53.5t27.5 -137t9.5 -134.5t2 -95q40 49 77.5 123.5t37.5 146.5q0 59 -25 107q13 43 50 43q44 0 44 -79q0 -110 -86 -252.5t-194.5 -239.5t-175.5 -97q-26 0 -43 12t-17 29q0 32 23 44q11 -7 37 -13t43 -6q79 0 136 83q7 10 11 23t5.5 32t2 29.5t0 34.5 t-0.5 27q0 49 -2.5 99t-9 102t-19 84.5t-29.5 32.5q-5 0 -12.5 -4t-14.5 -10t-15 -14t-13.5 -14t-10.5 -11l-4 -5q-2 0 -6 7.5t-4 11.5q13 22 54 58t72 36z" />
<glyph unicode="z" horiz-adv-x="387" d="M145 435q21 0 77 -20q31 -11 56 -11q22 0 56 16l34 15q11 -5 11 -20q0 -5 -44.5 -56t-97.5 -109t-99 -107.5t-46 -50.5q22 11 46 11q26 0 62 -17q40 -17 53 -17q9 0 19.5 9.5t17 20t13.5 23.5t8 14q10 0 12 -16q-54 -120 -105 -120q-23 0 -80 22q-27 10 -71 10 q-13 0 -24.5 -5.5t-23.5 -14.5t-18 -12q-9 3 -11 19q0 7 75 89t151 163t76 82q-32 -21 -63 -21q-21 0 -61 17q-36 17 -54 17q-10 0 -20.5 -10t-17 -20.5t-13.5 -23.5t-8 -14q-10 0 -12 16q8 27 40 74t62 47z" />
<glyph unicode="{" horiz-adv-x="210" d="M128 402q4 20 -7 75q-11 50 -5 83q13 66 54 115t80 64q5 0 9 -6t3 -13q-26 -12 -57.5 -45t-38.5 -67q-6 -34 6 -91q12 -49 3 -93t-37 -75.5t-53 -41.5q21 -10 37.5 -41.5t7.5 -75.5t-40 -93q-35 -57 -41 -91q-7 -34 11.5 -67t40.5 -45q-1 -7 -7.5 -13t-11.5 -6 q-33 15 -55 64t-9 115q6 33 37 83q32 53 36 75q12 65 -54 84q-2 4 0 11q2 9 4 11q75 20 87 84z" />
<glyph unicode="|" horiz-adv-x="207" d="M169 757q16 16 44 16q6 0 11 -2t4 -5l-168 -872q-15 -17 -46 -17q-5 0 -10 2.5t-4 5.5z" />
<glyph unicode="}" horiz-adv-x="212" d="M143 739q33 -15 55.5 -64t9.5 -115q-6 -33 -37 -83q-32 -53 -36 -75q-12 -65 54 -84q2 -4 0 -11q-1 -7 -4 -11q-75 -20 -87 -84q-4 -20 7 -75q11 -50 5 -83q-13 -66 -54.5 -115t-80.5 -64q-5 0 -8.5 6t-2.5 13q26 12 57.5 45t38.5 67q6 34 -6 91q-12 49 -3 93t37 75.5 t53 41.5q-21 10 -37.5 41.5t-7.5 75.5t40 93q35 57 41 91q7 34 -11.5 67t-40.5 45q2 7 7.5 13t10.5 6z" />
<glyph unicode="~" horiz-adv-x="545" d="M197 354q44 0 104 -26.5t104 -26.5q17 0 35 7.5t26.5 13.5t31.5 23q6 -6 6 -10q0 -25 -42.5 -55t-92.5 -30q-44 0 -105.5 26.5t-105.5 26.5q-17 0 -35 -7.5t-26.5 -13.5t-31.5 -23q-6 6 -6 10q0 28 47.5 56.5t90.5 28.5z" />
<glyph unicode="&#xa1;" horiz-adv-x="203" d="M0 -269q-18 0 -27.5 13t-9.5 33q0 16 33 143q44 172 86 336q2 10 7 17t9 5q17 -9 17 -21q-60 -456 -61 -463q-5 -26 -19.5 -44.5t-34.5 -18.5zM71 369q0 28 20 49.5t45 21.5q19 0 31 -13.5t12 -33.5q0 -28 -20 -48.5t-45 -20.5q-19 0 -31 12.5t-12 32.5z" />
<glyph unicode="&#xa2;" horiz-adv-x="358" d="M254 474q32 0 31 -8l-176 -511q-32 0 -31 9zM269 435q32 0 62 -25q9 -12 9 -27q0 -19 -9 -32t-25 -13q-24 0 -36 20q-22 36 -52 36q-44 0 -83 -68t-39 -164q0 -109 69 -109q8 0 17 3t17.5 7.5t17 10.5t15.5 12t14 12.5t11 11t7 8.5l4 4q2 0 7 -8t5 -12 q-15 -25 -62.5 -66.5t-88.5 -41.5q-53 0 -82 38t-29 108q0 114 84 204.5t167 90.5z" />
<glyph unicode="&#xa3;" horiz-adv-x="447" d="M172 248q-19 -94 -85 -160q5 2 10 3t12.5 1.5t13 0.5h18.5h21q27 0 75.5 -16t64.5 -16q14 0 28 9.5t21 17.5t19.5 26t13.5 20q3 0 6 -5t3 -12q0 -5 -2 -9q-63 -116 -132 -116q-32 0 -90.5 18.5t-79.5 18.5q-32 0 -77 -38q-8 0 -11.5 6.5t-2.5 12.5q12 17 31.5 40t26.5 32 q25 52 45 155q3 16 5 43h-56q-6 16 17 39h42q4 66 10 98q12 62 45 112t79 78t96 28q49 0 64 -37q0 -21 -11 -40t-28 -19q-13 0 -22 8.5t-13 18.5t-13 18.5t-22 8.5q-23 0 -40.5 -12t-28.5 -34.5t-18 -45t-13 -51.5q-5 -28 -14 -131h131q6 0 -5 -23q-6 -12 -12 -16h-118 q-2 -19 -4 -32z" />
<glyph unicode="&#xa4;" horiz-adv-x="504" d="M237 152q50 0 88 59t38 130q0 53 -23 87.5t-59 34.5q-50 0 -88.5 -59.5t-38.5 -130.5q0 -53 23 -87t60 -34zM392 455l66 55q1 1 4 1q8 0 16.5 -14.5t9.5 -30.5l-67 -56q11 -30 11 -63q0 -80 -56 -148l39 -58q0 -1 0.5 -1t0.5 -1q0 -8 -17 -21.5t-33 -17.5l-37 55 q-51 -35 -106 -35q-60 0 -98 40l-59 -50q-1 -1 -4 -1q-8 0 -16.5 14.5t-9.5 30.5l60 51q-12 29 -12 63q0 87 62 155l-37 56q0 1 -0.5 1t-0.5 1q0 8 17 21.5t33 17.5l37 -55q48 31 101 31q58 0 96 -41z" />
<glyph unicode="&#xa5;" horiz-adv-x="592" d="M173 216q-4 0 -4 8q0 19 13 30h246q3 0 3 -7q0 -19 -12 -31h-246zM158 138q-4 0 -4 8q0 19 13 30h246q3 0 3 -7q0 -19 -12 -31h-246zM233 111l28 144q2 16 -1 27l-80 241q-16 46 -45 66q-20 15 -47 15q-2 1 -2 6t2 12.5t5 9.5q108 -5 110 -5q25 0 115 5q1 -5 -1.5 -16.5 t-5.5 -11.5q-16 0 -36 -7t-23 -23q-2 -8 5 -29l76 -229q43 61 98 143.5t68 105.5q5 7 6 14q1 4 -3.5 9t-19 10t-37.5 5q-2 2 0 13.5t4 14.5q80 -5 90 -5q9 0 99 5q0 -3 -3 -15.5t-5 -12.5q-57 0 -85 -38l-196 -278q-4 -5 -9 -29l-30 -147q-11 -54 -9 -71q1 -7 22.5 -11 t35.5 -4q2 -4 0.5 -14t-5.5 -14q-90 5 -103 5t-106 -5q-3 4 -0.5 14t6.5 14q14 0 37.5 4t26.5 11q5 10 18 71z" />
<glyph unicode="&#xa6;" horiz-adv-x="211" d="M170 754q16 16 44 16q6 0 11 -2t4 -5l-69 -363q-15 -17 -45 -17q-5 0 -10.5 2.5t-4.5 5.5zM72 248q16 16 44 16q6 0 11 -2t4 -5l-69 -363q-15 -17 -46 -17q-5 0 -10 2.5t-4 5.5z" />
<glyph unicode="&#xa7;" horiz-adv-x="395" d="M249 51q13 17 19 26.5t13 25t11 32.5q19 98 -65 200q-3 4 -11 13.5t-12 14.5t-11.5 15l-12 16t-10.5 16t-9 18t-6.5 18.5t-4.5 19.5t-1 19.5t2 21.5q2 9 4 17q-10 -13 -15 -20t-11 -18t-10 -22t-7 -24q-19 -98 65 -200q3 -4 11 -13.5t12 -14.5t11.5 -15l12 -16t10.5 -16 t9 -18t6.5 -18.5t4.5 -19.5t1 -19.5t-2 -21.5q-2 -9 -4 -17zM198 -25q-69 -53 -144 -53q-21 0 -37 8q-3 9 0 26q2 11 15.5 23.5t24.5 12.5q12 0 31 -12q14 -8 28 -8q26 0 53.5 14t32.5 40q10 54 -81 166q-87 107 -68 204q9 49 51 104t102 100q69 53 144 53q21 0 37 -8 q3 -9 0 -26q-2 -11 -15.5 -23.5t-24.5 -12.5q-12 0 -31 12q-14 8 -29 8q-26 0 -53 -14t-32 -40q-10 -54 81 -166q87 -107 68 -204q-9 -48 -53.5 -105.5t-99.5 -98.5z" />
<glyph unicode="&#xa8;" horiz-adv-x="285" d="M241 592q17 0 27 -14t6 -33t-19.5 -32t-32.5 -13t-28 13.5t-7 32.5t20.5 32.5t33.5 13.5zM70 592q17 0 27.5 -14t6.5 -33t-19.5 -32t-32.5 -13t-28 13.5t-7 32.5t20 32.5t33 13.5z" />
<glyph unicode="&#xa9;" horiz-adv-x="603" d="M342 483q58 0 100 -19q2 -4 2 -8q1 -14 1 -50q0 -12 -16 -12q-4 0 -6 2q0 6 -3 14t-10 17.5t-23.5 15.5t-39.5 6q-43 0 -78 -39.5t-35 -94.5q0 -42 23.5 -65t54.5 -23q21 0 37.5 4t25.5 11.5t14 13t9 14t5 9.5q2 1 4 1l14 -4q-3 -8 -15 -34t-16 -28q-47 -19 -102 -19 q-48 0 -78.5 31.5t-30.5 80.5q0 67 49 121.5t114 54.5zM369 615q91 0 148.5 -61.5t57.5 -155.5q0 -129 -96.5 -229t-216.5 -100q-91 0 -148 61.5t-57 155.5q0 129 96 229t216 100zM363 584q-105 0 -190.5 -89t-85.5 -203q0 -83 51 -137.5t131 -54.5q105 0 191 88.5t86 202.5 q0 83 -51.5 138t-131.5 55z" />
<glyph unicode="&#xaa;" horiz-adv-x="380" d="M257 249q-12 0 -19 10.5t-7 26.5q0 12 5 37q1 8 3 14t2 7q-19 -30 -52 -62t-62 -32q-31 0 -49.5 22.5t-18.5 59.5q0 87 73 156t147 69q33 0 60 -9l-47 -221q-3 -9 -3 -22q0 -17 7 -17q15 0 55 40q2 0 4.5 -5t2.5 -8q-9 -14 -43 -40t-58 -26zM244 529q-44 0 -86 -55 t-42 -115q0 -69 39 -69q28 0 62 51t46 104l16 74q-10 10 -35 10z" />
<glyph unicode="&#xab;" horiz-adv-x="484" d="M400 91q-6 -10 -21 -18q-23 30 -70.5 75.5t-91.5 79.5q-10 7 -10 14q0 15 15 24q39 22 74.5 45.5t50 34t53 41t46.5 36.5q16 -4 18 -15q-2 -5 -44 -45t-83 -77l-41 -37q104 -150 104 -158zM220 91q-6 -10 -21 -18q-23 30 -70.5 75.5t-91.5 79.5q-10 7 -10 14q0 15 15 24 q39 22 74.5 45.5t50 34t53 41t46.5 36.5q16 -4 18 -15q-2 -5 -44 -45t-83 -77l-41 -37q104 -150 104 -158z" />
<glyph unicode="&#xac;" horiz-adv-x="540" d="M70 357h423l-47 -242q-12 -12 -35 -12q-6 0 -10.5 2t-3.5 6l37 203h-382q-3 8 -3 14q0 12 7 20.5t14 8.5z" />
<glyph unicode="&#xad;" horiz-adv-x="370" d="M73 261l227 12q6 0 6 -12q0 -11 -8 -30.5t-15 -20.5l-226 -11q-5 0 -5 15q0 10 7 28t14 19z" />
<glyph unicode="&#xae;" horiz-adv-x="603" d="M344 529q-32 0 -34 -10l-14 -75q0 -1 -1 -2l-1 -2q0 -12 38 -12q22 0 36 19t14 44q0 38 -38 38zM354 554q31 0 52.5 -16t21.5 -45q0 -50 -58 -79q-1 -1 -1 -3v-1q4 -22 32 -77q9 -17 14 -25.5t13.5 -15t19.5 -6.5q0 -7 -2 -11q-6 -3 -18 -3q-43 0 -61.5 22t-49.5 104 q-4 9 -17 9q-12 0 -13 -8l-17 -89v-11q0 -7 3 -8q12 -6 19 -6q1 0 1 -3q0 -2 -2 -10q-38 2 -50 2q-13 0 -55 -2q0 2 -0.5 4t-0.5 4q0 1 1.5 2.5t1.5 2.5q11 2 17 3t9.5 5.5t4.5 6.5t2.5 12.5t3.5 17.5l33 169q4 22 4 29q0 6 -8 9.5t-14 3.5q-2 0 -2 2t1.5 5.5t1.5 4.5 q5 0 19 -1.5t24 -1.5q14 0 35 2t35 2zM381 680q105 0 164.5 -80t37.5 -193t-112.5 -193.5t-195.5 -80.5t-164 80.5t-37 193.5t112 193t195 80zM376 648q-93 0 -172 -70.5t-99 -170.5t32 -171t145 -71t172.5 71t99.5 171q19 100 -33 170.5t-145 70.5z" />
<glyph unicode="&#xaf;" horiz-adv-x="263" d="M233 490h-210q-3 3 -3 9t4.5 18t7.5 12h206q5 0 5 -7q0 -21 -10 -32z" />
<glyph unicode="&#xb0;" horiz-adv-x="266" d="M126 524q0 -21 12.5 -35.5t33.5 -14.5q26 0 47.5 22.5t21.5 51.5q0 21 -12.5 35t-33.5 14q-27 0 -48 -21.5t-21 -51.5zM90 517q0 47 35.5 82t76.5 35q33 0 54 -22.5t21 -56.5q0 -46 -35 -82t-77 -36q-33 0 -54 23t-21 57z" />
<glyph unicode="&#xb1;" horiz-adv-x="489" d="M403 64q3 0 3 -8q0 -22 -12 -35h-390q-5 0 -5 8q0 18 13 35h391zM59 306q-4 0 -4 8q0 18 13 35h171l34 175q2 8 17 12t24 4q6 0 8 -2.5t1 -5.5l-36 -183h171q4 0 4 -8q0 -22 -12 -35h-171l-34 -178q-3 -16 -36 -16q-13 0 -13 8l35 186h-172z" />
<glyph unicode="&#xb2;" horiz-adv-x="345" d="M337 564q0 -37 -20.5 -68t-61.5 -73q-23 -23 -57.5 -51.5t-57.5 -45.5l-23 -17h118q36 0 60 51q1 4 9 4q6 0 14 -8q-14 -27 -48 -101h-220q-4 4 -4 16q30 26 81 76t76 78q56 64 56 120q0 25 -17.5 41t-40.5 16q-41 0 -79 -50q-3 0 -6.5 7.5t-2.5 9.5q9 20 45.5 49 t81.5 29q38 0 67.5 -21.5t29.5 -61.5z" />
<glyph unicode="&#xb3;" horiz-adv-x="316" d="M229 648q25 0 46 -17.5t21 -49.5q0 -28 -23.5 -53.5t-52.5 -42.5q32 -2 57 -28t25 -55q0 -49 -34 -86.5t-73 -53t-70 -15.5q-53 0 -74 15q-6 9 -6 18q0 14 10.5 28t21.5 14q9 0 14.5 -3.5t12 -13.5t7.5 -11q14 -16 44 -16q29 0 52.5 29.5t23.5 78.5q0 31 -17 48.5 t-46 17.5q-18 0 -32 -4q-4 6 -4 7q0 12 1 14q41 7 74.5 32.5t33.5 58.5q0 19 -11 33.5t-30 14.5q-13 0 -25 -6t-19.5 -13t-14 -14t-7.5 -8q-3 0 -6 6t-2 11q45 64 103 64z" />
<glyph unicode="&#xb4;" horiz-adv-x="201" d="M18 490q-2 0 -5 4t-3 6q0 6 42.5 55t52.5 56q14 10 37 10q13 0 26 -7.5t13 -22.5q0 -13 -75 -57t-88 -44z" />
<glyph unicode="&#xb5;" horiz-adv-x="493" d="M401 69q-10 -27 -34.5 -50t-47.5 -23q-26 0 -37.5 23t-11 55t2.5 66q-40 -70 -74 -109.5t-69 -39.5q-49 0 -49 97q-1 -4 -10.5 -39t-18.5 -77t-9 -71q0 -43 33 -95q-1 -10 -15.5 -18.5t-28.5 -8.5q-9 0 -17.5 4.5t-17 22.5t-8.5 48q0 45 30 163t52 187q3 13 19 108 t19 111q11 14 23 14q9 0 23 -11t20 -27q-5 -30 -59 -176q-8 -42 -8 -73q0 -35 8.5 -59.5t22.5 -24.5q17 0 34.5 12.5t36.5 40.5t30 46.5t32 56.5q12 43 26.5 107.5t22.5 93.5q11 14 23 14q9 0 23 -11t20 -27l-76 -189q-14 -62 -5.5 -103t39.5 -41q25 0 50 25q3 -2 5 -10.5 t1 -11.5z" />
<glyph unicode="&#xb6;" horiz-adv-x="483" d="M299 659q30 0 72.5 -1t58.5 -1t30 1t32 2t32 2q3 -4 0.5 -14.5t-6.5 -14.5q-12 0 -32 -4.5t-23 -11.5q-10 -20 -19 -74q-47 -271 -63 -357q-23 -120 -84 -198t-123 -78q-41 0 -54 25q0 11 1 16q6 40 29 40q17 0 38 -23q15 -15 29 -15q28 0 46.5 50.5t43.5 178.5l68 355 q12 61 10 75q-2 10 -19 10q-32 0 -59.5 -61.5t-27.5 -121.5q0 -84 35 -113q10 -5 10 -10q0 -18 -33 -30.5t-61 -12.5q-83 0 -124.5 52t-41.5 115q0 67 42 119.5t94.5 76t98.5 23.5z" />
<glyph unicode="&#xb7;" horiz-adv-x="222" d="M54 252q0 27 21 48.5t46 21.5q19 0 31 -13t12 -33q0 -28 -20.5 -49.5t-45.5 -21.5q-19 0 -31.5 13.5t-12.5 33.5z" />
<glyph unicode="&#xb8;" horiz-adv-x="161" d="M85 -27h23q18 0 27 -14.5t5 -34.5q-7 -34 -36 -55t-66 -21q-19 0 -30 9v14q1 5 5.5 9.5t9.5 4.5t14.5 -6.5t17.5 -6.5q19 0 32 10t15 23q3 16 -4 25t-18 9q-8 0 -26 -7q-2 0 -5.5 5t-1.5 8q5 7 20 25.5t20 25.5h19z" />
<glyph unicode="&#xb9;" horiz-adv-x="270" d="M106 556q-5 5 -5 14q0 4 3 6q25 12 60.5 30t58.5 30t24 12h1q5 0 5 -12q-10 -20 -17 -57l-47 -237q-7 -37 -6 -54q1 -4 21 -8.5t26 -4.5q1 0 2 -5t0 -8l-3 -9q-69 3 -99 3q-6 0 -75 -3q-2 2 -0.5 12t3.5 10q8 0 29 4t23 9q6 12 10 35l37 189q3 18 4.5 25.5t2.5 17 t-0.5 12.5t-4.5 3q-16 0 -53 -14z" />
<glyph unicode="&#xba;" horiz-adv-x="339" d="M227 532q-45 0 -74.5 -56t-29.5 -115q0 -42 12 -67t32 -25q44 0 72 56t28 116q0 91 -40 91zM237 554q45 0 67.5 -28t22.5 -75q0 -74 -55 -139t-120 -65q-89 0 -89 100q0 75 54.5 141t119.5 66z" />
<glyph unicode="&#xbb;" horiz-adv-x="485" d="M257 405q6 10 21 18q23 -30 70.5 -75.5t91.5 -79.5q10 -7 10 -14q0 -15 -15 -24q-39 -22 -74.5 -45.5t-50 -34t-53 -41t-46.5 -36.5q-16 4 -18 15q2 5 44 45t83 77l41 37q-104 150 -104 158zM77 405q6 10 21 18q23 -30 70.5 -75.5t91.5 -79.5q10 -7 10 -14q0 -15 -15 -24 q-39 -22 -74.5 -45.5t-50 -34t-53 -41t-46.5 -36.5q-16 4 -18 15q2 5 44 45t83 77l41 37q-104 150 -104 158z" />
<glyph unicode="&#xbc;" horiz-adv-x="637" d="M580 405q4 0 8 -5.5t3 -9.5l-47 -238h35q3 0 3.5 -10.5t-1.5 -20.5q-1 -7 -5 -15h-40l-20 -105q-14 -3 -36 -3h-7.5t-7 0.5t-6.5 0.5t-5 0.5t-3 1.5t-1 2l20 103h-171q-7 3 -4 14l263 278q7 7 22 7zM513 314l-153 -162h119zM90 556q-5 5 -5 14q0 4 3 6q25 12 60.5 30 t58.5 30t24 12h1q5 0 5 -12q-10 -20 -17 -57l-47 -237q-7 -37 -6 -54q1 -4 21 -8.5t26 -4.5q1 0 2 -5t0 -8l-3 -9q-69 3 -99 3q-6 0 -75 -3q-2 2 -0.5 12t3.5 10q8 0 29 4t23 9q6 12 10 35l37 189q3 18 4.5 25.5t2.5 17t-0.5 12.5t-4.5 3q-16 0 -53 -14zM580 626l-446 -632 q-25 -1 -25 10q0 2 2 6l447 632q23 0 23 -11q0 -4 -1 -5z" />
<glyph unicode="&#xbd;" horiz-adv-x="689" d="M650 311q0 -37 -20.5 -68t-61.5 -73q-10 -11 -23.5 -23t-26.5 -22.5t-26.5 -21t-24.5 -19t-20 -15t-13 -9.5l-5 -4h119q36 0 60 51q1 4 9 4q6 0 14 -8q-14 -27 -48 -101h-220q-4 4 -4 16q30 26 81 76t76 78q56 64 56 120q0 25 -17.5 41t-40.5 16q-42 0 -80 -50 q-3 0 -6 7.5t-2 9.5q9 20 45.5 49t81.5 29q38 0 67.5 -21.5t29.5 -61.5zM91 556q-5 5 -5 14q0 4 3 6q25 12 60.5 30t58.5 30t24 12h1q5 0 5 -12q-10 -20 -17 -57l-47 -237q-7 -37 -6 -54q1 -4 21 -8.5t26 -4.5q1 0 2 -5t0 -8l-3 -9q-69 3 -99 3q-6 0 -75 -3q-2 2 -0.5 12 t3.5 10q8 0 29 4t23 9q6 12 10 35l37 189q3 18 4.5 25.5t2.5 17t-0.5 12.5t-4.5 3q-16 0 -53 -14zM581 626l-446 -632q-25 -1 -25 10q0 2 2 6l447 632q23 0 23 -11q0 -4 -1 -5z" />
<glyph unicode="&#xbe;" horiz-adv-x="651" d="M595 405q4 0 8 -5.5t3 -9.5l-47 -238h35q3 0 3.5 -10.5t-1.5 -20.5q-1 -7 -5 -15h-40l-20 -105q-14 -3 -36 -3h-7.5t-7 0.5t-6.5 0.5t-5 0.5t-3 1.5t-1 2l20 103h-171q-7 3 -4 14l263 278q7 7 22 7zM528 314l-153 -162h119zM216 648q25 0 46 -17.5t21 -49.5 q0 -28 -23.5 -53.5t-52.5 -42.5q32 -2 57 -28t25 -55q0 -49 -34 -86.5t-73 -53t-70 -15.5q-53 0 -74 15q-6 9 -6 18q0 14 10.5 28t21.5 14q9 0 14.5 -3.5t12 -13.5t7.5 -11q14 -16 44 -16q29 0 52.5 29.5t23.5 78.5q0 31 -17 48.5t-46 17.5q-18 0 -32 -4q-4 6 -4 7 q0 12 1 14q41 7 74.5 32.5t33.5 58.5q0 19 -11 33.5t-30 14.5q-13 0 -25 -6t-19.5 -13t-14 -14t-7.5 -8q-3 0 -6 6t-2 11q45 64 103 64zM580 626l-446 -632q-25 -1 -25 10q0 2 2 6l447 632q23 0 23 -11q0 -4 -1 -5z" />
<glyph unicode="&#xbf;" horiz-adv-x="310" d="M255 390q0 -28 -20 -49t-45 -21q-19 0 -32 13t-13 33q0 27 21.5 48.5t46.5 21.5q19 0 30.5 -13t11.5 -33zM120 225q0 10 10 16q23 0 61 -32t38 -70q0 -49 -49 -83q-82 -56 -116 -80q-46 -32 -46 -76q0 -28 14.5 -44t37.5 -16t43.5 23t38.5 23q34 0 34 -52 q-4 -13 -31.5 -28t-54.5 -15q-54 0 -93.5 40.5t-39.5 88.5q0 63 44 104q13 12 54 37.5t61 39.5q33 22 33 60q0 19 -13 37t-26 27z" />
<glyph unicode="&#xc0;" horiz-adv-x="586" d="M411 710q-16 0 -95.5 35t-79.5 51q0 9 13.5 15.5t34.5 6.5q20 0 27 -5q19 -12 62.5 -50t43.5 -43q0 -2 -2.5 -6t-3.5 -4zM341 26q57 0 57 31q0 30 -3 49l-22 150h-199q-48 -87 -71 -131q-29 -56 -29 -75q0 -13 23 -18.5t39 -5.5q1 -2 -0.5 -13t-3.5 -16q-13 1 -28.5 2 t-29 2t-31.5 1q-19 0 -33.5 -1t-31.5 -2t-33 -2q-1 2 1 13t5 16q11 0 30 5t27 14q25 27 62 94l276 495q6 11 19.5 20t20.5 9q2 0 5 -3l86 -534q2 -14 5 -32t4.5 -26t1.5 -10q3 -13 18 -21t26 -9.5t19 -1.5q2 -6 0.5 -16t-3.5 -13q-92 5 -109 5q-19 0 -34.5 -1t-34.5 -2 t-35 -2q-3 4 -1 14.5t7 14.5zM192 289h175l-38 246z" />
<glyph unicode="&#xc1;" horiz-adv-x="586" d="M352 711q-1 0 -3.5 4t-2.5 6q0 5 43.5 43t62.5 50q7 5 27 5q21 0 34.5 -6.5t13.5 -15.5q0 -16 -79.5 -51t-95.5 -35zM341 26q57 0 57 31q0 30 -3 49l-22 150h-199q-48 -87 -71 -131q-29 -56 -29 -75q0 -13 23 -18.5t39 -5.5q1 -2 -0.5 -13t-3.5 -16q-13 1 -28.5 2t-29 2 t-31.5 1q-19 0 -33.5 -1t-31.5 -2t-33 -2q-1 2 1 13t5 16q11 0 30 5t27 14q25 27 62 94l276 495q6 11 19.5 20t20.5 9q2 0 5 -3l86 -534q2 -14 5 -32t4.5 -26t1.5 -10q3 -13 18 -21t26 -9.5t19 -1.5q2 -6 0.5 -16t-3.5 -13q-92 5 -109 5q-19 0 -34.5 -1t-34.5 -2t-35 -2 q-3 4 -1 14.5t7 14.5zM192 289h175l-38 246z" />
<glyph unicode="&#xc2;" horiz-adv-x="586" d="M423 836q7 0 10 -7q34 -55 78 -108q-2 -10 -15 -10l-89 59q-72 -35 -120 -59q-12 0 -10 10q70 53 132 108q9 7 14 7zM341 26q57 0 57 31q0 30 -3 49l-22 150h-199q-48 -87 -71 -131q-29 -56 -29 -75q0 -13 23 -18.5t39 -5.5q1 -2 -0.5 -13t-3.5 -16q-13 1 -28.5 2t-29 2 t-31.5 1q-19 0 -33.5 -1t-31.5 -2t-33 -2q-1 2 1 13t5 16q11 0 30 5t27 14q25 27 62 94l276 495q6 11 19.5 20t20.5 9q2 0 5 -3l86 -534q2 -14 5 -32t4.5 -26t1.5 -10q3 -13 18 -21t26 -9.5t19 -1.5q2 -6 0.5 -16t-3.5 -13q-92 5 -109 5q-19 0 -34.5 -1t-34.5 -2t-35 -2 q-3 4 -1 14.5t7 14.5zM192 289h175l-38 246z" />
<glyph unicode="&#xc3;" horiz-adv-x="586" d="M346 819q36 0 61 -14q42 -24 72 -24q32 0 65 38q6 -2 6 -10q0 -19 -18 -37q-34 -33 -78 -33q-36 0 -61 14q-42 24 -72 24q-32 0 -65 -38q-7 2 -7 10q0 18 19 37q34 33 78 33zM341 26q57 0 57 31q0 30 -3 49l-22 150h-199q-48 -87 -71 -131q-29 -56 -29 -75 q0 -13 23 -18.5t39 -5.5q1 -2 -0.5 -13t-3.5 -16q-13 1 -28.5 2t-29 2t-31.5 1q-19 0 -33.5 -1t-31.5 -2t-33 -2q-1 2 1 13t5 16q11 0 30 5t27 14q25 27 62 94l276 495q6 11 19.5 20t20.5 9q2 0 5 -3l86 -534q2 -14 5 -32t4.5 -26t1.5 -10q3 -13 18 -21t26 -9.5t19 -1.5 q2 -6 0.5 -16t-3.5 -13q-92 5 -109 5q-19 0 -34.5 -1t-34.5 -2t-35 -2q-3 4 -1 14.5t7 14.5zM192 289h175l-38 246z" />
<glyph unicode="&#xc4;" horiz-adv-x="586" d="M341 26q57 0 57 31q0 30 -3 49l-22 150h-199q-48 -87 -71 -131q-29 -56 -29 -75q0 -13 23 -18.5t39 -5.5q1 -2 -0.5 -13t-3.5 -16q-13 1 -28.5 2t-29 2t-31.5 1q-19 0 -33.5 -1t-31.5 -2t-33 -2q-1 2 1 13t5 16q11 0 30 5t27 14q25 27 62 94l276 495q6 11 19.5 20t20.5 9 q2 0 5 -3l86 -534q2 -14 5 -32t4.5 -26t1.5 -10q3 -13 18 -21t26 -9.5t19 -1.5q2 -6 0.5 -16t-3.5 -13q-92 5 -109 5q-19 0 -34.5 -1t-34.5 -2t-35 -2q-3 4 -1 14.5t7 14.5zM192 289h175l-38 246zM434 778q4 21 20 35.5t36 14.5q19 0 30 -14.5t7 -35.5t-20 -35.5t-36 -14.5 q-19 0 -30 14.5t-7 35.5zM266 778q4 21 20 35.5t36 14.5q19 0 30 -14.5t7 -35.5t-20.5 -35.5t-36.5 -14.5q-19 0 -29.5 14.5t-6.5 35.5z" />
<glyph unicode="&#xc5;" horiz-adv-x="586" d="M341 26q57 0 57 31q0 30 -3 49l-22 150h-199q-48 -87 -71 -131q-29 -56 -29 -75q0 -13 23 -18.5t39 -5.5q1 -2 -0.5 -13t-3.5 -16q-13 1 -28.5 2t-29 2t-31.5 1q-19 0 -33.5 -1t-31.5 -2t-33 -2q-1 2 1 13t5 16q11 0 30 5t27 14q25 27 62 94l276 495q6 11 19.5 20t20.5 9 q2 0 5 -3l86 -534q2 -14 5 -32t4.5 -26t1.5 -10q3 -13 18 -21t26 -9.5t19 -1.5q2 -6 0.5 -16t-3.5 -13q-92 5 -109 5q-19 0 -34.5 -1t-34.5 -2t-35 -2q-3 4 -1 14.5t7 14.5zM192 289h175l-38 246zM346 749q-4 -23 8 -39.5t33 -16.5t38.5 16.5t22.5 39.5t-6.5 39t-32.5 16 t-40 -16t-23 -39zM315 749q7 37 37 63t64 26t52.5 -26t10.5 -63t-36.5 -63.5t-61.5 -26.5q-34 0 -53.5 26.5t-12.5 63.5z" />
<glyph unicode="&#xc6;" horiz-adv-x="785" d="M388 307h-145l-121 -176q-45 -64 -45 -81q0 -10 22.5 -18t34.5 -8v-6t-1 -12t-2 -9q-92 5 -94 5q-19 0 -33 -1t-30.5 -2t-32.5 -2q-1 1 -0.5 14t3.5 13q11 0 33 6t31 15q39 35 79 94l308 447q5 10 5 15q0 24 -30 24q-3 3 -2.5 14.5t2.5 16.5l98 1q42 0 143 3.5t153 3.5 q0 -1 12 -136q-5 -5 -18 -5q-12 0 -12 7q-8 56 -32 78t-64 22h-80q-61 0 -65 -11q-8 -18 -14 -72l-21 -200q0 -2 3 -3t9 -2t12.5 -1h14.5h49q62 0 77 9.5t31 54.5q1 2 1.5 4t1.5 4q3 7 15 7q11 0 14 -5l-20 -189q-4 -4 -16 -4q-11 0 -13 8q-9 61 -19 70q-11 8 -98 8 q-66 0 -67 -9l-19 -190q-4 -66 -1 -69q11 -10 65 -10h44q75 0 119 31q41 29 70 101q3 6 14 6q19 0 23 -6q-5 -11 -24.5 -52.5t-30 -67.5t-15.5 -46q-48 0 -150 2t-166 2l-124 -3q-2 4 0.5 18.5t5.5 15.5q14 0 40 5.5t33 13.5q17 21 22 74zM391 341l20 209l-144 -209h124z " />
<glyph unicode="&#xc7;" horiz-adv-x="645" d="M569 173q6 0 13 -2t11 -4l4 -2q-3 -16 -32 -72t-40 -65q-69 -36 -195 -36q-119 0 -195 79.5t-76 193.5q0 121 58.5 215t150.5 141t197 45q59 -1 161 -26q-6 -109 -10 -146q0 -5 -8 -5q-13 0 -23 5q4 59 -40.5 100t-108.5 41q-120 0 -201.5 -97t-80.5 -256q0 -37 6.5 -73 t22 -70.5t38.5 -60t58.5 -41.5t78.5 -16q131 0 211 152zM318 -27h28q21 0 31.5 -17t5.5 -41q-8 -40 -42.5 -64.5t-78.5 -24.5q-23 0 -35 10v17q1 6 7 11t11 5q6 0 17 -7.5t21 -7.5q22 0 37 11.5t18 27.5q3 19 -5.5 29.5t-20.5 10.5t-31 -8q-2 0 -6 6t-2 9q2 2 21 26t26 34 h23z" />
<glyph unicode="&#xc8;" horiz-adv-x="554" d="M418 710q-16 0 -95.5 35t-79.5 51q0 9 13.5 15.5t34.5 6.5q19 0 27 -5q19 -12 62.5 -50t43.5 -43q0 -2 -2.5 -6t-3.5 -4zM233 657q42 0 145 3.5t155 3.5q-2 -12 -0.5 -69.5t1.5 -66.5q-5 -5 -18 -5q-11 0 -11 7q-4 56 -26 78t-62 22h-80q-61 0 -66 -11q-11 -21 -20 -72 l-37 -192q0 -2 3 -3t9 -2t12.5 -1h14.5h49q66 0 83 13q11 9 32 56q0 2 1 3q3 7 16 7q11 0 14 -5l-36 -189q-4 -4 -16 -4q-11 0 -13 8q-3 62 -13 70t-97 8q-67 0 -69 -9l-39 -198q-13 -63 -7 -69q10 -10 64 -10h44q77 0 124 31q44 30 78 101q3 6 15 6q18 0 22 -6 q-6 -12 -28 -52.5t-35 -67t-20 -46.5q-48 0 -149.5 2t-166.5 2q-23 0 -58.5 -1.5t-52.5 -1.5q-3 4 -1 14.5t6 14.5q14 0 39.5 4.5t28.5 11.5q7 14 19 74l83 427q11 56 9 74q-1 7 -24 11.5t-37 4.5q-2 4 0 14.5t6 14.5q95 -5 109 -5z" />
<glyph unicode="&#xc9;" horiz-adv-x="554" d="M295 711q-1 0 -3.5 4t-2.5 6q0 5 43.5 43t62.5 50q7 5 27 5q21 0 34.5 -6.5t13.5 -15.5q0 -16 -79.5 -51t-95.5 -35zM233 657q42 0 145 3.5t155 3.5q-2 -12 -0.5 -69.5t1.5 -66.5q-5 -5 -18 -5q-11 0 -11 7q-4 56 -26 78t-62 22h-80q-61 0 -66 -11q-11 -21 -20 -72 l-37 -192q0 -2 3 -3t9 -2t12.5 -1h14.5h49q66 0 83 13q11 9 32 56q0 2 1 3q3 7 16 7q11 0 14 -5l-36 -189q-4 -4 -16 -4q-11 0 -13 8q-3 62 -13 70t-97 8q-67 0 -69 -9l-39 -198q-13 -63 -7 -69q10 -10 64 -10h44q77 0 124 31q44 30 78 101q3 6 15 6q18 0 22 -6 q-6 -12 -28 -52.5t-35 -67t-20 -46.5q-48 0 -149.5 2t-166.5 2q-23 0 -58.5 -1.5t-52.5 -1.5q-3 4 -1 14.5t6 14.5q14 0 39.5 4.5t28.5 11.5q7 14 19 74l83 427q11 56 9 74q-1 7 -24 11.5t-37 4.5q-2 4 0 14.5t6 14.5q95 -5 109 -5z" />
<glyph unicode="&#xca;" horiz-adv-x="554" d="M393 836q7 0 10 -7q34 -55 78 -108q-2 -10 -15 -10l-89 59q-72 -35 -120 -59q-12 0 -10 10q70 53 132 108q9 7 14 7zM233 657q42 0 145 3.5t155 3.5q-2 -12 -0.5 -69.5t1.5 -66.5q-5 -5 -18 -5q-11 0 -11 7q-4 56 -26 78t-62 22h-80q-61 0 -66 -11q-11 -21 -20 -72 l-37 -192q0 -2 3 -3t9 -2t12.5 -1h14.5h49q66 0 83 13q11 9 32 56q0 2 1 3q3 7 16 7q11 0 14 -5l-36 -189q-4 -4 -16 -4q-11 0 -13 8q-3 62 -13 70t-97 8q-67 0 -69 -9l-39 -198q-13 -63 -7 -69q10 -10 64 -10h44q77 0 124 31q44 30 78 101q3 6 15 6q18 0 22 -6 q-6 -12 -28 -52.5t-35 -67t-20 -46.5q-48 0 -149.5 2t-166.5 2q-23 0 -58.5 -1.5t-52.5 -1.5q-3 4 -1 14.5t6 14.5q14 0 39.5 4.5t28.5 11.5q7 14 19 74l83 427q11 56 9 74q-1 7 -24 11.5t-37 4.5q-2 4 0 14.5t6 14.5q95 -5 109 -5z" />
<glyph unicode="&#xcb;" horiz-adv-x="554" d="M402 778q4 21 20 35.5t36 14.5q19 0 30 -14.5t7 -35.5t-20 -35.5t-36 -14.5q-19 0 -30 14.5t-7 35.5zM234 778q4 21 20 35.5t36 14.5q19 0 30 -14.5t7 -35.5t-20.5 -35.5t-36.5 -14.5q-19 0 -29.5 14.5t-6.5 35.5zM233 657q42 0 145 3.5t155 3.5q-2 -12 -0.5 -69.5 t1.5 -66.5q-5 -5 -18 -5q-11 0 -11 7q-4 56 -26 78t-62 22h-80q-61 0 -66 -11q-11 -21 -20 -72l-37 -192q0 -2 3 -3t9 -2t12.5 -1h14.5h49q66 0 83 13q11 9 32 56q0 2 1 3q3 7 16 7q11 0 14 -5l-36 -189q-4 -4 -16 -4q-11 0 -13 8q-3 62 -13 70t-97 8q-67 0 -69 -9l-39 -198 q-13 -63 -7 -69q10 -10 64 -10h44q77 0 124 31q44 30 78 101q3 6 15 6q18 0 22 -6q-6 -12 -28 -52.5t-35 -67t-20 -46.5q-48 0 -149.5 2t-166.5 2q-23 0 -58.5 -1.5t-52.5 -1.5q-3 4 -1 14.5t6 14.5q14 0 39.5 4.5t28.5 11.5q7 14 19 74l83 427q11 56 9 74q-1 7 -24 11.5 t-37 4.5q-2 4 0 14.5t6 14.5q95 -5 109 -5z" />
<glyph unicode="&#xcc;" horiz-adv-x="313" d="M296 710q-16 0 -95.5 35t-79.5 51q0 9 13.5 15.5t34.5 6.5q19 0 27 -5q19 -12 62.5 -50t43.5 -43q0 -2 -2.5 -6t-3.5 -4zM233 657q12 0 110 5q3 -4 0.5 -14.5t-6.5 -14.5q-14 0 -39 -4.5t-28 -11.5q-7 -14 -19 -74l-83 -427q-12 -59 -10 -74q1 -7 24 -11.5t37 -4.5 q2 -4 0 -14.5t-6 -14.5q-95 5 -107 5q-14 0 -111 -5q-3 4 -1 14.5t6 14.5q14 0 39.5 4.5t28.5 11.5q7 14 19 74l83 427q11 56 9 74q-1 7 -24 11.5t-37 4.5q-2 4 0 14.5t6 14.5q95 -5 109 -5z" />
<glyph unicode="&#xcd;" horiz-adv-x="313" d="M181 711q-1 0 -3.5 4t-2.5 6q0 5 43.5 43t62.5 50q7 5 27 5q21 0 34.5 -6.5t13.5 -15.5q0 -16 -79.5 -51t-95.5 -35zM233 657q12 0 110 5q3 -4 0.5 -14.5t-6.5 -14.5q-14 0 -39 -4.5t-28 -11.5q-7 -14 -19 -74l-83 -427q-12 -59 -10 -74q1 -7 24 -11.5t37 -4.5 q2 -4 0 -14.5t-6 -14.5q-95 5 -107 5q-14 0 -111 -5q-3 4 -1 14.5t6 14.5q14 0 39.5 4.5t28.5 11.5q7 14 19 74l83 427q11 56 9 74q-1 7 -24 11.5t-37 4.5q-2 4 0 14.5t6 14.5q95 -5 109 -5z" />
<glyph unicode="&#xce;" horiz-adv-x="313" d="M292 836q6 0 10 -7q34 -55 78 -108q-2 -10 -15 -10l-89 59q-72 -35 -120 -59q-12 0 -10 10q70 53 132 108q9 7 14 7zM233 657q12 0 110 5q3 -4 0.5 -14.5t-6.5 -14.5q-14 0 -39 -4.5t-28 -11.5q-7 -14 -19 -74l-83 -427q-12 -59 -10 -74q1 -7 24 -11.5t37 -4.5 q2 -4 0 -14.5t-6 -14.5q-95 5 -107 5q-14 0 -111 -5q-3 4 -1 14.5t6 14.5q14 0 39.5 4.5t28.5 11.5q7 14 19 74l83 427q11 56 9 74q-1 7 -24 11.5t-37 4.5q-2 4 0 14.5t6 14.5q95 -5 109 -5z" />
<glyph unicode="&#xcf;" horiz-adv-x="313" d="M233 657q12 0 110 5q3 -4 0.5 -14.5t-6.5 -14.5q-14 0 -39 -4.5t-28 -11.5q-7 -14 -19 -74l-83 -427q-12 -59 -10 -74q1 -7 24 -11.5t37 -4.5q2 -4 0 -14.5t-6 -14.5q-95 5 -107 5q-14 0 -111 -5q-3 4 -1 14.5t6 14.5q14 0 39.5 4.5t28.5 11.5q7 14 19 74l83 427 q11 56 9 74q-1 7 -24 11.5t-37 4.5q-2 4 0 14.5t6 14.5q95 -5 109 -5zM353 833q17 0 27 -14t6 -33t-19.5 -32t-32.5 -13t-28 13.5t-7 32.5t20.5 32.5t33.5 13.5zM182 833q17 0 27.5 -14t6.5 -33t-19.5 -32t-32.5 -13t-28 13.5t-7 32.5t20 32.5t33 13.5z" />
<glyph unicode="&#xd0;" horiz-adv-x="684" d="M79 349h330q7 0 5 -8q-4 -19 -10 -28h-331q-6 0 -3 11q4 20 9 25zM252 546l-85 -434q-13 -62 -8 -72q6 -14 73 -14q114 0 202 73.5t115 213.5q31 161 -28.5 239.5t-182.5 78.5q-62 0 -67 -11q-6 -13 -19 -74zM368 658q158 0 231.5 -91t45.5 -233q-13 -68 -41.5 -125 t-77 -106t-124.5 -77.5t-174 -28.5h-233q-3 4 -0.5 14.5t6.5 14.5q14 0 39 4.5t28 11.5q7 14 19 74l83 427q12 59 10 74q-1 7 -24 11.5t-37 4.5q-2 4 -0.5 14.5t5.5 14.5q95 -5 109 -5q17 0 65.5 0.5t69.5 0.5z" />
<glyph unicode="&#xd1;" horiz-adv-x="732" d="M628 541q10 53 3 72q-3 9 -27 14.5t-40 5.5q-6 14 3 29q74 -4 102 -4q18 0 104 4q6 -14 -4 -29q-13 0 -41 -5.5t-34 -13.5q-13 -17 -22 -68l-79 -407q-18 -97 -25 -140q-4 -4 -17 -4q-15 0 -27 23l-300 551l-88 -454q-10 -52 -4 -69q3 -7 28 -13.5t39 -6.5q5 -11 -4 -29 q-93 5 -104 5q-19 0 -34.5 -1t-34 -2t-34.5 -2q-5 12 6 29q13 0 41.5 6t34.5 14q14 19 23 68l84 434q9 52 4 68q-3 8 -28 12.5t-40 4.5q-5 17 5 29q84 -4 85 -4q30 0 82 4q16 -39 124 -230t145 -270zM388 819q36 0 61 -14q42 -24 72 -24q32 0 65 38q6 -2 6 -10 q0 -19 -18 -37q-34 -33 -78 -33q-36 0 -61 14q-42 24 -72 24q-32 0 -65 -38q-7 2 -7 10q0 18 19 37q34 33 78 33z" />
<glyph unicode="&#xd2;" horiz-adv-x="710" d="M406 635q-98 0 -174.5 -107t-76.5 -260q0 -47 8 -88t26.5 -79.5t54 -60.5t84.5 -22q73 0 131.5 57t88.5 142t30 176q0 41 -7.5 79t-25 77t-53.5 62.5t-86 23.5zM415 665q116 0 186.5 -80t70.5 -203q0 -172 -103 -282.5t-250 -110.5q-118 0 -188 81t-70 203 q0 168 106.5 280t247.5 112zM458 710q-16 0 -95.5 35t-79.5 51q0 9 13.5 15.5t34.5 6.5q19 0 27 -5q19 -12 62.5 -50t43.5 -43q0 -2 -2.5 -6t-3.5 -4z" />
<glyph unicode="&#xd3;" horiz-adv-x="710" d="M406 635q-98 0 -174.5 -107t-76.5 -260q0 -47 8 -88t26.5 -79.5t54 -60.5t84.5 -22q73 0 131.5 57t88.5 142t30 176q0 41 -7.5 79t-25 77t-53.5 62.5t-86 23.5zM415 665q116 0 186.5 -80t70.5 -203q0 -172 -103 -282.5t-250 -110.5q-118 0 -188 81t-70 203 q0 168 106.5 280t247.5 112zM359 711q-1 0 -3.5 4t-2.5 6q0 5 43.5 43t62.5 50q7 5 27 5q21 0 34.5 -6.5t13.5 -15.5q0 -16 -79.5 -51t-95.5 -35z" />
<glyph unicode="&#xd4;" horiz-adv-x="710" d="M406 635q-98 0 -174.5 -107t-76.5 -260q0 -47 8 -88t26.5 -79.5t54 -60.5t84.5 -22q73 0 131.5 57t88.5 142t30 176q0 41 -7.5 79t-25 77t-53.5 62.5t-86 23.5zM415 665q116 0 186.5 -80t70.5 -203q0 -172 -103 -282.5t-250 -110.5q-118 0 -188 81t-70 203 q0 168 106.5 280t247.5 112zM454 836q6 0 10 -7q34 -55 78 -108q-2 -10 -15 -10l-89 59q-72 -35 -120 -59q-12 0 -10 10q70 53 132 108q9 7 14 7z" />
<glyph unicode="&#xd5;" horiz-adv-x="710" d="M406 635q-98 0 -174.5 -107t-76.5 -260q0 -47 8 -88t26.5 -79.5t54 -60.5t84.5 -22q73 0 131.5 57t88.5 142t30 176q0 41 -7.5 79t-25 77t-53.5 62.5t-86 23.5zM415 665q116 0 186.5 -80t70.5 -203q0 -172 -103 -282.5t-250 -110.5q-118 0 -188 81t-70 203 q0 168 106.5 280t247.5 112zM372 819q36 0 61 -14q42 -24 72 -24q32 0 65 38q6 -2 6 -10q0 -19 -18 -37q-34 -33 -78 -33q-36 0 -61 14q-42 24 -72 24q-32 0 -65 -38q-7 2 -7 10q0 18 19 37q34 33 78 33z" />
<glyph unicode="&#xd6;" horiz-adv-x="710" d="M406 635q-98 0 -174.5 -107t-76.5 -260q0 -47 8 -88t26.5 -79.5t54 -60.5t84.5 -22q73 0 131.5 57t88.5 142t30 176q0 41 -7.5 79t-25 77t-53.5 62.5t-86 23.5zM415 665q116 0 186.5 -80t70.5 -203q0 -172 -103 -282.5t-250 -110.5q-118 0 -188 81t-70 203 q0 168 106.5 280t247.5 112zM462 778q4 21 20 35.5t36 14.5q19 0 30 -14.5t7 -35.5t-20 -35.5t-36 -14.5q-19 0 -30 14.5t-7 35.5zM294 778q4 21 20 35.5t36 14.5q19 0 30 -14.5t7 -35.5t-20.5 -35.5t-36.5 -14.5q-19 0 -29.5 14.5t-6.5 35.5z" />
<glyph unicode="&#xd7;" horiz-adv-x="411" d="M27 68q-4 0 -8.5 14t-4.5 26l154 135q2 2 2 3q0 4 -5 9l-97 133q0 9 11 21t16 12l4 -4l104 -141q2 -2 4 -2l2 1l158 141q3 3 6 3q5 0 9 -13.5t4 -27.5l-153 -136l-2 -2q0 -1 1 -2l100 -136q0 -10 -8 -22t-14 -12t-7 3l-103 140q-2 2 -3 2q-2 0 -4 -2l-161 -140 q-3 -3 -5 -3z" />
<glyph unicode="&#xd8;" horiz-adv-x="710" d="M118 -13q-7 3 -16 11t-6 12l516 657q7 -2 16.5 -10t6.5 -12zM406 635q-98 0 -174.5 -107t-76.5 -260q0 -47 8 -88t26.5 -79.5t54 -60.5t84.5 -22q73 0 131.5 57t88.5 142t30 176q0 41 -7.5 79t-25 77t-53.5 62.5t-86 23.5zM415 665q116 0 186.5 -80t70.5 -203 q0 -172 -103 -282.5t-250 -110.5q-118 0 -188 81t-70 203q0 168 106.5 280t247.5 112z" />
<glyph unicode="&#xd9;" horiz-adv-x="661" d="M217 657q13 0 110 5q3 -4 0.5 -14.5t-6.5 -14.5q-14 0 -39 -4.5t-28 -11.5q-7 -14 -19 -74l-48 -247q-23 -119 5 -176q33 -66 121 -66q78 0 128.5 49t76.5 171l53 271q10 52 4 69q-3 7 -26.5 13.5t-36.5 6.5q-5 11 4 29q92 -5 100 -5q19 0 34 1t33.5 2t34.5 2 q5 -13 -5 -29q-13 0 -42 -6t-35 -14q-13 -17 -22 -68l-53 -270q-29 -146 -98 -213t-181 -67q-106 0 -158 72q-49 70 -27 183l57 292q12 59 10 74q-1 7 -24 11.5t-37 4.5q-2 4 0 14.5t6 14.5q95 -5 108 -5zM478 710q-16 0 -95.5 35t-79.5 51q0 9 13.5 15.5t34.5 6.5 q19 0 27 -5q19 -12 62.5 -50t43.5 -43q0 -2 -2.5 -6t-3.5 -4z" />
<glyph unicode="&#xda;" horiz-adv-x="661" d="M217 657q13 0 110 5q3 -4 0.5 -14.5t-6.5 -14.5q-14 0 -39 -4.5t-28 -11.5q-7 -14 -19 -74l-48 -247q-23 -119 5 -176q33 -66 121 -66q78 0 128.5 49t76.5 171l53 271q10 52 4 69q-3 7 -26.5 13.5t-36.5 6.5q-5 11 4 29q92 -5 100 -5q19 0 34 1t33.5 2t34.5 2 q5 -13 -5 -29q-13 0 -42 -6t-35 -14q-13 -17 -22 -68l-53 -270q-29 -146 -98 -213t-181 -67q-106 0 -158 72q-49 70 -27 183l57 292q12 59 10 74q-1 7 -24 11.5t-37 4.5q-2 4 0 14.5t6 14.5q95 -5 108 -5zM410 711q-1 0 -3.5 4t-2.5 6q0 5 43.5 43t62.5 50q8 5 27 5 q21 0 34.5 -6.5t13.5 -15.5q0 -16 -79.5 -51t-95.5 -35z" />
<glyph unicode="&#xdb;" horiz-adv-x="661" d="M217 657q13 0 110 5q3 -4 0.5 -14.5t-6.5 -14.5q-14 0 -39 -4.5t-28 -11.5q-7 -14 -19 -74l-48 -247q-23 -119 5 -176q33 -66 121 -66q78 0 128.5 49t76.5 171l53 271q10 52 4 69q-3 7 -26.5 13.5t-36.5 6.5q-5 11 4 29q92 -5 100 -5q19 0 34 1t33.5 2t34.5 2 q5 -13 -5 -29q-13 0 -42 -6t-35 -14q-13 -17 -22 -68l-53 -270q-29 -146 -98 -213t-181 -67q-106 0 -158 72q-49 70 -27 183l57 292q12 59 10 74q-1 7 -24 11.5t-37 4.5q-2 4 0 14.5t6 14.5q95 -5 108 -5zM458 836q6 0 10 -7q34 -55 78 -108q-2 -10 -15 -10l-89 59 q-72 -35 -120 -59q-12 0 -10 10q70 53 132 108q9 7 14 7z" />
<glyph unicode="&#xdc;" horiz-adv-x="661" d="M217 657q13 0 110 5q3 -4 0.5 -14.5t-6.5 -14.5q-14 0 -39 -4.5t-28 -11.5q-7 -14 -19 -74l-48 -247q-23 -119 5 -176q33 -66 121 -66q78 0 128.5 49t76.5 171l53 271q10 52 4 69q-3 7 -26.5 13.5t-36.5 6.5q-5 11 4 29q92 -5 100 -5q19 0 34 1t33.5 2t34.5 2 q5 -13 -5 -29q-13 0 -42 -6t-35 -14q-13 -17 -22 -68l-53 -270q-29 -146 -98 -213t-181 -67q-106 0 -158 72q-49 70 -27 183l57 292q12 59 10 74q-1 7 -24 11.5t-37 4.5q-2 4 0 14.5t6 14.5q95 -5 108 -5zM482 778q4 21 20 35.5t36 14.5q19 0 30 -14.5t7 -35.5t-20 -35.5 t-36 -14.5q-19 0 -30 14.5t-7 35.5zM314 778q4 21 20 35.5t36 14.5q19 0 30 -14.5t7 -35.5t-20.5 -35.5t-36.5 -14.5q-19 0 -29.5 14.5t-6.5 35.5z" />
<glyph unicode="&#xdd;" horiz-adv-x="556" d="M211 116l29 151q2 17 -1 28l-83 253q-15 46 -48 69q-22 16 -49 16q-2 1 -2 6.5t2.5 13t5.5 9.5q113 -5 115 -5q25 0 120 5q1 -5 -1.5 -17t-5.5 -12q-17 0 -38 -7.5t-24 -24.5q-2 -8 5 -30l81 -240q136 190 175 261q5 7 6 15q1 4 -3.5 9.5t-20 10.5t-39.5 5q-2 2 0 14 t4 15q85 -5 93 -5t103 5q0 -3 -3 -16t-5 -13q-60 0 -89 -40l-205 -291q-4 -6 -10 -31l-31 -154q-12 -59 -10 -74q1 -7 24 -11.5t37 -4.5q2 -4 0.5 -14.5t-5.5 -14.5q-95 5 -108 5q-14 0 -111 -5q-3 4 -0.5 14.5t6.5 14.5q14 0 39 4.5t28 11.5q7 14 19 74zM339 711 q-1 0 -3.5 4t-2.5 6q0 5 43.5 43t62.5 50q7 5 27 5q21 0 34.5 -6.5t13.5 -15.5q0 -16 -79.5 -51t-95.5 -35z" />
<glyph unicode="&#xde;" horiz-adv-x="470" d="M234 458l-66 -342q-12 -59 -10 -74q1 -7 24 -11.5t37 -4.5q2 -4 0 -14.5t-6 -14.5q-95 5 -107 5q-14 0 -111 -5q-3 4 -1 14.5t6 14.5q14 0 39.5 4.5t28.5 11.5q7 14 19 74l83 427q11 56 9 74q-1 7 -24 11.5t-37 4.5q-2 4 0 14.5t6 14.5q95 -5 109 -5q12 0 110 5 q3 -4 0.5 -14.5t-6.5 -14.5q-14 0 -39 -4.5t-28 -11.5q-7 -14 -19 -74l-9 -43q28 11 71 11q80 0 130.5 -41.5t50.5 -109.5q0 -94 -70 -160t-163 -66q-33 0 -45 10q-8 8 -8 16q0 2 4 4q8 -4 33 -4q59 0 109.5 53t50.5 133q0 136 -116 136q-51 0 -55 -24z" />
<glyph unicode="&#xdf;" horiz-adv-x="500" d="M204 413q-9 -49 -31.5 -173.5t-36.5 -196.5q-23 -120 -84 -198t-123 -78q-41 0 -54 25q0 11 1 17q6 39 29 39q17 0 38 -23q15 -15 29 -15q28 0 46.5 50.5t43.5 178.5l60 337h-85q-2 0 -2 3q0 9 15 21.5t31 12.5h47q23 119 84 195.5t123 76.5q44 0 80.5 -29.5t36.5 -83.5 q0 -25 -5.5 -45.5t-17.5 -36.5t-20.5 -25.5t-24 -22t-19.5 -16.5l-5 -5q-47 -43 -50 -63l-1 -6q0 -10 6 -21t11.5 -18t18.5 -21.5t17 -19.5q3 -4 23 -25.5t25 -29t16.5 -25.5t15.5 -34.5t4 -35.5q0 -55 -39.5 -90.5t-98.5 -35.5q-64 0 -100 36q-7 20 -6 26q3 41 40 41 q12 0 23.5 -18.5t27 -36.5t36.5 -18q54 0 54 62q0 41 -75 128q-20 23 -28.5 34t-18 32t-9.5 42q0 13 2.5 23t10.5 20.5t14 17t23.5 23t28.5 27.5q53 53 53 112q0 43 -25.5 69t-58.5 26q-32 0 -52.5 -52t-43.5 -177z" />
<glyph unicode="&#xe0;" d="M305 435q43 0 78 -13l-61 -316q-14 -57 6 -57q5 0 12.5 4t14.5 10t15 14t13.5 14t10.5 11l4 5q2 0 6 -7.5t4 -11.5q-12 -21 -56 -57.5t-75 -36.5q-16 0 -25 14.5t-9 37.5q0 16 7 53q4 24 5 31q-23 -42 -66 -88.5t-81 -46.5q-40 0 -64.5 32.5t-24.5 85.5q0 63 27.5 123.5 t69.5 103t93 69t96 26.5zM259 395q-58 0 -112 -79t-54 -165q0 -98 51 -98q36 0 80.5 73t59.5 148l21 106q-13 15 -46 15zM332 502q-13 0 -88 44t-75 57q0 15 13 22.5t26 7.5q23 0 37 -10q10 -7 52.5 -56t42.5 -55q0 -2 -3 -6t-5 -4z" />
<glyph unicode="&#xe1;" d="M305 435q43 0 78 -13l-61 -316q-14 -57 6 -57q5 0 12.5 4t14.5 10t15 14t13.5 14t10.5 11l4 5q2 0 6 -7.5t4 -11.5q-12 -21 -56 -57.5t-75 -36.5q-16 0 -25 14.5t-9 37.5q0 16 7 53q4 24 5 31q-23 -42 -66 -88.5t-81 -46.5q-40 0 -64.5 32.5t-24.5 85.5q0 63 27.5 123.5 t69.5 103t93 69t96 26.5zM259 395q-58 0 -112 -79t-54 -165q0 -98 51 -98q36 0 80.5 73t59.5 148l21 106q-13 15 -46 15zM250 502q-2 0 -5 4t-3 6q0 6 42.5 55t52.5 56q14 10 37 10q13 0 26 -7.5t13 -22.5q0 -13 -75 -57t-88 -44z" />
<glyph unicode="&#xe2;" d="M296 629q5 0 9 -8q32 -60 68 -116q-2 -11 -13 -11l-78 64q-66 -39 -105 -64q-4 0 -7 3.5t-2 7.5q71 68 116 116q8 8 12 8zM305 435q43 0 78 -13l-61 -316q-14 -57 6 -57q5 0 12.5 4t14.5 10t15 14t13.5 14t10.5 11l4 5q2 0 6 -7.5t4 -11.5q-12 -21 -56 -57.5t-75 -36.5 q-16 0 -25 14.5t-9 37.5q0 16 7 53q4 24 5 31q-23 -42 -66 -88.5t-81 -46.5q-40 0 -64.5 32.5t-24.5 85.5q0 63 27.5 123.5t69.5 103t93 69t96 26.5zM259 395q-58 0 -112 -79t-54 -165q0 -98 51 -98q36 0 80.5 73t59.5 148l21 106q-13 15 -46 15z" />
<glyph unicode="&#xe3;" d="M227 584q30 0 56 -13q4 -2 17.5 -9.5t24 -10.5t23.5 -3q29 0 65 36q7 -2 6 -9q-3 -21 -21 -37q-35 -32 -78 -32q-25 0 -55 14q-2 1 -13.5 7t-17 8t-16 4.5t-20.5 2.5q-29 0 -65 -36q-6 2 -5 10q3 21 20 36q35 32 79 32zM305 435q43 0 78 -13l-61 -316q-14 -57 6 -57 q5 0 12.5 4t14.5 10t15 14t13.5 14t10.5 11l4 5q2 0 6 -7.5t4 -11.5q-12 -21 -56 -57.5t-75 -36.5q-16 0 -25 14.5t-9 37.5q0 16 7 53q4 24 5 31q-23 -42 -66 -88.5t-81 -46.5q-40 0 -64.5 32.5t-24.5 85.5q0 63 27.5 123.5t69.5 103t93 69t96 26.5zM259 395q-58 0 -112 -79 t-54 -165q0 -98 51 -98q36 0 80.5 73t59.5 148l21 106q-13 15 -46 15z" />
<glyph unicode="&#xe4;" d="M305 435q43 0 78 -13l-61 -316q-14 -57 6 -57q5 0 12.5 4t14.5 10t15 14t13.5 14t10.5 11l4 5q2 0 6 -7.5t4 -11.5q-12 -21 -56 -57.5t-75 -36.5q-16 0 -25 14.5t-9 37.5q0 16 7 53q4 24 5 31q-23 -42 -66 -88.5t-81 -46.5q-40 0 -64.5 32.5t-24.5 85.5q0 63 27.5 123.5 t69.5 103t93 69t96 26.5zM259 395q-58 0 -112 -79t-54 -165q0 -98 51 -98q36 0 80.5 73t59.5 148l21 106q-13 15 -46 15zM372 603q17 0 27 -14t6 -33t-19.5 -32t-32.5 -13t-28 13.5t-7 32.5t20.5 32.5t33.5 13.5zM201 603q17 0 27.5 -14t6.5 -33t-19.5 -32t-32.5 -13 t-28 13.5t-7 32.5t20 32.5t33 13.5z" />
<glyph unicode="&#xe5;" d="M251 586q-4 -23 7.5 -39.5t32.5 -16.5t39.5 16.5t22.5 39.5t-7.5 39t-32.5 16t-39.5 -16t-22.5 -39zM220 586q7 37 36.5 63t63.5 26t52.5 -26t10.5 -63t-36.5 -63.5t-61.5 -26.5q-34 0 -53 26.5t-12 63.5zM305 435q43 0 78 -13l-61 -316q-14 -57 6 -57q5 0 12.5 4 t14.5 10t15 14t13.5 14t10.5 11l4 5q2 0 6 -7.5t4 -11.5q-12 -21 -56 -57.5t-75 -36.5q-16 0 -25 14.5t-9 37.5q0 16 7 53q4 24 5 31q-23 -42 -66 -88.5t-81 -46.5q-40 0 -64.5 32.5t-24.5 85.5q0 63 27.5 123.5t69.5 103t93 69t96 26.5zM259 395q-58 0 -112 -79t-54 -165 q0 -98 51 -98q36 0 80.5 73t59.5 148l21 106q-13 15 -46 15z" />
<glyph unicode="&#xe6;" horiz-adv-x="559" d="M421 394q-44 0 -75.5 -51.5t-39.5 -112.5q39 0 97.5 37.5t58.5 86.5q0 18 -12.5 29t-28.5 11zM217 108l15 93q-66 -13 -98 -31q-52 -27 -52 -69q0 -24 12.5 -39.5t32.5 -15.5q21 0 55 26.5t35 35.5zM251 435q29 0 49 -20.5t23 -48.5q26 29 66 49t79 20q68 0 68 -65 q0 -59 -83 -110.5t-152 -60.5q-4 -24 -4 -41q0 -105 70 -105q8 0 16.5 3t16.5 7.5t16.5 10.5t15.5 12t14 12.5t11.5 11l8.5 8.5l3 4q2 0 6.5 -7t5.5 -13q-30 -42 -73.5 -75t-79.5 -33q-33 0 -63.5 21t-40.5 55q-14 -18 -64.5 -48t-69.5 -30q-35 0 -59.5 22t-24.5 66 q0 31 18.5 58t40.5 42q7 4 39 14.5t75 23.5t53 16q2 1 3.5 3t2 4t1.5 7.5t2 8.5l11 60q2 8 2 21q0 21 -15.5 40t-40.5 19q-21 0 -33.5 -14t-23.5 -44q-17 -45 -51 -45q-23 0 -23 29q0 15 11 33q31 27 80.5 53t92.5 26z" />
<glyph unicode="&#xe7;" horiz-adv-x="359" d="M126 -22h23q18 0 27 -14.5t5 -34.5q-7 -34 -36 -55t-66 -21q-19 0 -30 9l-1 6q0 7 1 8q1 5 5.5 9.5t9.5 4.5t14.5 -6.5t17.5 -6.5q19 0 32 10t15 23q3 16 -4 25t-18 9q-9 0 -26 -7q-2 0 -5.5 5t-1.5 8q5 7 20 25.5t20 25.5h19zM275 435q32 0 62 -25q9 -12 9 -27 q0 -19 -9 -32t-25 -13q-24 0 -36 20q-22 36 -52 36q-44 0 -83 -68t-39 -164q0 -109 69 -109q8 0 17 3t17.5 7.5t17 10.5t15.5 12t14 12.5t11 11t7 8.5l4 4q2 0 7 -8t5 -12q-15 -25 -62.5 -66.5t-88.5 -41.5q-53 0 -82 38t-29 108q0 114 84 204.5t167 90.5z" />
<glyph unicode="&#xe8;" horiz-adv-x="363" d="M274 435q35 0 50.5 -18t15.5 -44q0 -44 -47 -88t-102 -68t-88 -24q-2 -6 -2 -32q0 -108 69 -108q8 0 17 3t17.5 7.5t17 10.5t15.5 12t14 12.5t11 11t8 8.5l3 4q2 0 7 -8t5 -12q-16 -27 -63.5 -67.5t-88.5 -40.5q-53 0 -81.5 37.5t-28.5 107.5q0 109 81.5 202.5 t169.5 93.5zM105 218q38 0 99.5 43t61.5 93q0 19 -13 29.5t-29 10.5q-46 0 -80 -62.5t-39 -113.5zM299 502q-13 0 -88 44t-75 57q0 15 13 22.5t26 7.5q23 0 37 -10q10 -7 52.5 -56t42.5 -55q0 -2 -3 -6t-5 -4z" />
<glyph unicode="&#xe9;" horiz-adv-x="363" d="M274 435q35 0 50.5 -18t15.5 -44q0 -44 -47 -88t-102 -68t-88 -24q-2 -6 -2 -32q0 -108 69 -108q8 0 17 3t17.5 7.5t17 10.5t15.5 12t14 12.5t11 11t8 8.5l3 4q2 0 7 -8t5 -12q-16 -27 -63.5 -67.5t-88.5 -40.5q-53 0 -81.5 37.5t-28.5 107.5q0 109 81.5 202.5 t169.5 93.5zM105 218q38 0 99.5 43t61.5 93q0 19 -13 29.5t-29 10.5q-46 0 -80 -62.5t-39 -113.5zM225 502q-2 0 -5 4t-3 6q0 6 42.5 55t52.5 56q14 10 37 10q13 0 26 -7.5t13 -22.5q0 -13 -75 -57t-88 -44z" />
<glyph unicode="&#xea;" horiz-adv-x="363" d="M271 629q5 0 9 -8q32 -60 68 -116q-2 -11 -13 -11l-78 64q-66 -39 -105 -64q-4 0 -7 3.5t-2 7.5q71 68 116 116q8 8 12 8zM274 435q35 0 50.5 -18t15.5 -44q0 -44 -47 -88t-102 -68t-88 -24q-2 -6 -2 -32q0 -108 69 -108q8 0 17 3t17.5 7.5t17 10.5t15.5 12t14 12.5 t11 11t8 8.5l3 4q2 0 7 -8t5 -12q-16 -27 -63.5 -67.5t-88.5 -40.5q-53 0 -81.5 37.5t-28.5 107.5q0 109 81.5 202.5t169.5 93.5zM105 218q38 0 99.5 43t61.5 93q0 19 -13 29.5t-29 10.5q-46 0 -80 -62.5t-39 -113.5z" />
<glyph unicode="&#xeb;" horiz-adv-x="363" d="M274 435q35 0 50.5 -18t15.5 -44q0 -44 -47 -88t-102 -68t-88 -24q-2 -6 -2 -32q0 -108 69 -108q8 0 17 3t17.5 7.5t17 10.5t15.5 12t14 12.5t11 11t8 8.5l3 4q2 0 7 -8t5 -12q-16 -27 -63.5 -67.5t-88.5 -40.5q-53 0 -81.5 37.5t-28.5 107.5q0 109 81.5 202.5 t169.5 93.5zM105 218q38 0 99.5 43t61.5 93q0 19 -13 29.5t-29 10.5q-46 0 -80 -62.5t-39 -113.5zM337 603q17 0 27 -14t6 -33t-19.5 -32t-32.5 -13t-28 13.5t-7 32.5t20.5 32.5t33.5 13.5zM166 603q17 0 27.5 -14t6.5 -33t-19.5 -32t-32.5 -13t-28 13.5t-7 32.5t20 32.5 t33 13.5z" />
<glyph unicode="&#xec;" horiz-adv-x="262" d="M114 323q4 24 4 32q0 25 -10 25q-5 0 -12.5 -4t-14.5 -10t-15 -14t-13.5 -14t-10.5 -11l-4 -5q-2 0 -6 7.5t-4 11.5q13 22 54 58t72 36q16 0 27.5 -15t11.5 -37q0 -16 -7 -53l-51 -224q-4 -20 -4 -32q0 -25 10 -25q5 0 12.5 4t14.5 10t15 14t13.5 14t9.5 11l5 5 q2 0 6 -7.5t4 -11.5q-12 -21 -56 -57.5t-75 -36.5q-16 0 -25 14.5t-9 37.5q0 16 7 53zM192 469q-13 0 -88 44t-75 57q0 15 13 22.5t26 7.5q23 0 37 -10q10 -7 52.5 -56t42.5 -55q0 -2 -3 -6t-5 -4z" />
<glyph unicode="&#xed;" horiz-adv-x="262" d="M114 323q4 24 4 32q0 25 -10 25q-5 0 -12.5 -4t-14.5 -10t-15 -14t-13.5 -14t-10.5 -11l-4 -5q-2 0 -6 7.5t-4 11.5q13 22 54 58t72 36q16 0 27.5 -15t11.5 -37q0 -16 -7 -53l-51 -224q-4 -20 -4 -32q0 -25 10 -25q5 0 12.5 4t14.5 10t15 14t13.5 14t9.5 11l5 5 q2 0 6 -7.5t4 -11.5q-12 -21 -56 -57.5t-75 -36.5q-16 0 -25 14.5t-9 37.5q0 16 7 53zM106 502q-2 0 -5 4t-3 6q0 6 42.5 55t52.5 56q14 10 37 10q13 0 26 -7.5t13 -22.5q0 -13 -75 -57t-88 -44z" />
<glyph unicode="&#xee;" horiz-adv-x="262" d="M180 629q5 0 9 -8q32 -60 68 -116q-2 -11 -13 -11l-78 64q-66 -39 -105 -64q-4 0 -7 3.5t-2 7.5q71 68 116 116q8 8 12 8zM114 323q4 24 4 32q0 25 -10 25q-5 0 -12.5 -4t-14.5 -10t-15 -14t-13.5 -14t-10.5 -11l-4 -5q-2 0 -6 7.5t-4 11.5q13 22 54 58t72 36 q16 0 27.5 -15t11.5 -37q0 -16 -7 -53l-51 -224q-4 -20 -4 -32q0 -25 10 -25q5 0 12.5 4t14.5 10t15 14t13.5 14t9.5 11l5 5q2 0 6 -7.5t4 -11.5q-12 -21 -56 -57.5t-75 -36.5q-16 0 -25 14.5t-9 37.5q0 16 7 53z" />
<glyph unicode="&#xef;" horiz-adv-x="262" d="M114 323q4 24 4 32q0 25 -10 25q-5 0 -12.5 -4t-14.5 -10t-15 -14t-13.5 -14t-10.5 -11l-4 -5q-2 0 -6 7.5t-4 11.5q13 22 54 58t72 36q16 0 27.5 -15t11.5 -37q0 -16 -7 -53l-51 -224q-4 -20 -4 -32q0 -25 10 -25q5 0 12.5 4t14.5 10t15 14t13.5 14t9.5 11l5 5 q2 0 6 -7.5t4 -11.5q-12 -21 -56 -57.5t-75 -36.5q-16 0 -25 14.5t-9 37.5q0 16 7 53zM248 607q15 0 26 -12t11 -28q0 -24 -15.5 -42t-38.5 -18q-16 0 -25 13t-9 31q0 23 14.5 39.5t36.5 16.5zM115 607q15 0 26 -12t11 -28q0 -24 -15.5 -42t-38.5 -18q-16 0 -25 13t-9 31 q0 23 14.5 39.5t36.5 16.5z" />
<glyph unicode="&#xf0;" horiz-adv-x="437" d="M251 403q-50 0 -92 -73.5t-42 -171.5q0 -49 12.5 -90t45.5 -41q50 0 90 72.5t40 173.5q0 61 -3 80q-3 20 -18.5 35t-32.5 15zM259 435q39 0 54 -9q1 34 -12.5 75.5t-38.5 77.5l-106 -70q-5 4 -8.5 15t-0.5 17l96 63q-47 53 -108 68q2 16 13 16q74 -12 130 -60l115 76 q5 -5 8.5 -16t1.5 -15l-102 -68q42 -47 64.5 -113t22.5 -139q0 -157 -72.5 -257.5t-162.5 -100.5q-61 0 -87.5 42.5t-26.5 102.5q0 57 27.5 124.5t80 119t112.5 51.5z" />
<glyph unicode="&#xf1;" horiz-adv-x="497" d="M229 584q30 0 56 -13q4 -2 17.5 -9.5t24 -10.5t23.5 -3q29 0 65 36q7 -2 6 -9q-3 -21 -21 -37q-35 -32 -78 -32q-25 0 -55 14q-2 1 -13.5 7t-17 8t-16 4.5t-20.5 2.5q-29 0 -65 -36q-6 2 -5 10q3 21 20 36q35 32 79 32zM179 330l-18 -84q20 39 86.5 114t109.5 75 q62 0 62 -66q0 -41 -14 -109l-33 -154q-4 -20 -4 -32q0 -25 10 -25q5 0 12.5 4t14.5 10t15 14t13.5 14t10.5 11l4 5q2 0 6 -7.5t4 -11.5q-12 -21 -56 -57.5t-75 -36.5q-16 0 -25 14.5t-9 37.5q0 16 7 53l35 165q7 32 7 54q0 15 -1 23t-5 14t-13 6q-34 0 -101.5 -77 t-83.5 -162q-4 -20 -25 -122q-16 -4 -36 -4q-19 0 -35 4l66 323q4 24 4 32q0 25 -10 25q-5 0 -12.5 -4t-14.5 -10t-15 -14t-13.5 -14t-10.5 -11l-4 -5q-2 0 -6 7.5t-4 11.5q13 22 54 58t72 36q16 0 27.5 -15t11.5 -37q0 -19 -8 -53z" />
<glyph unicode="&#xf2;" horiz-adv-x="414" d="M237 403q-58 0 -96.5 -80t-38.5 -165q0 -60 15 -95.5t42 -35.5q39 0 70 41.5t46 96.5t15 108q0 130 -53 130zM251 435q58 0 87.5 -40t29.5 -107q0 -106 -71.5 -199.5t-156.5 -93.5q-58 0 -87 38t-29 105q0 107 71 202t156 95zM305 469q-13 0 -88 44t-75 57q0 15 13 22.5 t26 7.5q23 0 37 -10q10 -7 52.5 -56t42.5 -55q0 -2 -3 -6t-5 -4z" />
<glyph unicode="&#xf3;" horiz-adv-x="414" d="M237 403q-58 0 -96.5 -80t-38.5 -165q0 -60 15 -95.5t42 -35.5q39 0 70 41.5t46 96.5t15 108q0 130 -53 130zM251 435q58 0 87.5 -40t29.5 -107q0 -106 -71.5 -199.5t-156.5 -93.5q-58 0 -87 38t-29 105q0 107 71 202t156 95zM209 502q-2 0 -5 4t-3 6q0 6 42.5 55 t52.5 56q14 10 37 10q13 0 26 -7.5t13 -22.5q0 -13 -75 -57t-88 -44z" />
<glyph unicode="&#xf4;" horiz-adv-x="414" d="M275 629q5 0 9 -8q32 -60 68 -116q-2 -11 -13 -11l-78 64q-66 -39 -105 -64q-4 0 -7 3.5t-2 7.5q71 68 116 116q8 8 12 8zM237 403q-58 0 -96.5 -80t-38.5 -165q0 -60 15 -95.5t42 -35.5q39 0 70 41.5t46 96.5t15 108q0 130 -53 130zM251 435q58 0 87.5 -40t29.5 -107 q0 -106 -71.5 -199.5t-156.5 -93.5q-58 0 -87 38t-29 105q0 107 71 202t156 95z" />
<glyph unicode="&#xf5;" horiz-adv-x="414" d="M213 584q30 0 56 -13q4 -2 17.5 -9.5t24 -10.5t23.5 -3q29 0 65 36q7 -2 6 -9q-3 -21 -21 -37q-35 -32 -78 -32q-25 0 -55 14q-2 1 -13.5 7t-17 8t-16 4.5t-20.5 2.5q-29 0 -65 -36q-6 2 -5 10q3 21 20 36q35 32 79 32zM237 403q-58 0 -96.5 -80t-38.5 -165 q0 -60 15 -95.5t42 -35.5q39 0 70 41.5t46 96.5t15 108q0 130 -53 130zM251 435q58 0 87.5 -40t29.5 -107q0 -106 -71.5 -199.5t-156.5 -93.5q-58 0 -87 38t-29 105q0 107 71 202t156 95z" />
<glyph unicode="&#xf6;" horiz-adv-x="414" d="M237 403q-58 0 -96.5 -80t-38.5 -165q0 -60 15 -95.5t42 -35.5q39 0 70 41.5t46 96.5t15 108q0 130 -53 130zM251 435q58 0 87.5 -40t29.5 -107q0 -106 -71.5 -199.5t-156.5 -93.5q-58 0 -87 38t-29 105q0 107 71 202t156 95zM361 603q17 0 27 -14t6 -33t-19.5 -32 t-32.5 -13t-28 13.5t-7 32.5t20.5 32.5t33.5 13.5zM190 603q17 0 27.5 -14t6.5 -33t-19.5 -32t-32.5 -13t-28 13.5t-7 32.5t20 32.5t33 13.5z" />
<glyph unicode="&#xf7;" horiz-adv-x="507" d="M37 224q-4 0 -4 10q0 21 10 37h421q3 0 3 -8q0 -19 -12 -39h-418zM294 490q15 0 26 -12t11 -28q0 -24 -15.5 -42t-38.5 -18q-16 0 -25 13t-9 31q0 23 14.5 39.5t36.5 16.5zM220 104q15 0 25.5 -12t10.5 -28q0 -24 -15 -42t-38 -18q-16 0 -25 13t-9 31q0 23 14.5 39.5 t36.5 16.5z" />
<glyph unicode="&#xf8;" horiz-adv-x="414" d="M52 0q-24 12 -19 20l308 399q24 -12 19 -19zM237 403q-58 0 -96.5 -80t-38.5 -165q0 -60 15 -95.5t42 -35.5q39 0 70 41.5t46 96.5t15 108q0 130 -53 130zM251 435q58 0 87.5 -40t29.5 -107q0 -106 -71.5 -199.5t-156.5 -93.5q-58 0 -87 38t-29 105q0 107 71 202t156 95z " />
<glyph unicode="&#xf9;" horiz-adv-x="491" d="M292 99q3 15 5.5 28.5t6.5 30t6 28.5q-24 -52 -90 -122t-111 -70q-50 0 -50 72q0 35 14 103l33 154q4 24 4 32q0 25 -10 25q-5 0 -12.5 -4t-14.5 -10t-15 -14t-13.5 -14t-10.5 -11l-4 -5q-2 0 -6 7.5t-4 11.5q13 22 54 58t72 36q16 0 27.5 -15t11.5 -37q0 -16 -7 -53 l-35 -165q-7 -32 -7 -54q0 -43 19 -43t56.5 35.5t74.5 96.5t48 119q3 18 10.5 52.5t11.5 57.5q13 4 31 4q23 0 39 -4l-62 -323q-4 -20 -4 -32q0 -25 10 -25q5 0 12.5 4t14.5 10t15 14t13.5 14t10.5 11l4 5q2 0 6 -7.5t4 -11.5q-12 -21 -56 -57.5t-75 -36.5q-16 0 -25 14.5 t-9 37.5q0 16 7 53zM318 469q-13 0 -88 44t-75 57q0 15 13 22.5t26 7.5q23 0 37 -10q10 -7 52.5 -56t42.5 -55q0 -2 -3 -6t-5 -4z" />
<glyph unicode="&#xfa;" horiz-adv-x="491" d="M292 99q3 15 5.5 28.5t6.5 30t6 28.5q-24 -52 -90 -122t-111 -70q-50 0 -50 72q0 35 14 103l33 154q4 24 4 32q0 25 -10 25q-5 0 -12.5 -4t-14.5 -10t-15 -14t-13.5 -14t-10.5 -11l-4 -5q-2 0 -6 7.5t-4 11.5q13 22 54 58t72 36q16 0 27.5 -15t11.5 -37q0 -16 -7 -53 l-35 -165q-7 -32 -7 -54q0 -43 19 -43t56.5 35.5t74.5 96.5t48 119q3 18 10.5 52.5t11.5 57.5q13 4 31 4q23 0 39 -4l-62 -323q-4 -20 -4 -32q0 -25 10 -25q5 0 12.5 4t14.5 10t15 14t13.5 14t10.5 11l4 5q2 0 6 -7.5t4 -11.5q-12 -21 -56 -57.5t-75 -36.5q-16 0 -25 14.5 t-9 37.5q0 16 7 53zM224 502q-2 0 -5 4t-3 6q0 6 42.5 55t52.5 56q14 10 37 10q13 0 26 -7.5t13 -22.5q0 -13 -75 -57t-88 -44z" />
<glyph unicode="&#xfb;" horiz-adv-x="491" d="M290 629q5 0 9 -8q32 -60 68 -116q-2 -11 -13 -11l-78 64q-66 -39 -105 -64q-4 0 -7 3.5t-2 7.5q71 68 116 116q8 8 12 8zM292 99q3 15 5.5 28.5t6.5 30t6 28.5q-24 -52 -90 -122t-111 -70q-50 0 -50 72q0 35 14 103l33 154q4 24 4 32q0 25 -10 25q-5 0 -12.5 -4 t-14.5 -10t-15 -14t-13.5 -14t-10.5 -11l-4 -5q-2 0 -6 7.5t-4 11.5q13 22 54 58t72 36q16 0 27.5 -15t11.5 -37q0 -16 -7 -53l-35 -165q-7 -32 -7 -54q0 -43 19 -43t56.5 35.5t74.5 96.5t48 119q3 18 10.5 52.5t11.5 57.5q13 4 31 4q23 0 39 -4l-62 -323q-4 -20 -4 -32 q0 -25 10 -25q5 0 12.5 4t14.5 10t15 14t13.5 14t10.5 11l4 5q2 0 6 -7.5t4 -11.5q-12 -21 -56 -57.5t-75 -36.5q-16 0 -25 14.5t-9 37.5q0 16 7 53z" />
<glyph unicode="&#xfc;" horiz-adv-x="491" d="M292 99q3 15 5.5 28.5t6.5 30t6 28.5q-24 -52 -90 -122t-111 -70q-50 0 -50 72q0 35 14 103l33 154q4 24 4 32q0 25 -10 25q-5 0 -12.5 -4t-14.5 -10t-15 -14t-13.5 -14t-10.5 -11l-4 -5q-2 0 -6 7.5t-4 11.5q13 22 54 58t72 36q16 0 27.5 -15t11.5 -37q0 -16 -7 -53 l-35 -165q-7 -32 -7 -54q0 -43 19 -43t56.5 35.5t74.5 96.5t48 119q3 18 10.5 52.5t11.5 57.5q13 4 31 4q23 0 39 -4l-62 -323q-4 -20 -4 -32q0 -25 10 -25q5 0 12.5 4t14.5 10t15 14t13.5 14t10.5 11l4 5q2 0 6 -7.5t4 -11.5q-12 -21 -56 -57.5t-75 -36.5q-16 0 -25 14.5 t-9 37.5q0 16 7 53zM374 603q17 0 27 -14t6 -33t-19.5 -32t-32.5 -13t-28 13.5t-7 32.5t20.5 32.5t33.5 13.5zM203 603q17 0 27.5 -14t6.5 -33t-19.5 -32t-32.5 -13t-28 13.5t-7 32.5t20 32.5t33 13.5z" />
<glyph unicode="&#xfd;" horiz-adv-x="447" d="M132 435q30 0 50 -53.5t27.5 -137t9.5 -134.5t2 -95q40 49 77.5 123.5t37.5 146.5q0 59 -25 107q13 43 50 43q44 0 44 -79q0 -110 -86 -252.5t-194.5 -239.5t-175.5 -97q-26 0 -43 12t-17 29q0 32 23 44q11 -7 37 -13t43 -6q79 0 136 83q7 10 11 23t5.5 32t2 29.5t0 34.5 t-0.5 27q0 49 -2.5 99t-9 102t-19 84.5t-29.5 32.5q-5 0 -12.5 -4t-14.5 -10t-15 -14t-13.5 -14t-10.5 -11l-4 -5q-2 0 -6 7.5t-4 11.5q13 22 54 58t72 36zM237 502q-2 0 -5 4t-3 6q0 6 42.5 55t52.5 56q14 10 37 10q13 0 26 -7.5t13 -22.5q0 -13 -75 -57t-88 -44z" />
<glyph unicode="&#xfe;" d="M221 592q-2 -11 -25 -127t-23 -119q96 89 148 89q87 0 87 -121q0 -76 -37 -150.5t-96 -121.5t-119 -47q-38 0 -46 13l-33 -153q-3 -14 -3 -28q0 -19 14 -23q13 -3 47 -3q3 -1 2 -14t-5 -14q-7 0 -18.5 0.5t-16.5 0.5q-73 0 -148 -9q-4 1 -3.5 14t4.5 15q27 0 40 16 q9 12 16 43l79 397l-48 -48q-6 8 -6 20q0 4 3 7l59 63l51 268q1 6 3.5 18t4 21t1.5 14q0 19 -61 19q-2 3 -0.5 10.5t4.5 10.5q55 5 132 33q6 -4 6 -19q0 -10 -13 -75zM281 380q-24 0 -60.5 -25.5t-57.5 -54.5l-33 -169q-8 -42 7.5 -71.5t39.5 -29.5q61 0 109 89.5t48 183.5 q0 77 -53 77z" />
<glyph unicode="&#xff;" horiz-adv-x="447" d="M132 435q30 0 50 -53.5t27.5 -137t9.5 -134.5t2 -95q40 49 77.5 123.5t37.5 146.5q0 59 -25 107q13 43 50 43q44 0 44 -79q0 -110 -86 -252.5t-194.5 -239.5t-175.5 -97q-26 0 -43 12t-17 29q0 32 23 44q11 -7 37 -13t43 -6q79 0 136 83q7 10 11 23t5.5 32t2 29.5t0 34.5 t-0.5 27q0 49 -2.5 99t-9 102t-19 84.5t-29.5 32.5q-5 0 -12.5 -4t-14.5 -10t-15 -14t-13.5 -14t-10.5 -11l-4 -5q-2 0 -6 7.5t-4 11.5q13 22 54 58t72 36zM355 603q17 0 27 -14t6 -33t-19.5 -32t-32.5 -13t-28 13.5t-7 32.5t20.5 32.5t33.5 13.5zM184 603q17 0 27.5 -14 t6.5 -33t-19.5 -32t-32.5 -13t-28 13.5t-7 32.5t20 32.5t33 13.5z" />
<glyph unicode="&#x100;" horiz-adv-x="586" d="M341 26q57 0 57 31q0 30 -3 49l-22 150h-199q-48 -87 -71 -131q-29 -56 -29 -75q0 -13 23 -18.5t39 -5.5q1 -2 -0.5 -13t-3.5 -16q-13 1 -28.5 2t-29 2t-31.5 1q-19 0 -33.5 -1t-31.5 -2t-33 -2q-1 2 1 13t5 16q11 0 30 5t27 14q25 27 62 94l276 495q6 11 19.5 20t20.5 9 q2 0 5 -3l86 -534q2 -14 5 -32t4.5 -26t1.5 -10q3 -13 18 -21t26 -9.5t19 -1.5q2 -6 0.5 -16t-3.5 -13q-92 5 -109 5q-19 0 -34.5 -1t-34.5 -2t-35 -2q-3 4 -1 14.5t7 14.5zM192 289h175l-38 246zM512 737h-236q-3 3 -3 9t4.5 18t7.5 12h232q5 0 5 -7q0 -21 -10 -32z" />
<glyph unicode="&#x101;" d="M305 435q43 0 78 -13l-61 -316q-14 -57 6 -57q5 0 12.5 4t14.5 10t15 14t13.5 14t10.5 11l4 5q2 0 6 -7.5t4 -11.5q-12 -21 -56 -57.5t-75 -36.5q-16 0 -25 14.5t-9 37.5q0 16 7 53q4 24 5 31q-23 -42 -66 -88.5t-81 -46.5q-40 0 -64.5 32.5t-24.5 85.5q0 63 27.5 123.5 t69.5 103t93 69t96 26.5zM259 395q-58 0 -112 -79t-54 -165q0 -98 51 -98q36 0 80.5 73t59.5 148l21 106q-13 15 -46 15zM375 503h-210q-3 3 -3 9t4.5 18t7.5 12h206q5 0 5 -7q0 -21 -10 -32z" />
<glyph unicode="&#x102;" horiz-adv-x="586" d="M341 26q57 0 57 31q0 30 -3 49l-22 150h-199q-48 -87 -71 -131q-29 -56 -29 -75q0 -13 23 -18.5t39 -5.5q1 -2 -0.5 -13t-3.5 -16q-13 1 -28.5 2t-29 2t-31.5 1q-19 0 -33.5 -1t-31.5 -2t-33 -2q-1 2 1 13t5 16q11 0 30 5t27 14q25 27 62 94l276 495q6 11 19.5 20t20.5 9 q2 0 5 -3l86 -534q2 -14 5 -32t4.5 -26t1.5 -10q3 -13 18 -21t26 -9.5t19 -1.5q2 -6 0.5 -16t-3.5 -13q-92 5 -109 5q-19 0 -34.5 -1t-34.5 -2t-35 -2q-3 4 -1 14.5t7 14.5zM192 289h175l-38 246zM509 838q0 -6 -2 -10q-15 -41 -49 -70.5t-71 -29.5t-60 29t-21 72v5l1 3 q3 5 10 8.5t12 0.5q1 -32 19.5 -52t47.5 -20t55 20t40 52q3 3 9.5 0t8.5 -8z" />
<glyph unicode="&#x103;" d="M305 435q43 0 78 -13l-61 -316q-14 -57 6 -57q5 0 12.5 4t14.5 10t15 14t13.5 14t10.5 11l4 5q2 0 6 -7.5t4 -11.5q-12 -21 -56 -57.5t-75 -36.5q-16 0 -25 14.5t-9 37.5q0 16 7 53q4 24 5 31q-23 -42 -66 -88.5t-81 -46.5q-40 0 -64.5 32.5t-24.5 85.5q0 63 27.5 123.5 t69.5 103t93 69t96 26.5zM259 395q-58 0 -112 -79t-54 -165q0 -98 51 -98q36 0 80.5 73t59.5 148l21 106q-13 15 -46 15zM399 606q0 -6 -2 -10q-15 -41 -49 -70.5t-71 -29.5t-60 29t-21 72v5l1 3q3 5 10 8.5t12 0.5q1 -32 19.5 -52t47.5 -20t55 20t40 52q3 3 9.5 0t8.5 -8z " />
<glyph unicode="&#x104;" horiz-adv-x="586" d="M488 60q3 -15 24 -24.5t32 -9.5q2 -6 0.5 -16t-3.5 -13q-10 1 -15.5 1.5t-7 0.5t-3.5 0.5t-7 0.5h-15q-73 0 -129.5 -52.5t-56.5 -86.5q0 -32 31 -32q21 0 40 9.5t30.5 19t12.5 9.5q5 -1 1 -14t-7 -16q-60 -67 -111 -67q-22 0 -36.5 15.5t-14.5 36.5q0 59 108 167 q4 4 11.5 10.5t11 10t7.5 10t5.5 14.5t1.5 19q0 26 -3 53l-22 150h-199q-48 -87 -71 -131q-29 -56 -29 -75q0 -13 23 -18.5t39 -5.5q1 -2 -0.5 -13t-3.5 -16q-13 1 -28.5 2t-29 2t-31.5 1q-19 0 -33.5 -1t-31.5 -2t-33 -2q-1 2 1 13t5 16q11 0 30 5t27 14q25 27 62 94 l276 495q6 11 19.5 20t20.5 9q2 0 5 -3l86 -534q0 -2 4.5 -28t6.5 -38zM192 289h175l-38 246z" />
<glyph unicode="&#x105;" d="M259 395q-58 0 -112 -79t-54 -165q0 -98 51 -98q36 0 80.5 73t59.5 148l21 106q-13 15 -46 15zM408 88q-11 -21 -63 -63q-133 -108 -133 -164q0 -32 31 -32q21 0 40 9.5t30.5 19t12.5 9.5q5 -1 1 -14t-7 -16q-60 -67 -111 -67q-22 0 -36.5 14.5t-14.5 35.5q0 35 33 84.5 t75 91.5q-23 9 -23 50q0 16 7 53q4 24 5 31q-23 -42 -66 -88.5t-81 -46.5q-40 0 -64.5 32.5t-24.5 85.5q0 63 27.5 123.5t69.5 103t93 69t96 26.5q43 0 78 -13l-61 -316q-4 -16 -4 -32q0 -25 10 -25q5 0 12.5 4t14.5 10t15 14t13.5 14t10.5 11l4 5q2 0 6 -7.5t4 -11.5z" />
<glyph unicode="&#x106;" horiz-adv-x="645" d="M413 711q-1 0 -3.5 4t-2.5 6q0 5 43.5 43t62.5 50q7 5 27 5q21 0 34.5 -6.5t13.5 -15.5q0 -16 -79.5 -51t-95.5 -35zM569 173q6 0 13 -2t11 -4l4 -2q-3 -16 -32 -72t-40 -65q-69 -36 -195 -36q-119 0 -195 79.5t-76 193.5q0 121 58.5 215t150.5 141t197 45q59 -1 161 -26 q-6 -109 -10 -146q0 -5 -8 -5q-13 0 -23 5q4 59 -40.5 100t-108.5 41q-120 0 -201.5 -97t-80.5 -256q0 -37 6.5 -73t22 -70.5t38.5 -60t58.5 -41.5t78.5 -16q131 0 211 152z" />
<glyph unicode="&#x107;" horiz-adv-x="359" d="M275 435q32 0 62 -25q9 -12 9 -27q0 -19 -9 -32t-25 -13q-24 0 -36 20q-22 36 -52 36q-44 0 -83 -68t-39 -164q0 -109 69 -109q8 0 17 3t17.5 7.5t17 10.5t15.5 12t14 12.5t11 11t7 8.5l4 4q2 0 7 -8t5 -12q-15 -25 -62.5 -66.5t-88.5 -41.5q-53 0 -82 38t-29 108 q0 114 84 204.5t167 90.5zM236 502q-2 0 -5 4t-3 6q0 6 42.5 55t52.5 56q14 10 37 10q13 0 26 -7.5t13 -22.5q0 -13 -75 -57t-88 -44z" />
<glyph unicode="&#x108;" horiz-adv-x="645" d="M486 836q6 0 10 -7q34 -55 78 -108q-2 -10 -15 -10l-89 59q-72 -35 -120 -59q-12 0 -10 10q70 53 132 108q9 7 14 7zM569 173q6 0 13 -2t11 -4l4 -2q-3 -16 -32 -72t-40 -65q-69 -36 -195 -36q-119 0 -195 79.5t-76 193.5q0 121 58.5 215t150.5 141t197 45q59 -1 161 -26 q-6 -109 -10 -146q0 -5 -8 -5q-13 0 -23 5q4 59 -40.5 100t-108.5 41q-120 0 -201.5 -97t-80.5 -256q0 -37 6.5 -73t22 -70.5t38.5 -60t58.5 -41.5t78.5 -16q131 0 211 152z" />
<glyph unicode="&#x109;" horiz-adv-x="359" d="M278 629q5 0 9 -8q32 -60 68 -116q-2 -11 -13 -11l-78 64q-66 -39 -105 -64q-4 0 -7 3.5t-2 7.5q71 68 116 116q8 8 12 8zM275 435q32 0 62 -25q9 -12 9 -27q0 -19 -9 -32t-25 -13q-24 0 -36 20q-22 36 -52 36q-44 0 -83 -68t-39 -164q0 -109 69 -109q8 0 17 3t17.5 7.5 t17 10.5t15.5 12t14 12.5t11 11t7 8.5l4 4q2 0 7 -8t5 -12q-15 -25 -62.5 -66.5t-88.5 -41.5q-53 0 -82 38t-29 108q0 114 84 204.5t167 90.5z" />
<glyph unicode="&#x10a;" horiz-adv-x="645" d="M423 778q4 21 20.5 35.5t36.5 14.5q19 0 29.5 -14.5t6.5 -35.5t-20 -35.5t-36 -14.5q-19 0 -30 14.5t-7 35.5zM569 173q6 0 13 -2t11 -4l4 -2q-3 -16 -32 -72t-40 -65q-69 -36 -195 -36q-119 0 -195 79.5t-76 193.5q0 121 58.5 215t150.5 141t197 45q59 -1 161 -26 q-6 -109 -10 -146q0 -5 -8 -5q-13 0 -23 5q4 59 -40.5 100t-108.5 41q-120 0 -201.5 -97t-80.5 -256q0 -37 6.5 -73t22 -70.5t38.5 -60t58.5 -41.5t78.5 -16q131 0 211 152z" />
<glyph unicode="&#x10b;" horiz-adv-x="359" d="M275 435q32 0 62 -25q9 -12 9 -27q0 -19 -9 -32t-25 -13q-24 0 -36 20q-22 36 -52 36q-44 0 -83 -68t-39 -164q0 -109 69 -109q8 0 17 3t17.5 7.5t17 10.5t15.5 12t14 12.5t11 11t7 8.5l4 4q2 0 7 -8t5 -12q-15 -25 -62.5 -66.5t-88.5 -41.5q-53 0 -82 38t-29 108 q0 114 84 204.5t167 90.5zM227 596q4 21 20.5 35.5t36.5 14.5q19 0 29.5 -14.5t6.5 -35.5t-20 -35.5t-36 -14.5q-19 0 -30 14.5t-7 35.5z" />
<glyph unicode="&#x10c;" horiz-adv-x="645" d="M461 711q-7 0 -10 7q-19 33 -78 108q2 10 15 10l89 -59q75 36 120 59q12 0 10 -10q-94 -73 -132 -108q-9 -7 -14 -7zM569 173q6 0 13 -2t11 -4l4 -2q-3 -16 -32 -72t-40 -65q-69 -36 -195 -36q-119 0 -195 79.5t-76 193.5q0 121 58.5 215t150.5 141t197 45q59 -1 161 -26 q-6 -109 -10 -146q0 -5 -8 -5q-13 0 -23 5q4 59 -40.5 100t-108.5 41q-120 0 -201.5 -97t-80.5 -256q0 -37 6.5 -73t22 -70.5t38.5 -60t58.5 -41.5t78.5 -16q131 0 211 152z" />
<glyph unicode="&#x10d;" horiz-adv-x="359" d="M257 496q-5 0 -9 8q-32 60 -68 116q2 11 13 11l78 -64q66 39 105 64q4 0 7 -3.5t2 -7.5q-71 -68 -116 -116q-8 -8 -12 -8zM275 435q32 0 62 -25q9 -12 9 -27q0 -19 -9 -32t-25 -13q-24 0 -36 20q-22 36 -52 36q-44 0 -83 -68t-39 -164q0 -109 69 -109q8 0 17 3t17.5 7.5 t17 10.5t15.5 12t14 12.5t11 11t7 8.5l4 4q2 0 7 -8t5 -12q-15 -25 -62.5 -66.5t-88.5 -41.5q-53 0 -82 38t-29 108q0 114 84 204.5t167 90.5z" />
<glyph unicode="&#x10e;" horiz-adv-x="684" d="M252 546l-85 -434q-13 -62 -8 -72q6 -14 73 -14q114 0 202 73.5t115 213.5q31 161 -28.5 239.5t-182.5 78.5q-62 0 -67 -11q-6 -13 -19 -74zM368 658q158 0 231.5 -91t45.5 -233q-13 -68 -41.5 -125t-77 -106t-124.5 -77.5t-174 -28.5h-233q-3 4 -0.5 14.5t6.5 14.5 q14 0 39 4.5t28 11.5q7 14 19 74l83 427q12 59 10 74q-1 7 -24 11.5t-37 4.5q-2 4 -0.5 14.5t5.5 14.5q95 -5 109 -5q17 0 65.5 0.5t69.5 0.5zM368 711q-6 0 -10 7q-19 33 -78 108q2 10 15 10l89 -59q75 36 120 59q12 0 10 -10q-94 -73 -132 -108q-9 -7 -14 -7z" />
<glyph unicode="&#x10f;" horiz-adv-x="466" d="M296 341q3 19 -6.5 36.5t-28.5 17.5q-60 0 -114 -79t-54 -166q0 -97 51 -97q37 0 81 73.5t59 149.5zM339 559q1 6 3.5 18t4 21t1.5 14q0 19 -61 19q-2 3 -0.5 10.5t4.5 10.5q55 5 132 33q6 -4 6 -19q0 -10 -13 -75l-94 -485q-4 -16 -4 -33q0 -24 10 -24q5 0 12.5 4 t14.5 10t15 14t13.5 14t10.5 11l4 5q2 0 6 -7.5t4 -11.5q-12 -21 -56 -57.5t-75 -36.5q-16 0 -25 14.5t-9 37.5q0 16 7 53q2 8 5 31q-18 -37 -63.5 -86t-84.5 -49q-43 0 -65.5 36t-22.5 85q0 116 92.5 217.5t191.5 101.5h5h8zM461 636q0 28 21.5 44t52.5 16q5 -9 5 -28 q0 -14 -3 -34q-6 -31 -39 -71.5t-55 -52.5q-1 -1 -7 -1q-4 0 -7 4t-3 8l12 9q11 9 22.5 26.5t11.5 38.5q0 5 -5.5 18t-5.5 23z" />
<glyph unicode="&#x110;" horiz-adv-x="684" d="M79 349h330q7 0 5 -8q-4 -19 -10 -28h-331q-6 0 -3 11q4 20 9 25zM252 546l-85 -434q-13 -62 -8 -72q6 -14 73 -14q114 0 202 73.5t115 213.5q31 161 -28.5 239.5t-182.5 78.5q-62 0 -67 -11q-6 -13 -19 -74zM368 658q158 0 231.5 -91t45.5 -233q-13 -68 -41.5 -125 t-77 -106t-124.5 -77.5t-174 -28.5h-233q-3 4 -0.5 14.5t6.5 14.5q14 0 39 4.5t28 11.5q7 14 19 74l83 427q12 59 10 74q-1 7 -24 11.5t-37 4.5q-2 4 -0.5 14.5t5.5 14.5q95 -5 109 -5q17 0 65.5 0.5t69.5 0.5z" />
<glyph unicode="&#x111;" horiz-adv-x="446" d="M256 565h229q5 0 3 -8q-2 -12 -11 -26h-230q-2 0 -2.5 4t0.5 7q3 14 11 23zM296 341q3 19 -6.5 36.5t-28.5 17.5q-60 0 -114 -79t-54 -166q0 -97 51 -97q37 0 81 73.5t59 149.5zM339 559q1 6 3.5 18t4 21t1.5 14q0 19 -61 19q-2 3 -0.5 10.5t4.5 10.5q55 5 132 33 q6 -4 6 -19q0 -10 -13 -75l-94 -485q-4 -16 -4 -33q0 -24 10 -24q5 0 12.5 4t14.5 10t15 14t13.5 14t10.5 11l4 5q2 0 6 -7.5t4 -11.5q-12 -21 -56 -57.5t-75 -36.5q-16 0 -25 14.5t-9 37.5q0 16 7 53q2 8 5 31q-18 -37 -63.5 -86t-84.5 -49q-43 0 -65.5 36t-22.5 85 q0 116 92.5 217.5t191.5 101.5h5h8z" />
<glyph unicode="&#x112;" horiz-adv-x="554" d="M233 657q42 0 145 3.5t155 3.5q-2 -12 -0.5 -69.5t1.5 -66.5q-5 -5 -18 -5q-11 0 -11 7q-4 56 -26 78t-62 22h-80q-61 0 -66 -11q-11 -21 -20 -72l-37 -192q0 -2 3 -3t9 -2t12.5 -1h14.5h49q66 0 83 13q11 9 32 56q0 2 1 3q3 7 16 7q11 0 14 -5l-36 -189q-4 -4 -16 -4 q-11 0 -13 8q-3 62 -13 70t-97 8q-67 0 -69 -9l-39 -198q-13 -63 -7 -69q10 -10 64 -10h44q77 0 124 31q44 30 78 101q3 6 15 6q18 0 22 -6q-6 -12 -28 -52.5t-35 -67t-20 -46.5q-48 0 -149.5 2t-166.5 2q-23 0 -58.5 -1.5t-52.5 -1.5q-3 4 -1 14.5t6 14.5q14 0 39.5 4.5 t28.5 11.5q7 14 19 74l83 427q11 56 9 74q-1 7 -24 11.5t-37 4.5q-2 4 0 14.5t6 14.5q95 -5 109 -5zM475 737h-236q-3 3 -3 9t4.5 18t7.5 12h232q5 0 5 -7q0 -21 -10 -32z" />
<glyph unicode="&#x113;" horiz-adv-x="363" d="M274 435q35 0 50.5 -18t15.5 -44q0 -44 -47 -88t-102 -68t-88 -24q-2 -6 -2 -32q0 -108 69 -108q8 0 17 3t17.5 7.5t17 10.5t15.5 12t14 12.5t11 11t8 8.5l3 4q2 0 7 -8t5 -12q-16 -27 -63.5 -67.5t-88.5 -40.5q-53 0 -81.5 37.5t-28.5 107.5q0 109 81.5 202.5 t169.5 93.5zM105 218q38 0 99.5 43t61.5 93q0 19 -13 29.5t-29 10.5q-46 0 -80 -62.5t-39 -113.5zM339 503h-210q-3 3 -3 9t4.5 18t7.5 12h206q5 0 5 -7q0 -21 -10 -32z" />
<glyph unicode="&#x114;" horiz-adv-x="554" d="M233 657q42 0 145 3.5t155 3.5q-2 -12 -0.5 -69.5t1.5 -66.5q-5 -5 -18 -5q-11 0 -11 7q-4 56 -26 78t-62 22h-80q-61 0 -66 -11q-11 -21 -20 -72l-37 -192q0 -2 3 -3t9 -2t12.5 -1h14.5h49q66 0 83 13q11 9 32 56q0 2 1 3q3 7 16 7q11 0 14 -5l-36 -189q-4 -4 -16 -4 q-11 0 -13 8q-3 62 -13 70t-97 8q-67 0 -69 -9l-39 -198q-13 -63 -7 -69q10 -10 64 -10h44q77 0 124 31q44 30 78 101q3 6 15 6q18 0 22 -6q-6 -12 -28 -52.5t-35 -67t-20 -46.5q-48 0 -149.5 2t-166.5 2q-23 0 -58.5 -1.5t-52.5 -1.5q-3 4 -1 14.5t6 14.5q14 0 39.5 4.5 t28.5 11.5q7 14 19 74l83 427q11 56 9 74q-1 7 -24 11.5t-37 4.5q-2 4 0 14.5t6 14.5q95 -5 109 -5zM351 776q30 0 55 15.5t37 42.5q0 2 5 2t10 -4t4 -7l-1 -3q-1 -3 -1 -4q-13 -36 -47.5 -63t-70.5 -27q-37 0 -60.5 26.5t-22.5 64.5v6q1 3 8 7t11 4t4 -2q1 -27 20 -42.5 t49 -15.5z" />
<glyph unicode="&#x115;" horiz-adv-x="363" d="M274 435q35 0 50.5 -18t15.5 -44q0 -44 -47 -88t-102 -68t-88 -24q-2 -6 -2 -32q0 -108 69 -108q8 0 17 3t17.5 7.5t17 10.5t15.5 12t14 12.5t11 11t8 8.5l3 4q2 0 7 -8t5 -12q-16 -27 -63.5 -67.5t-88.5 -40.5q-53 0 -81.5 37.5t-28.5 107.5q0 109 81.5 202.5 t169.5 93.5zM105 218q38 0 99.5 43t61.5 93q0 19 -13 29.5t-29 10.5q-46 0 -80 -62.5t-39 -113.5zM369 606q0 -6 -2 -10q-15 -41 -49 -70.5t-71 -29.5t-60 29t-21 72v5l1 3q3 5 10 8.5t12 0.5q1 -32 19.5 -52t47.5 -20t55 20t40 52q3 3 9.5 0t8.5 -8z" />
<glyph unicode="&#x116;" horiz-adv-x="554" d="M233 657q42 0 145 3.5t155 3.5q-2 -12 -0.5 -69.5t1.5 -66.5q-5 -5 -18 -5q-11 0 -11 7q-4 56 -26 78t-62 22h-80q-61 0 -66 -11q-11 -21 -20 -72l-37 -192q0 -2 3 -3t9 -2t12.5 -1h14.5h49q66 0 83 13q11 9 32 56q0 2 1 3q3 7 16 7q11 0 14 -5l-36 -189q-4 -4 -16 -4 q-11 0 -13 8q-3 62 -13 70t-97 8q-67 0 -69 -9l-39 -198q-13 -63 -7 -69q10 -10 64 -10h44q77 0 124 31q44 30 78 101q3 6 15 6q18 0 22 -6q-6 -12 -28 -52.5t-35 -67t-20 -46.5q-48 0 -149.5 2t-166.5 2q-23 0 -58.5 -1.5t-52.5 -1.5q-3 4 -1 14.5t6 14.5q14 0 39.5 4.5 t28.5 11.5q7 14 19 74l83 427q11 56 9 74q-1 7 -24 11.5t-37 4.5q-2 4 0 14.5t6 14.5q95 -5 109 -5zM325 778q4 21 20.5 35.5t36.5 14.5q19 0 29.5 -14.5t6.5 -35.5t-20 -35.5t-36 -14.5q-19 0 -30 14.5t-7 35.5z" />
<glyph unicode="&#x117;" horiz-adv-x="363" d="M274 435q35 0 50.5 -18t15.5 -44q0 -44 -47 -88t-102 -68t-88 -24q-2 -6 -2 -32q0 -108 69 -108q8 0 17 3t17.5 7.5t17 10.5t15.5 12t14 12.5t11 11t8 8.5l3 4q2 0 7 -8t5 -12q-16 -27 -63.5 -67.5t-88.5 -40.5q-53 0 -81.5 37.5t-28.5 107.5q0 109 81.5 202.5 t169.5 93.5zM105 218q38 0 99.5 43t61.5 93q0 19 -13 29.5t-29 10.5q-46 0 -80 -62.5t-39 -113.5zM234 596q4 21 20.5 35.5t36.5 14.5q19 0 29.5 -14.5t6.5 -35.5t-20 -35.5t-36 -14.5q-19 0 -30 14.5t-7 35.5z" />
<glyph unicode="&#x118;" horiz-adv-x="554" d="M422 -4q-66 0 -119 -46.5t-53 -88.5q0 -32 31 -32q21 0 40 9.5t30.5 19t12.5 9.5q5 -1 1 -14t-7 -16q-60 -67 -111 -67q-22 0 -36.5 14.5t-14.5 35.5q0 40 39.5 98.5t81.5 78.5q-186 3 -211 3q-23 0 -58.5 -1.5t-52.5 -1.5q-3 4 -1 14.5t6 14.5q14 0 39.5 4.5t28.5 11.5 q7 14 19 74l83 427q11 56 9 74q-1 7 -24 11.5t-37 4.5q-2 4 0 14.5t6 14.5q95 -5 109 -5q42 0 145 3.5t155 3.5q-2 -12 -0.5 -69.5t1.5 -66.5q-5 -5 -18 -5q-11 0 -11 7q-4 56 -26 78t-62 22h-80q-61 0 -66 -11q-11 -21 -20 -72l-37 -192q0 -2 3 -3t9 -2t12.5 -1h14.5h49 q66 0 83 13q11 9 32 56q0 2 1 3q3 7 16 7q11 0 14 -5l-36 -189q-4 -4 -16 -4q-11 0 -13 8q-3 62 -13 70t-97 8q-67 0 -69 -9l-39 -198q-13 -63 -7 -69q10 -10 64 -10h44q77 0 124 31q44 30 78 101q3 6 15 6q18 0 22 -6q-6 -12 -28 -52.5t-35 -67t-20 -46.5z" />
<glyph unicode="&#x119;" horiz-adv-x="363" d="M105 218q38 0 99.5 43t61.5 93q0 19 -13 29.5t-29 10.5q-46 0 -80 -62.5t-39 -113.5zM20 -180q-1 32 43.5 88t77.5 86h-8q-53 0 -81.5 37.5t-28.5 107.5q0 109 81.5 202.5t169.5 93.5q35 0 50.5 -18t15.5 -44q0 -44 -47 -88t-102 -68t-88 -24q-2 -6 -2 -32 q0 -108 69 -108q8 0 17 3t17.5 7.5t17 10.5t15.5 12t14 12.5t11 11t8 8.5l3 4q2 0 7 -8t5 -12q-9 -16 -41 -48q-11 -11 -38 -36.5t-46.5 -44.5t-41.5 -42t-33.5 -41t-11.5 -29q0 -32 31 -32q21 0 40 9.5t30.5 19t12.5 9.5q5 -1 1 -14t-7 -16q-60 -67 -111 -67 q-22 0 -36 14.5t-14 35.5z" />
<glyph unicode="&#x11a;" horiz-adv-x="554" d="M363 711q-7 0 -10 7q-19 33 -78 108q2 10 15 10l89 -59q75 36 120 59q12 0 10 -10q-94 -73 -132 -108q-9 -7 -14 -7zM233 657q42 0 145 3.5t155 3.5q-2 -12 -0.5 -69.5t1.5 -66.5q-5 -5 -18 -5q-11 0 -11 7q-4 56 -26 78t-62 22h-80q-61 0 -66 -11q-11 -21 -20 -72 l-37 -192q0 -2 3 -3t9 -2t12.5 -1h14.5h49q66 0 83 13q11 9 32 56q0 2 1 3q3 7 16 7q11 0 14 -5l-36 -189q-4 -4 -16 -4q-11 0 -13 8q-3 62 -13 70t-97 8q-67 0 -69 -9l-39 -198q-13 -63 -7 -69q10 -10 64 -10h44q77 0 124 31q44 30 78 101q3 6 15 6q18 0 22 -6 q-6 -12 -28 -52.5t-35 -67t-20 -46.5q-48 0 -149.5 2t-166.5 2q-23 0 -58.5 -1.5t-52.5 -1.5q-3 4 -1 14.5t6 14.5q14 0 39.5 4.5t28.5 11.5q7 14 19 74l83 427q11 56 9 74q-1 7 -24 11.5t-37 4.5q-2 4 0 14.5t6 14.5q95 -5 109 -5z" />
<glyph unicode="&#x11b;" horiz-adv-x="363" d="M251 496q-5 0 -9 8q-32 60 -68 116q2 11 13 11l78 -64q66 39 105 64q4 0 7 -3.5t2 -7.5q-71 -68 -116 -116q-8 -8 -12 -8zM274 435q35 0 50.5 -18t15.5 -44q0 -44 -47 -88t-102 -68t-88 -24q-2 -6 -2 -32q0 -108 69 -108q8 0 17 3t17.5 7.5t17 10.5t15.5 12t14 12.5 t11 11t8 8.5l3 4q2 0 7 -8t5 -12q-16 -27 -63.5 -67.5t-88.5 -40.5q-53 0 -81.5 37.5t-28.5 107.5q0 109 81.5 202.5t169.5 93.5zM105 218q38 0 99.5 43t61.5 93q0 19 -13 29.5t-29 10.5q-46 0 -80 -62.5t-39 -113.5z" />
<glyph unicode="&#x11c;" horiz-adv-x="697" d="M502 836q6 0 10 -7q34 -55 78 -108q-2 -10 -15 -10l-89 59q-72 -35 -120 -59q-12 0 -10 10q70 53 132 108q9 7 14 7zM585 494q4 59 -40.5 100t-108.5 41q-120 0 -201.5 -97t-80.5 -256q0 -64 19 -121t66.5 -98.5t115.5 -41.5q61 0 112 34q8 6 10 17l20 103q12 59 10 74 q-1 7 -26 11.5t-40 4.5q-2 4 -0.5 14.5t5.5 14.5q95 -5 108 -5q12 0 110 5q3 -4 1.5 -14.5t-5.5 -14.5q-14 0 -37.5 -4.5t-26.5 -11.5q-7 -14 -19 -74l-14 -71q-3 -9 -0.5 -22t2.5 -14q0 -11 -22 -22q-36 -19 -52.5 -26.5t-63 -17.5t-103.5 -10q-114 0 -189.5 80t-75.5 193 q0 121 58.5 215t150.5 141t197 45q59 -1 161 -26q-1 -21 -5.5 -82.5t-4.5 -63.5q0 -5 -8 -5q-13 0 -23 5z" />
<glyph unicode="&#x11d;" horiz-adv-x="412" d="M261 630q5 0 9 -8q32 -60 68 -116q-2 -11 -13 -11l-78 64q-66 -39 -105 -64q-4 0 -7 3.5t-2 7.5q71 68 116 116q8 8 12 8zM278 -118q0 22 -14 41t-41 32.5t-47 21.5t-49 17q-101 -43 -101 -104q0 -88 143 -88q49 0 79 23.5t30 56.5zM212 407q-45 0 -71.5 -51t-26.5 -109 q0 -40 16 -68t46 -28q45 0 71 45t26 98q0 41 -17 77t-44 36zM333 381q0 -1 4 -13.5t7 -28t3 -27.5q0 -37 -10.5 -68.5t-28 -51.5t-29 -30t-23.5 -17t-43.5 -19.5t-51.5 -23t-20 -20.5t31.5 -22.5t69 -25.5t69 -42.5t31.5 -69.5q0 -71 -63.5 -113t-170.5 -42q-69 0 -112.5 26 t-43.5 72q0 75 144 141l-18 12q-25 17 -25 36q0 17 35.5 39t64.5 29q-32 0 -72.5 32t-40.5 85q0 82 58.5 139.5t130.5 57.5q39 0 85 -22q6 -3 18.5 0t26.5 8.5t18 6.5q12 -4 26.5 -15t14.5 -20q0 -14 -12 -14q-2 0 -33.5 1t-39.5 0z" />
<glyph unicode="&#x11e;" horiz-adv-x="697" d="M465 776q30 0 55 15.5t37 42.5q0 2 5 2t10 -4t4 -7l-1 -3q-1 -3 -1 -4q-13 -36 -47.5 -63t-70.5 -27q-37 0 -60.5 26.5t-22.5 64.5v6q1 3 8 7t11 4t4 -2q1 -27 20 -42.5t49 -15.5zM585 494q4 59 -40.5 100t-108.5 41q-120 0 -201.5 -97t-80.5 -256q0 -64 19 -121 t66.5 -98.5t115.5 -41.5q61 0 112 34q8 6 10 17l20 103q12 59 10 74q-1 7 -26 11.5t-40 4.5q-2 4 -0.5 14.5t5.5 14.5q95 -5 108 -5q12 0 110 5q3 -4 1.5 -14.5t-5.5 -14.5q-14 0 -37.5 -4.5t-26.5 -11.5q-7 -14 -19 -74l-14 -71q-3 -9 -0.5 -22t2.5 -14q0 -11 -22 -22 q-36 -19 -52.5 -26.5t-63 -17.5t-103.5 -10q-114 0 -189.5 80t-75.5 193q0 121 58.5 215t150.5 141t197 45q59 -1 161 -26q-1 -21 -5.5 -82.5t-4.5 -63.5q0 -5 -8 -5q-13 0 -23 5z" />
<glyph unicode="&#x11f;" horiz-adv-x="412" d="M278 -118q0 22 -14 41t-41 32.5t-47 21.5t-49 17q-101 -43 -101 -104q0 -88 143 -88q49 0 79 23.5t30 56.5zM212 407q-45 0 -71.5 -51t-26.5 -109q0 -40 16 -68t46 -28q45 0 71 45t26 98q0 41 -17 77t-44 36zM333 381q0 -1 4 -13.5t7 -28t3 -27.5q0 -37 -10.5 -68.5 t-28 -51.5t-29 -30t-23.5 -17t-43.5 -19.5t-51.5 -23t-20 -20.5t31.5 -22.5t69 -25.5t69 -42.5t31.5 -69.5q0 -71 -63.5 -113t-170.5 -42q-69 0 -112.5 26t-43.5 72q0 75 144 141l-18 12q-25 17 -25 36q0 17 35.5 39t64.5 29q-32 0 -72.5 32t-40.5 85q0 82 58.5 139.5 t130.5 57.5q39 0 85 -22q6 -3 18.5 0t26.5 8.5t18 6.5q12 -4 26.5 -15t14.5 -20q0 -14 -12 -14q-2 0 -33.5 1t-39.5 0zM351 607q0 -6 -2 -10q-15 -41 -49 -70.5t-71 -29.5t-60 29t-21 72v4l1 4q3 5 10 8.5t12 0.5q1 -32 19.5 -52t47.5 -20t55 20t40 52q3 3 9.5 0t8.5 -8z " />
<glyph unicode="&#x120;" horiz-adv-x="697" d="M423 778q4 21 20.5 35.5t36.5 14.5q19 0 29.5 -14.5t6.5 -35.5t-20 -35.5t-36 -14.5q-19 0 -30 14.5t-7 35.5zM585 494q4 59 -40.5 100t-108.5 41q-120 0 -201.5 -97t-80.5 -256q0 -64 19 -121t66.5 -98.5t115.5 -41.5q61 0 112 34q8 6 10 17l20 103q12 59 10 74 q-1 7 -26 11.5t-40 4.5q-2 4 -0.5 14.5t5.5 14.5q95 -5 108 -5q12 0 110 5q3 -4 1.5 -14.5t-5.5 -14.5q-14 0 -37.5 -4.5t-26.5 -11.5q-7 -14 -19 -74l-14 -71q-3 -9 -0.5 -22t2.5 -14q0 -11 -22 -22q-36 -19 -52.5 -26.5t-63 -17.5t-103.5 -10q-114 0 -189.5 80t-75.5 193 q0 121 58.5 215t150.5 141t197 45q59 -1 161 -26q-1 -21 -5.5 -82.5t-4.5 -63.5q0 -5 -8 -5q-13 0 -23 5z" />
<glyph unicode="&#x121;" horiz-adv-x="412" d="M278 -118q0 22 -14 41t-41 32.5t-47 21.5t-49 17q-101 -43 -101 -104q0 -88 143 -88q49 0 79 23.5t30 56.5zM212 407q-45 0 -71.5 -51t-26.5 -109q0 -40 16 -68t46 -28q45 0 71 45t26 98q0 41 -17 77t-44 36zM333 381q0 -1 4 -13.5t7 -28t3 -27.5q0 -37 -10.5 -68.5 t-28 -51.5t-29 -30t-23.5 -17t-43.5 -19.5t-51.5 -23t-20 -20.5t31.5 -22.5t69 -25.5t69 -42.5t31.5 -69.5q0 -71 -63.5 -113t-170.5 -42q-69 0 -112.5 26t-43.5 72q0 75 144 141l-18 12q-25 17 -25 36q0 17 35.5 39t64.5 29q-32 0 -72.5 32t-40.5 85q0 82 58.5 139.5 t130.5 57.5q39 0 85 -22q6 -3 18.5 0t26.5 8.5t18 6.5q12 -4 26.5 -15t14.5 -20q0 -14 -12 -14q-2 0 -33.5 1t-39.5 0zM205 596q4 21 20.5 35.5t36.5 14.5q19 0 29.5 -14.5t6.5 -35.5t-20 -35.5t-36 -14.5q-19 0 -30 14.5t-7 35.5z" />
<glyph unicode="&#x122;" horiz-adv-x="697" d="M273 -108q0 23 27.5 39t58.5 16q13 -10 13 -41q0 -37 -32 -79t-62 -58q-2 -2 -8 -2q-18 0 -18 7q0 2 11 8.5t23.5 20.5t16.5 32q3 16 -13.5 30.5t-16.5 26.5zM585 494q4 59 -40.5 100t-108.5 41q-120 0 -201.5 -97t-80.5 -256q0 -64 19 -121t66.5 -98.5t115.5 -41.5 q61 0 112 34q8 6 10 17l20 103q12 59 10 74q-1 7 -26 11.5t-40 4.5q-2 4 -0.5 14.5t5.5 14.5q95 -5 108 -5q12 0 110 5q3 -4 1.5 -14.5t-5.5 -14.5q-14 0 -37.5 -4.5t-26.5 -11.5q-7 -14 -19 -74l-14 -71q-3 -9 -0.5 -22t2.5 -14q0 -11 -22 -22q-36 -19 -52.5 -26.5 t-63 -17.5t-103.5 -10q-114 0 -189.5 80t-75.5 193q0 121 58.5 215t150.5 141t197 45q59 -1 161 -26q-1 -21 -5.5 -82.5t-4.5 -63.5q0 -5 -8 -5q-13 0 -23 5z" />
<glyph unicode="&#x123;" horiz-adv-x="412" d="M278 -118q0 22 -14 41t-41 32.5t-47 21.5t-49 17q-101 -43 -101 -104q0 -88 143 -88q49 0 79 23.5t30 56.5zM212 407q-45 0 -71.5 -51t-26.5 -109q0 -40 16 -68t46 -28q45 0 71 45t26 98q0 41 -17 77t-44 36zM333 381q0 -1 4 -13.5t7 -28t3 -27.5q0 -37 -10.5 -68.5 t-28 -51.5t-29 -30t-23.5 -17t-43.5 -19.5t-51.5 -23t-20 -20.5t31.5 -22.5t69 -25.5t69 -42.5t31.5 -69.5q0 -71 -63.5 -113t-170.5 -42q-69 0 -112.5 26t-43.5 72q0 75 144 141l-18 12q-25 17 -25 36q0 17 35.5 39t64.5 29q-32 0 -72.5 32t-40.5 85q0 82 58.5 139.5 t130.5 57.5q39 0 85 -22q6 -3 18.5 0t26.5 8.5t18 6.5q12 -4 26.5 -15t14.5 -20q0 -14 -12 -14q-2 0 -33.5 1t-39.5 0zM300 545q0 -23 -27.5 -39t-58.5 -16q-13 10 -13 41q0 37 32 79t62 58q2 2 8 2q18 0 18 -7q0 -2 -11 -8.5t-23.5 -20.5t-16.5 -32q-3 -16 13.5 -30.5 t16.5 -26.5z" />
<glyph unicode="&#x124;" horiz-adv-x="686" d="M168 116q-12 -59 -10 -74q1 -7 24 -11.5t37 -4.5q2 -4 0 -14.5t-6 -14.5q-95 5 -107 5q-14 0 -111 -5q-3 4 -1 14.5t6 14.5q14 0 39.5 4.5t28.5 11.5q7 14 19 74l83 427q11 56 9 74q-1 7 -24 11.5t-37 4.5q-2 4 0 14.5t6 14.5q95 -5 109 -5q12 0 110 5q3 -4 0.5 -14.5 t-6.5 -14.5q-14 0 -39 -4.5t-28 -11.5q-10 -20 -19 -74l-37 -187h292l37 187q10 63 9 74q-1 7 -24 11.5t-37 4.5q-2 4 0 14.5t6 14.5q95 -5 109 -5q12 0 110 5q3 -4 0.5 -14.5t-6.5 -14.5q-14 0 -39 -4.5t-28 -11.5q-7 -14 -19 -74l-83 -427q-12 -59 -10 -74q1 -7 24 -11.5 t37 -4.5q2 -4 0 -14.5t-6 -14.5q-95 5 -108 5q-12 0 -110 -5q-3 4 -1 14.5t6 14.5q14 0 39.5 4.5t28.5 11.5q7 14 19 74l39 200h-292zM479 836q7 0 10 -7q34 -55 78 -108q-2 -10 -15 -10l-89 59q-72 -35 -120 -59q-12 0 -10 10q70 53 132 108q9 7 14 7z" />
<glyph unicode="&#x125;" horiz-adv-x="470" d="M207 591l-51 -261l-18 -92q21 40 89 118.5t110 78.5q55 0 55 -66q0 -43 -14 -109l-33 -154q-4 -16 -4 -32q0 -25 10 -25q5 0 12.5 4t14.5 10t15 14t13.5 14t9.5 11l5 5q2 0 6 -7.5t4 -11.5q-12 -21 -56 -57.5t-75 -36.5q-16 0 -25 14.5t-9 37.5q0 24 7 53l35 165 q7 32 7 54q0 43 -19 43t-56.5 -35t-74.5 -94t-48 -113q-7 -36 -25 -119q-13 -4 -36 -4q-18 0 -34 4l108 559q1 6 3.5 18t4 21t1.5 14q0 19 -61 19q-2 3 -0.5 10.5t4.5 10.5q55 5 132 33q6 -4 6 -19q0 -10 -13 -75zM229 836q7 0 10 -7q34 -55 78 -108q-2 -10 -15 -10l-89 59 q-72 -35 -120 -59q-12 0 -10 10q70 53 132 108q9 7 14 7z" />
<glyph unicode="&#x126;" horiz-adv-x="686" d="M116 506h552q5 0 3 -8q-2 -12 -11 -26h-553q-2 0 -2.5 4t0.5 7q3 14 11 23zM169 116q-12 -59 -10 -74q1 -7 24 -11.5t37 -4.5q2 -4 0 -14.5t-6 -14.5q-95 5 -107 5q-13 0 -111 -5q-3 4 -1 14.5t6 14.5q14 0 39.5 4.5t28.5 11.5q7 14 19 74l83 427q11 56 9 74 q-1 7 -24 11.5t-37 4.5q-2 4 0 14.5t6 14.5q95 -5 109 -5q12 0 110 5q3 -4 0.5 -14.5t-6.5 -14.5q-14 0 -39 -4.5t-28 -11.5q-10 -20 -19 -74l-37 -187h292l37 187q10 63 9 74q-1 7 -24 11.5t-37 4.5q-2 4 0 14.5t6 14.5q95 -5 109 -5q13 0 110 5q3 -4 0.5 -14.5t-6.5 -14.5 q-14 0 -39 -4.5t-28 -11.5q-7 -14 -19 -74l-83 -427q-12 -59 -10 -74q1 -7 24 -11.5t37 -4.5q2 -4 0 -14.5t-6 -14.5q-95 5 -108 5t-110 -5q-3 4 -1 14.5t6 14.5q14 0 39.5 4.5t28.5 11.5q7 14 19 74l39 200h-292z" />
<glyph unicode="&#x127;" horiz-adv-x="470" d="M89 565h229q5 0 3 -8q-2 -12 -11 -26h-230q-2 0 -2.5 4t0.5 7q3 14 11 23zM207 591l-51 -261l-18 -92q21 40 89 118.5t110 78.5q55 0 55 -66q0 -43 -14 -109l-33 -154q-4 -16 -4 -32q0 -25 10 -25q5 0 12.5 4t14.5 10t15 14t13.5 14t9.5 11l5 5q2 0 6 -7.5t4 -11.5 q-12 -21 -56 -57.5t-75 -36.5q-16 0 -25 14.5t-9 37.5q0 24 7 53l35 165q7 32 7 54q0 43 -19 43t-56.5 -35t-74.5 -94t-48 -113q-7 -36 -25 -119q-13 -4 -36 -4q-18 0 -34 4l108 559q1 6 3.5 18t4 21t1.5 14q0 19 -61 19q-2 3 -0.5 10.5t4.5 10.5q55 5 132 33q6 -4 6 -19 q0 -10 -13 -75z" />
<glyph unicode="&#x128;" horiz-adv-x="313" d="M233 657q12 0 110 5q3 -4 0.5 -14.5t-6.5 -14.5q-14 0 -39 -4.5t-28 -11.5q-7 -14 -19 -74l-83 -427q-12 -59 -10 -74q1 -7 24 -11.5t37 -4.5q2 -4 0 -14.5t-6 -14.5q-95 5 -107 5q-14 0 -111 -5q-3 4 -1 14.5t6 14.5q14 0 39.5 4.5t28.5 11.5q7 14 19 74l83 427 q11 56 9 74q-1 7 -24 11.5t-37 4.5q-2 4 0 14.5t6 14.5q95 -5 109 -5zM188 819q36 0 61 -14q42 -24 72 -24q32 0 65 38q6 -2 6 -10q0 -19 -18 -37q-34 -33 -78 -33q-36 0 -61 14q-42 24 -72 24q-32 0 -65 -38q-7 2 -7 10q0 18 19 37q34 33 78 33z" />
<glyph unicode="&#x129;" horiz-adv-x="262" d="M123 584q30 0 56 -13q4 -2 17.5 -9.5t24 -10.5t23.5 -3q29 0 65 36q7 -2 6 -9q-3 -21 -21 -37q-35 -32 -78 -32q-25 0 -55 14q-2 1 -13.5 7t-17 8t-16 4.5t-20.5 2.5q-29 0 -65 -36q-6 2 -5 10q3 21 20 36q35 32 79 32zM117 323q4 24 4 32q0 25 -10 25q-5 0 -12.5 -4 t-14.5 -10t-15 -14t-13.5 -14t-9.5 -11l-5 -5q-2 0 -6 7.5t-4 11.5q13 22 54 58t72 36q16 0 27.5 -15t11.5 -37q0 -16 -7 -53l-51 -224q-4 -20 -4 -32q0 -25 10 -25q5 0 12.5 4t14.5 10t15 14t13.5 14t10.5 11l4 5q2 0 6 -7.5t4 -11.5q-12 -21 -56 -57.5t-75 -36.5 q-16 0 -25 14.5t-9 37.5q0 16 7 53z" />
<glyph unicode="&#x12a;" horiz-adv-x="313" d="M233 657q12 0 110 5q3 -4 0.5 -14.5t-6.5 -14.5q-14 0 -39 -4.5t-28 -11.5q-7 -14 -19 -74l-83 -427q-12 -59 -10 -74q1 -7 24 -11.5t37 -4.5q2 -4 0 -14.5t-6 -14.5q-95 5 -107 5q-14 0 -111 -5q-3 4 -1 14.5t6 14.5q14 0 39.5 4.5t28.5 11.5q7 14 19 74l83 427 q11 56 9 74q-1 7 -24 11.5t-37 4.5q-2 4 0 14.5t6 14.5q95 -5 109 -5zM354 737h-236q-3 3 -3 9t4.5 18t7.5 12h232q5 0 5 -7q0 -21 -10 -32z" />
<glyph unicode="&#x12b;" horiz-adv-x="262" d="M114 323q4 24 4 32q0 25 -10 25q-5 0 -12.5 -4t-14.5 -10t-15 -14t-13.5 -14t-10.5 -11l-4 -5q-2 0 -6 7.5t-4 11.5q13 22 54 58t72 36q16 0 27.5 -15t11.5 -37q0 -16 -7 -53l-51 -224q-4 -20 -4 -32q0 -25 10 -25q5 0 12.5 4t14.5 10t15 14t13.5 14t9.5 11l5 5 q2 0 6 -7.5t4 -11.5q-12 -21 -56 -57.5t-75 -36.5q-16 0 -25 14.5t-9 37.5q0 16 7 53zM262 503h-210q-3 3 -3 9t4.5 18t7.5 12h206q5 0 5 -7q0 -21 -10 -32z" />
<glyph unicode="&#x12c;" horiz-adv-x="313" d="M233 657q12 0 110 5q3 -4 0.5 -14.5t-6.5 -14.5q-14 0 -39 -4.5t-28 -11.5q-7 -14 -19 -74l-83 -427q-12 -59 -10 -74q1 -7 24 -11.5t37 -4.5q2 -4 0 -14.5t-6 -14.5q-95 5 -107 5q-14 0 -111 -5q-3 4 -1 14.5t6 14.5q14 0 39.5 4.5t28.5 11.5q7 14 19 74l83 427 q11 56 9 74q-1 7 -24 11.5t-37 4.5q-2 4 0 14.5t6 14.5q95 -5 109 -5zM253 776q30 0 55 15.5t37 42.5q0 2 5 2t10 -4t4 -7l-1 -3q-1 -3 -1 -4q-13 -36 -47.5 -63t-70.5 -27q-37 0 -60.5 26.5t-22.5 64.5v6q1 3 8 7t11 4t4 -2q1 -27 20 -42.5t49 -15.5z" />
<glyph unicode="&#x12d;" horiz-adv-x="262" d="M114 323q4 24 4 32q0 25 -10 25q-5 0 -12.5 -4t-14.5 -10t-15 -14t-13.5 -14t-10.5 -11l-4 -5q-2 0 -6 7.5t-4 11.5q13 22 54 58t72 36q16 0 27.5 -15t11.5 -37q0 -16 -7 -53l-51 -224q-4 -20 -4 -32q0 -25 10 -25q5 0 12.5 4t14.5 10t15 14t13.5 14t9.5 11l5 5 q2 0 6 -7.5t4 -11.5q-12 -21 -56 -57.5t-75 -36.5q-16 0 -25 14.5t-9 37.5q0 16 7 53zM284 606q0 -6 -2 -10q-15 -41 -49 -70.5t-71 -29.5t-60 29t-21 72q0 1 1 5v3q3 5 10 8.5t12 0.5q1 -32 19.5 -52t47.5 -20t55 20t40 52q3 3 9.5 0t8.5 -8z" />
<glyph unicode="&#x12e;" horiz-adv-x="313" d="M218 26q4 -8 -6 -29q-21 0 -47 -7q-52 -15 -89 -55.5t-37 -73.5q0 -32 31 -32q21 0 40 9.5t30.5 19t12.5 9.5q5 -1 1 -14t-7 -16q-60 -67 -111 -67q-22 0 -36 14.5t-14 35.5q0 46 39.5 103.5t82.5 78.5q-16 0 -114 -5q-3 4 -1 14.5t6 14.5q14 0 39.5 4.5t28.5 11.5 q7 14 19 74l83 427q11 56 9 74q-1 7 -24 11.5t-37 4.5q-2 4 0 14.5t6 14.5q95 -5 109 -5q12 0 110 5q3 -4 0.5 -14.5t-6.5 -14.5q-14 0 -39 -4.5t-28 -11.5q-7 -14 -19 -74l-83 -427q-12 -59 -10 -74q1 -7 24 -11.5t37 -4.5z" />
<glyph unicode="&#x12f;" horiz-adv-x="263" d="M168 646q15 0 25.5 -12t10.5 -28q0 -24 -15.5 -42t-38.5 -18q-16 0 -25 12.5t-9 30.5q0 23 15 40t37 17zM218 88q-9 -15 -49 -52q-44 -40 -77.5 -89.5t-33.5 -85.5q0 -32 31 -32q21 0 40 9.5t30.5 19t12.5 9.5q5 -1 1 -14t-7 -16q-60 -67 -111 -67q-22 0 -36.5 14.5 t-14.5 35.5q0 34 29.5 86.5t59.5 87.5h-6q-16 0 -25 14.5t-9 37.5q0 16 7 53l51 224q4 24 4 32q0 25 -10 25q-5 0 -12.5 -4t-14.5 -10t-15 -14t-13.5 -14t-9.5 -11l-5 -5q-2 0 -6 7.5t-4 11.5q13 22 54 58t72 36q16 0 27.5 -15t11.5 -37q0 -16 -7 -53l-51 -224 q-4 -20 -4 -32q0 -25 10 -25q5 0 12.5 4t14.5 10t15 14t13.5 14t10.5 11l4 5q2 0 6 -7.5t4 -11.5z" />
<glyph unicode="&#x130;" horiz-adv-x="313" d="M233 657q12 0 110 5q3 -4 0.5 -14.5t-6.5 -14.5q-14 0 -39 -4.5t-28 -11.5q-7 -14 -19 -74l-83 -427q-12 -59 -10 -74q1 -7 24 -11.5t37 -4.5q2 -4 0 -14.5t-6 -14.5q-95 5 -107 5q-14 0 -111 -5q-3 4 -1 14.5t6 14.5q14 0 39.5 4.5t28.5 11.5q7 14 19 74l83 427 q11 56 9 74q-1 7 -24 11.5t-37 4.5q-2 4 0 14.5t6 14.5q95 -5 109 -5zM213 778q4 21 20.5 35.5t36.5 14.5q19 0 29.5 -14.5t6.5 -35.5t-20 -35.5t-36 -14.5q-19 0 -30 14.5t-7 35.5z" />
<glyph unicode="&#x131;" horiz-adv-x="262" d="M111 323q4 24 4 32q0 25 -10 25q-5 0 -12.5 -4t-14.5 -10t-15 -14t-13.5 -14t-9.5 -11l-5 -5q-2 0 -6 7.5t-4 11.5q13 22 54 58t72 36q16 0 27.5 -15t11.5 -37q0 -16 -7 -53l-51 -224q-4 -20 -4 -32q0 -25 10 -25q5 0 12.5 4t14.5 10t15 14t13.5 14t10.5 11l4 5 q2 0 6 -7.5t4 -11.5q-12 -21 -56 -57.5t-75 -36.5q-16 0 -25 14.5t-9 37.5q0 16 7 53z" />
<glyph unicode="&#x132;" horiz-adv-x="562" d="M233 657q12 0 110 5q3 -4 0.5 -14.5t-6.5 -14.5q-14 0 -39 -4.5t-28 -11.5q-7 -14 -19 -74l-83 -427q-12 -59 -10 -74q1 -7 24 -11.5t37 -4.5q2 -4 0 -14.5t-6 -14.5q-95 5 -107 5q-14 0 -111 -5q-3 4 -1 14.5t6 14.5q14 0 39.5 4.5t28.5 11.5q7 14 19 74l83 427 q11 56 9 74q-1 7 -24 11.5t-37 4.5q-2 4 0 14.5t6 14.5q95 -5 109 -5zM427 543q10 63 9 74q-1 7 -24 11.5t-37 4.5q-2 4 0 14.5t6 14.5q95 -5 109 -5q12 0 110 5q3 -4 0.5 -14.5t-6.5 -14.5q-14 0 -39 -4.5t-28 -11.5q-10 -20 -19 -74l-81 -427q-18 -94 -51.5 -165 t-72.5 -109t-75.5 -56.5t-69.5 -18.5q-3 5 -3 13l1 6q81 25 122.5 99t68.5 224z" />
<glyph unicode="&#x133;" horiz-adv-x="455" d="M323 323q4 24 4 32q0 25 -10 25q-5 0 -12.5 -4t-14.5 -10t-15 -14t-13.5 -14t-9.5 -11l-5 -5q-2 0 -6 7.5t-4 11.5q13 22 54 58t72 36q16 0 27.5 -15t11.5 -37q0 -16 -7 -53l-55 -285q-20 -101 -71 -169q-29 -38 -69 -68.5t-70 -42.5q-9 7 -9 20q50 29 88 91.5t54 145.5z M391 646q15 0 25.5 -12t10.5 -28q0 -24 -15.5 -42t-38.5 -18q-16 0 -25 12.5t-9 30.5q0 23 15 40t37 17zM111 323q4 24 4 32q0 25 -10 25q-5 0 -12.5 -4t-14.5 -10t-15 -14t-13.5 -14t-9.5 -11l-5 -5q-2 0 -6 7.5t-4 11.5q13 22 54 58t72 36q16 0 27.5 -15t11.5 -37 q0 -16 -7 -53l-51 -224q-4 -20 -4 -32q0 -25 10 -25q5 0 12.5 4t14.5 10t15 14t13.5 14t10.5 11l4 5q2 0 6 -7.5t4 -11.5q-12 -21 -56 -57.5t-75 -36.5q-16 0 -25 14.5t-9 37.5q0 16 7 53zM168 646q15 0 25.5 -12t10.5 -28q0 -24 -15.5 -42t-38.5 -18q-16 0 -25 12.5 t-9 30.5q0 23 15 40t37 17z" />
<glyph unicode="&#x134;" horiz-adv-x="313" d="M164 543q10 63 9 74q-1 7 -24 11.5t-37 4.5q-2 4 0 14.5t6 14.5q95 -5 109 -5q13 0 110 5q3 -4 0.5 -14.5t-6.5 -14.5q-14 0 -39 -4.5t-28 -11.5q-10 -20 -19 -74l-81 -427q-18 -94 -51.5 -165t-72.5 -109t-75.5 -56.5t-69.5 -18.5q-3 5 -3 13l1 6q81 25 122.5 99 t68.5 224zM268 836q6 0 10 -7q34 -55 78 -108q-2 -10 -15 -10l-89 59q-72 -35 -120 -59q-12 0 -10 10q70 53 132 108q9 7 14 7z" />
<glyph unicode="&#x135;" horiz-adv-x="249" d="M207 629q5 0 9 -8q32 -60 68 -116q-2 -11 -13 -11l-78 64q-66 -39 -105 -64q-4 0 -7 3.5t-2 7.5q71 68 116 116q8 8 12 8zM120 323q4 24 4 32q0 25 -10 25q-5 0 -12.5 -4t-14.5 -10t-15 -14t-13.5 -14t-10.5 -11l-4 -5q-2 0 -6 7.5t-4 11.5q13 22 54 58t72 36 q16 0 27.5 -15t11.5 -37q0 -16 -7 -53l-55 -285q-20 -101 -71 -169q-29 -38 -69 -68.5t-70 -42.5q-9 7 -9 20q50 29 88 91.5t54 145.5z" />
<glyph unicode="&#x136;" horiz-adv-x="614" d="M209 -108q0 23 27.5 39t58.5 16q13 -10 13 -41q0 -37 -32 -79t-62 -58q-2 -2 -8 -2q-18 0 -18 7q0 2 11 8.5t23.5 20.5t16.5 32q3 16 -13.5 30.5t-16.5 26.5zM481 72q34 -41 92 -46q5 -7 -6 -29q-103 0 -130 11q-33 14 -55 43q-24 33 -160 253q-1 3 -8 3q-5 0 -9 -2 l-37 -189q-11 -56 -9 -74q1 -7 24 -11.5t37 -4.5q2 -4 0 -14.5t-6 -14.5q-95 5 -108 5q-12 0 -110 -5q-3 4 -1 14.5t6 14.5q14 0 39 4.5t28 11.5q7 14 19 74l83 427q12 59 10 74q-1 7 -24 11.5t-37 4.5q-2 4 0 14.5t6 14.5q95 -5 109 -5q11 0 109 5q3 -4 1 -14.5t-6 -14.5 q-14 0 -39.5 -4.5t-28.5 -11.5q-7 -14 -19 -74l-39 -203q32 19 124 99q12 10 29 25t23.5 20.5t17 15t15.5 14t12.5 12t14 14.5t14.5 15.5t19 20.5q17 19 19 31q5 25 -47 25q-4 12 6 30q102 -6 105 -6q24 0 58.5 3t43.5 3q1 -5 -2 -17.5t-6 -12.5q-1 0 -6.5 -0.5t-10.5 -1 t-13 -2t-16.5 -4t-17.5 -6t-18 -9.5t-17 -14q-69 -66 -257 -229q-8 -7 -2 -16q126 -208 181 -278z" />
<glyph unicode="&#x137;" horiz-adv-x="460" d="M133 -110q0 23 27.5 39t58.5 16q13 -10 13 -41q0 -37 -32 -79t-62 -58q-2 -2 -8 -2q-18 0 -18 7q0 2 11 8.5t23.5 20.5t16.5 32q3 16 -13.5 30.5t-16.5 26.5zM325 435q30 0 52.5 -19.5t22.5 -48.5q0 -64 -59 -102t-152 -54q66 -99 96 -129.5t61 -30.5q11 0 33.5 20.5 t34.5 35.5q2 0 6 -7.5t4 -11.5q-11 -19 -52.5 -55.5t-69.5 -36.5q-22 0 -43 12t-40 37t-31.5 45t-31.5 54.5t-26 46.5l-37 -191q-18 -5 -35 -5q-16 0 -36 5l109 559q9 41 9 53q0 19 -61 19q-2 3 -0.5 10.5t4.5 10.5q55 5 132 33q6 -4 6 -19q0 -10 -13 -75l-52 -269l11 13 q11 13 26.5 28.5t36 32.5t46 28t49.5 11zM289 388q-42 0 -91.5 -55t-59.5 -103q61 0 122.5 34t61.5 90q0 34 -33 34z" />
<glyph unicode="&#x138;" horiz-adv-x="482" d="M107 323q4 24 4 32q0 25 -10 25q-5 0 -12.5 -4t-14.5 -10t-15 -14t-13.5 -14t-9.5 -11l-5 -5q-2 0 -6 7.5t-4 11.5q13 22 54 58t72 36q16 0 27.5 -15t11.5 -37q0 -4 -7 -53l-1 -8l11 13q11 13 26.5 28.5t36 32.5t46 28t49.5 11q30 0 52.5 -19.5t22.5 -48.5 q0 -64 -59 -102t-152 -54q66 -99 96 -129.5t61 -30.5q11 0 33.5 20.5t34.5 35.5q2 0 6 -7.5t4 -11.5q-11 -19 -52.5 -55.5t-69.5 -36.5q-22 0 -43 12t-40 37t-31.5 45t-31.5 54.5t-26 46.5l-37 -191q-18 -5 -35 -5q-16 0 -36 5zM311 388q-42 0 -91.5 -55t-59.5 -103 q61 0 122.5 34t61.5 90q0 34 -33 34z" />
<glyph unicode="&#x139;" horiz-adv-x="530" d="M166 112q-13 -67 -8 -72q10 -10 64 -10h53q61 0 108 27q48 27 85 105q3 6 15 6q18 0 22 -6q-6 -12 -28 -52.5t-35 -67t-20 -46.5q-48 0 -149.5 2t-166.5 2q-23 0 -58.5 -1.5t-52.5 -1.5q-3 4 -0.5 14.5t6.5 14.5q14 0 39 4.5t28 11.5q7 14 19 74l83 427q12 59 10 74 q-1 7 -24 11.5t-37 4.5q-2 4 -0.5 14.5t5.5 14.5q95 -5 109 -5q12 0 110 5q3 -4 0.5 -14.5t-6.5 -14.5q-14 0 -39 -4.5t-28 -11.5q-7 -14 -19 -74zM201 711q-1 0 -3.5 4t-2.5 6q0 5 43.5 43t62.5 50q7 5 27 5q21 0 34.5 -6.5t13.5 -15.5q0 -16 -79.5 -51t-95.5 -35z" />
<glyph unicode="&#x13a;" horiz-adv-x="243" d="M134 559q9 41 9 53q0 19 -61 19q-2 3 -0.5 10.5t4.5 10.5q55 5 132 33q6 -4 6 -19q0 -10 -13 -75l-95 -485q-4 -16 -4 -32q0 -25 10 -25q5 0 12.5 4t14.5 10t15 14t13.5 14t10.5 11l4 5q2 0 6 -7.5t4 -11.5q-12 -21 -56 -57.5t-75 -36.5q-16 0 -25 14.5t-9 37.5 q0 16 7 53zM165 711q-1 0 -3.5 4t-2.5 6q0 5 43.5 43t62.5 50q7 5 27 5q21 0 34.5 -6.5t13.5 -15.5q0 -16 -79.5 -51t-95.5 -35z" />
<glyph unicode="&#x13b;" horiz-adv-x="530" d="M151 -109q0 23 27.5 39t58.5 16q13 -10 13 -41q0 -37 -32 -79t-62 -58q-2 -2 -8 -2q-18 0 -18 7q0 2 11 8.5t23.5 20.5t16.5 32q3 16 -13.5 30.5t-16.5 26.5zM166 112q-13 -67 -8 -72q10 -10 64 -10h53q61 0 108 27q48 27 85 105q3 6 15 6q18 0 22 -6q-6 -12 -28 -52.5 t-35 -67t-20 -46.5q-48 0 -149.5 2t-166.5 2q-23 0 -58.5 -1.5t-52.5 -1.5q-3 4 -0.5 14.5t6.5 14.5q14 0 39 4.5t28 11.5q7 14 19 74l83 427q12 59 10 74q-1 7 -24 11.5t-37 4.5q-2 4 -0.5 14.5t5.5 14.5q95 -5 109 -5q12 0 110 5q3 -4 0.5 -14.5t-6.5 -14.5 q-14 0 -39 -4.5t-28 -11.5q-7 -14 -19 -74z" />
<glyph unicode="&#x13c;" horiz-adv-x="243" d="M26 -108q0 23 27.5 39t58.5 16q13 -10 13 -41q0 -37 -32 -79t-62 -58q-2 -2 -8 -2q-18 0 -18 7q0 2 11 8.5t23.5 20.5t16.5 32q3 16 -13.5 30.5t-16.5 26.5zM133 559q9 41 9 53q0 19 -61 19q-2 3 -0.5 10.5t4.5 10.5q55 5 132 33q6 -4 6 -19q0 -10 -13 -75l-95 -485 q-4 -16 -4 -32q0 -25 10 -25q5 0 12.5 4t14.5 10t15 14t13.5 14t9.5 11l5 5q2 0 6 -7.5t4 -11.5q-12 -21 -56 -57.5t-75 -36.5q-16 0 -25 14.5t-9 37.5q0 16 7 53z" />
<glyph unicode="&#x13d;" horiz-adv-x="583" d="M166 112q-13 -67 -8 -72q10 -10 64 -10h53q61 0 108 27q48 27 85 105q3 6 15 6q18 0 22 -6q-6 -12 -28 -52.5t-35 -67t-20 -46.5q-48 0 -149.5 2t-166.5 2q-23 0 -58.5 -1.5t-52.5 -1.5q-3 4 -0.5 14.5t6.5 14.5q14 0 39 4.5t28 11.5q7 14 19 74l83 427q12 59 10 74 q-1 7 -24 11.5t-37 4.5q-2 4 -0.5 14.5t5.5 14.5q95 -5 109 -5q12 0 110 5q3 -4 0.5 -14.5t-6.5 -14.5q-14 0 -39 -4.5t-28 -11.5q-7 -14 -19 -74zM405 619q0 28 21.5 44t52.5 16q5 -9 5 -28q0 -15 -3 -34q-6 -31 -39 -71.5t-55 -52.5q-1 -1 -7 -1q-4 0 -7 4t-3 8l12 9 q11 9 22.5 26.5t11.5 38.5q0 5 -5.5 18t-5.5 23z" />
<glyph unicode="&#x13e;" horiz-adv-x="260" d="M134 559q9 41 9 53q0 19 -61 19q-2 3 -0.5 10.5t4.5 10.5q55 5 132 33q6 -4 6 -19q0 -10 -13 -75l-95 -485q-4 -16 -4 -32q0 -25 10 -25q5 0 12.5 4t14.5 10t15 14t13.5 14t10.5 11l4 5q2 0 6 -7.5t4 -11.5q-12 -21 -56 -57.5t-75 -36.5q-16 0 -25 14.5t-9 37.5 q0 16 7 53zM253 634q0 28 21.5 44t52.5 16q5 -9 5 -28q0 -14 -3 -34q-6 -31 -39 -71.5t-55 -52.5q-1 -1 -7 -1q-4 0 -7 4t-3 8l12 9q11 9 22.5 26.5t11.5 38.5q0 5 -5.5 18t-5.5 23z" />
<glyph unicode="&#x13f;" horiz-adv-x="530" d="M166 112q-13 -67 -8 -72q10 -10 64 -10h53q61 0 108 27q48 27 85 105q3 6 15 6q18 0 22 -6q-6 -12 -28 -52.5t-35 -67t-20 -46.5q-48 0 -149.5 2t-166.5 2q-23 0 -58.5 -1.5t-52.5 -1.5q-3 4 -0.5 14.5t6.5 14.5q14 0 39 4.5t28 11.5q7 14 19 74l83 427q12 59 10 74 q-1 7 -24 11.5t-37 4.5q-2 4 -0.5 14.5t5.5 14.5q95 -5 109 -5q12 0 110 5q3 -4 0.5 -14.5t-6.5 -14.5q-14 0 -39 -4.5t-28 -11.5q-7 -14 -19 -74zM362 333q4 21 20.5 35.5t36.5 14.5q19 0 29.5 -14.5t6.5 -35.5t-20 -35.5t-36 -14.5q-19 0 -30 14.5t-7 35.5z" />
<glyph unicode="&#x140;" horiz-adv-x="371" d="M134 559q9 41 9 53q0 19 -61 19q-2 3 -0.5 10.5t4.5 10.5q55 5 132 33q6 -4 6 -19q0 -10 -13 -75l-95 -485q-4 -16 -4 -32q0 -25 10 -25q5 0 12.5 4t14.5 10t15 14t13.5 14t10.5 11l4 5q2 0 6 -7.5t4 -11.5q-12 -21 -56 -57.5t-75 -36.5q-16 0 -25 14.5t-9 37.5 q0 16 7 53zM265 299q4 21 20.5 35.5t36.5 14.5q19 0 29.5 -14.5t6.5 -35.5t-20 -35.5t-36 -14.5q-19 0 -30 14.5t-7 35.5z" />
<glyph unicode="&#x141;" horiz-adv-x="529" d="M65 207l373 240q4 -5 8.5 -17t1.5 -14l-373 -238q-16 24 -10 29zM165 112q-13 -67 -8 -72q10 -10 64 -10h53q62 0 108 27q48 27 85 105q3 6 15 6q18 0 22 -6q-6 -12 -28 -52.5t-35 -67t-20 -46.5q-48 0 -149.5 2t-166.5 2q-23 0 -58.5 -1.5t-52.5 -1.5q-3 4 -0.5 14.5 t6.5 14.5q14 0 39 4.5t28 11.5q7 14 19 74l83 427q12 59 10 74q-1 7 -24 11.5t-37 4.5q-2 4 -0.5 14.5t5.5 14.5q95 -5 109 -5q12 0 110 5q3 -4 0.5 -14.5t-6.5 -14.5q-14 0 -39 -4.5t-28 -11.5q-7 -14 -19 -74z" />
<glyph unicode="&#x142;" horiz-adv-x="245" d="M42 288l198 135q14 -23 8 -27l-199 -136q-15 23 -7 28zM134 559q9 41 9 53q0 19 -61 19q-2 3 -0.5 10.5t4.5 10.5q55 5 132 33q6 -4 6 -19q0 -10 -13 -75l-95 -485q-4 -16 -4 -32q0 -25 10 -25q5 0 12.5 4t14.5 10t15 14t13.5 14t10.5 11l4 5q2 0 6 -7.5t4 -11.5 q-12 -21 -56 -57.5t-75 -36.5q-16 0 -25 14.5t-9 37.5q0 16 7 53z" />
<glyph unicode="&#x143;" horiz-adv-x="732" d="M628 541q10 53 3 72q-3 9 -27 14.5t-40 5.5q-6 14 3 29q74 -4 102 -4q18 0 104 4q6 -14 -4 -29q-13 0 -41 -5.5t-34 -13.5q-13 -17 -22 -68l-79 -407q-18 -97 -25 -140q-4 -4 -17 -4q-15 0 -27 23l-300 551l-88 -454q-10 -52 -4 -69q3 -7 28 -13.5t39 -6.5q5 -11 -4 -29 q-93 5 -104 5q-19 0 -34.5 -1t-34 -2t-34.5 -2q-5 12 6 29q13 0 41.5 6t34.5 14q14 19 23 68l84 434q9 52 4 68q-3 8 -28 12.5t-40 4.5q-5 17 5 29q84 -4 85 -4q30 0 82 4q16 -39 124 -230t145 -270zM435 711q-1 0 -3.5 4t-2.5 6q0 5 43.5 43t62.5 50q7 5 27 5 q21 0 34.5 -6.5t13.5 -15.5q0 -16 -79.5 -51t-95.5 -35z" />
<glyph unicode="&#x144;" horiz-adv-x="497" d="M179 330l-18 -84q20 39 86.5 114t109.5 75q62 0 62 -66q0 -41 -14 -109l-33 -154q-4 -20 -4 -32q0 -25 10 -25q5 0 12.5 4t14.5 10t15 14t13.5 14t10.5 11l4 5q2 0 6 -7.5t4 -11.5q-12 -21 -56 -57.5t-75 -36.5q-16 0 -25 14.5t-9 37.5q0 16 7 53l35 165q7 32 7 54 q0 15 -1 23t-5 14t-13 6q-34 0 -101.5 -77t-83.5 -162q-4 -20 -25 -122q-16 -4 -36 -4q-19 0 -35 4l66 323q4 24 4 32q0 25 -10 25q-5 0 -12.5 -4t-14.5 -10t-15 -14t-13.5 -14t-10.5 -11l-4 -5q-2 0 -6 7.5t-4 11.5q13 22 54 58t72 36q16 0 27.5 -15t11.5 -37q0 -19 -8 -53 zM274 502q-2 0 -5 4t-3 6q0 6 42.5 55t52.5 56q14 10 37 10q13 0 26 -7.5t13 -22.5q0 -13 -75 -57t-88 -44z" />
<glyph unicode="&#x145;" horiz-adv-x="732" d="M247 -108q0 23 27.5 39t58.5 16q13 -10 13 -41q0 -37 -32 -79t-62 -58q-2 -2 -8 -2q-18 0 -18 7q0 2 11 8.5t23.5 20.5t16.5 32q3 16 -13.5 30.5t-16.5 26.5zM628 541q10 53 3 72q-3 9 -27 14.5t-40 5.5q-6 14 3 29q74 -4 102 -4q18 0 104 4q6 -14 -4 -29q-13 0 -41 -5.5 t-34 -13.5q-13 -17 -22 -68l-79 -407q-18 -97 -25 -140q-4 -4 -17 -4q-15 0 -27 23l-300 551l-88 -454q-10 -52 -4 -69q3 -7 28 -13.5t39 -6.5q5 -11 -4 -29q-93 5 -104 5q-19 0 -34.5 -1t-34 -2t-34.5 -2q-5 12 6 29q13 0 41.5 6t34.5 14q14 19 23 68l84 434q9 52 4 68 q-3 8 -28 12.5t-40 4.5q-5 17 5 29q84 -4 85 -4q30 0 82 4q16 -39 124 -230t145 -270z" />
<glyph unicode="&#x146;" horiz-adv-x="497" d="M157 -108q0 23 27.5 39t58.5 16q13 -10 13 -41q0 -37 -32 -79t-62 -58q-2 -2 -8 -2q-18 0 -18 7q0 2 11 8.5t23.5 20.5t16.5 32q3 16 -13.5 30.5t-16.5 26.5zM179 330l-18 -84q20 39 86.5 114t109.5 75q62 0 62 -66q0 -41 -14 -109l-33 -154q-4 -20 -4 -32q0 -25 10 -25 q5 0 12.5 4t14.5 10t15 14t13.5 14t10.5 11l4 5q2 0 6 -7.5t4 -11.5q-12 -21 -56 -57.5t-75 -36.5q-16 0 -25 14.5t-9 37.5q0 16 7 53l35 165q7 32 7 54q0 15 -1 23t-5 14t-13 6q-34 0 -101.5 -77t-83.5 -162q-4 -20 -25 -122q-16 -4 -36 -4q-19 0 -35 4l66 323q4 24 4 32 q0 25 -10 25q-5 0 -12.5 -4t-14.5 -10t-15 -14t-13.5 -14t-10.5 -11l-4 -5q-2 0 -6 7.5t-4 11.5q13 22 54 58t72 36q16 0 27.5 -15t11.5 -37q0 -19 -8 -53z" />
<glyph unicode="&#x147;" horiz-adv-x="732" d="M628 541q10 53 3 72q-3 9 -27 14.5t-40 5.5q-6 14 3 29q74 -4 102 -4q18 0 104 4q6 -14 -4 -29q-13 0 -41 -5.5t-34 -13.5q-13 -17 -22 -68l-79 -407q-18 -97 -25 -140q-4 -4 -17 -4q-15 0 -27 23l-300 551l-88 -454q-10 -52 -4 -69q3 -7 28 -13.5t39 -6.5q5 -11 -4 -29 q-93 5 -104 5q-19 0 -34.5 -1t-34 -2t-34.5 -2q-5 12 6 29q13 0 41.5 6t34.5 14q14 19 23 68l84 434q9 52 4 68q-3 8 -28 12.5t-40 4.5q-5 17 5 29q84 -4 85 -4q30 0 82 4q16 -39 124 -230t145 -270zM439 711q-7 0 -10 7q-19 33 -78 108q2 10 15 10l89 -59q75 36 120 59 q12 0 10 -10q-94 -73 -132 -108q-9 -7 -14 -7z" />
<glyph unicode="&#x148;" horiz-adv-x="497" d="M287 496q-5 0 -9 8q-32 60 -68 116q2 11 13 11l78 -64q66 39 105 64q4 0 7 -3.5t2 -7.5q-71 -68 -116 -116q-8 -8 -12 -8zM179 330l-18 -84q20 39 86.5 114t109.5 75q62 0 62 -66q0 -41 -14 -109l-33 -154q-4 -20 -4 -32q0 -25 10 -25q5 0 12.5 4t14.5 10t15 14t13.5 14 t10.5 11l4 5q2 0 6 -7.5t4 -11.5q-12 -21 -56 -57.5t-75 -36.5q-16 0 -25 14.5t-9 37.5q0 16 7 53l35 165q7 32 7 54q0 15 -1 23t-5 14t-13 6q-34 0 -101.5 -77t-83.5 -162q-4 -20 -25 -122q-16 -4 -36 -4q-19 0 -35 4l66 323q4 24 4 32q0 25 -10 25q-5 0 -12.5 -4 t-14.5 -10t-15 -14t-13.5 -14t-10.5 -11l-4 -5q-2 0 -6 7.5t-4 11.5q13 22 54 58t72 36q16 0 27.5 -15t11.5 -37q0 -19 -8 -53z" />
<glyph unicode="&#x149;" horiz-adv-x="499" d="M181 330l-18 -84q20 39 86.5 114t109.5 75q62 0 62 -66q0 -41 -14 -109l-33 -154q-4 -20 -4 -32q0 -25 10 -25q5 0 12.5 4t14.5 10t15 14t13.5 14t10.5 11l4 5q2 0 6 -7.5t4 -11.5q-12 -21 -56 -57.5t-75 -36.5q-16 0 -25 14.5t-9 37.5q0 16 7 53l35 165q7 32 7 54 q0 15 -1 23t-5 14t-13 6q-34 0 -101.5 -77t-83.5 -162q-4 -20 -25 -122q-16 -4 -36 -4q-19 0 -35 4l66 323q4 24 4 32q0 25 -10 25q-5 0 -12.5 -4t-14.5 -10t-15 -14t-13.5 -14t-10.5 -11l-4 -5q-2 0 -6 7.5t-4 11.5q13 22 54 58t72 36q16 0 27.5 -15t11.5 -37q0 -19 -8 -53 zM44 592q0 28 21.5 44t52.5 16q5 -9 5 -28q0 -14 -3 -34q-6 -31 -39 -71.5t-55 -52.5q-1 -1 -7 -1q-4 0 -7 4t-3 8l11 9q12 9 23.5 26.5t11.5 38.5q0 5 -5.5 18t-5.5 23z" />
<glyph unicode="&#x14a;" horiz-adv-x="731" d="M510 44l-284 525l-88 -454q-10 -52 -4 -69q3 -7 28 -13.5t39 -6.5q5 -11 -4 -29q-93 5 -106 5q-19 0 -34.5 -1t-34 -2t-34.5 -2q-5 12 6 29q13 0 41.5 6t34.5 14q14 19 23 68l84 434q9 52 4 68q-3 8 -29 14t-39 6q-5 17 5 29q13 -1 45.5 -3t50.5 -2q45 0 71 2 q15 -39 122.5 -227.5t145.5 -268.5l74 379q10 52 4 69q-3 7 -28 13.5t-39 6.5q-5 11 4 29q93 -5 106 -5q19 0 34 1t33.5 2t34.5 2q5 -13 -5 -29q-13 0 -42 -6t-35 -14q-13 -17 -22 -68l-83 -430q-18 -94 -51.5 -165t-72.5 -109t-75.5 -56.5t-69.5 -18.5q-3 5 -3 13l1 6 q70 22 119 93.5t73 164.5z" />
<glyph unicode="&#x14b;" horiz-adv-x="476" d="M360 45q-24 -106 -71 -169q-29 -38 -69 -68.5t-70 -42.5q-9 7 -9 20q103 59 142 237l52 242q7 32 7 54q0 15 -1 23t-5 14t-13 6q-34 0 -101.5 -77t-83.5 -162q-4 -20 -25 -122q-28 -4 -36 -4q-7 0 -35 4l66 323q4 24 4 32q0 25 -10 25q-5 0 -12.5 -4t-14.5 -10t-15 -14 t-13.5 -14t-10.5 -11l-4 -5q-2 0 -6 7.5t-4 11.5q13 22 54 58t72 36q16 0 27.5 -15t11.5 -37q0 -19 -8 -53l-18 -84q20 39 86.5 114t109.5 75q62 0 62 -66q0 -41 -14 -109z" />
<glyph unicode="&#x14c;" horiz-adv-x="710" d="M406 635q-98 0 -174.5 -107t-76.5 -260q0 -47 8 -88t26.5 -79.5t54 -60.5t84.5 -22q73 0 131.5 57t88.5 142t30 176q0 41 -7.5 79t-25 77t-53.5 62.5t-86 23.5zM415 665q116 0 186.5 -80t70.5 -203q0 -172 -103 -282.5t-250 -110.5q-118 0 -188 81t-70 203 q0 168 106.5 280t247.5 112zM541 737h-236q-3 3 -3 9t4.5 18t7.5 12h232q5 0 5 -7q0 -21 -10 -32z" />
<glyph unicode="&#x14d;" horiz-adv-x="414" d="M237 403q-58 0 -96.5 -80t-38.5 -165q0 -60 15 -95.5t42 -35.5q39 0 70 41.5t46 96.5t15 108q0 130 -53 130zM251 435q58 0 87.5 -40t29.5 -107q0 -106 -71.5 -199.5t-156.5 -93.5q-58 0 -87 38t-29 105q0 107 71 202t156 95zM363 503h-210q-3 3 -3 9t4.5 18t7.5 12h206 q5 0 5 -7q0 -21 -10 -32z" />
<glyph unicode="&#x14e;" horiz-adv-x="710" d="M406 635q-98 0 -174.5 -107t-76.5 -260q0 -47 8 -88t26.5 -79.5t54 -60.5t84.5 -22q73 0 131.5 57t88.5 142t30 176q0 41 -7.5 79t-25 77t-53.5 62.5t-86 23.5zM415 665q116 0 186.5 -80t70.5 -203q0 -172 -103 -282.5t-250 -110.5q-118 0 -188 81t-70 203 q0 168 106.5 280t247.5 112zM427 776q30 0 55 15.5t37 42.5q0 2 5 2t10 -4t4 -7l-1 -3q-1 -3 -1 -4q-13 -36 -47.5 -63t-70.5 -27q-37 0 -60.5 26.5t-22.5 64.5v6q1 3 8 7t11 4t4 -2q1 -27 20 -42.5t49 -15.5z" />
<glyph unicode="&#x14f;" horiz-adv-x="414" d="M237 403q-58 0 -96.5 -80t-38.5 -165q0 -60 15 -95.5t42 -35.5q39 0 70 41.5t46 96.5t15 108q0 130 -53 130zM251 435q58 0 87.5 -40t29.5 -107q0 -106 -71.5 -199.5t-156.5 -93.5q-58 0 -87 38t-29 105q0 107 71 202t156 95zM377 606q0 -6 -2 -10q-15 -41 -49 -70.5 t-71 -29.5t-60 29t-21 72v5l1 3q3 5 10 8.5t12 0.5q1 -32 19.5 -52t47.5 -20t55 20t40 52q3 3 9.5 0t8.5 -8z" />
<glyph unicode="&#x150;" horiz-adv-x="710" d="M406 635q-98 0 -174.5 -107t-76.5 -260q0 -47 8 -88t26.5 -79.5t54 -60.5t84.5 -22q73 0 131.5 57t88.5 142t30 176q0 41 -7.5 79t-25 77t-53.5 62.5t-86 23.5zM415 665q116 0 186.5 -80t70.5 -203q0 -172 -103 -282.5t-250 -110.5q-118 0 -188 81t-70 203 q0 168 106.5 280t247.5 112zM468 718q-1 0 -3.5 4t-2.5 6q0 5 43.5 43t62.5 50q8 5 27 5q21 0 34.5 -6.5t13.5 -15.5q0 -16 -79.5 -51t-95.5 -35zM323 718q-1 0 -3.5 4t-2.5 6q0 5 43.5 43t62.5 50q7 5 27 5q21 0 34.5 -6.5t13.5 -15.5q0 -16 -79.5 -51t-95.5 -35z" />
<glyph unicode="&#x151;" horiz-adv-x="414" d="M237 403q-58 0 -96.5 -80t-38.5 -165q0 -60 15 -95.5t42 -35.5q39 0 70 41.5t46 96.5t15 108q0 130 -53 130zM251 435q58 0 87.5 -40t29.5 -107q0 -106 -71.5 -199.5t-156.5 -93.5q-58 0 -87 38t-29 105q0 107 71 202t156 95zM182 502q-2 0 -5 4t-3 6q0 6 42.5 55 t52.5 56q14 10 37 10q13 0 26 -7.5t13 -22.5q0 -13 -75 -57t-88 -44zM308 502q-2 0 -5 4t-3 6q0 6 42.5 55t52.5 56q14 10 37 10q13 0 26 -7.5t13 -22.5q0 -13 -75 -57t-88 -44z" />
<glyph unicode="&#x152;" horiz-adv-x="886" d="M600 657q42 0 141.5 3.5t151.5 3.5q-2 -12 -0.5 -69.5t1.5 -66.5q-5 -5 -18 -5q-11 0 -11 7q-4 56 -26 78t-62 22h-80q-61 0 -66 -11q-11 -21 -20 -72l-37 -192q0 -2 3 -3t9 -2t12.5 -1h14.5h49q66 0 83 13q11 9 32 56q0 2 1 3q3 7 16 7q11 0 14 -5l-36 -189 q-4 -4 -16 -4q-11 0 -13 8q-3 62 -13 70t-97 8q-67 0 -69 -9l-39 -198q-13 -63 -7 -69q10 -10 64 -10h44q77 0 124 31q44 30 78 101q3 6 15 6q18 0 22 -6q-6 -12 -28 -52.5t-35 -67t-20 -46.5q-38 0 -142.5 2.5t-173.5 1.5q-29 -1 -77 -6t-64 -5q-130 0 -199 81.5t-69 203.5 q0 162 103.5 277t252.5 115q36 0 95.5 -5t91.5 -4zM530 557q8 42 -32.5 60.5t-93.5 18.5q-72 0 -131.5 -55.5t-90.5 -138.5t-31 -170q0 -123 44.5 -188.5t129.5 -65.5q34 0 58.5 9.5t33 18t12.5 16.5q12 24 18 54z" />
<glyph unicode="&#x153;" horiz-adv-x="614" d="M356 218q42 2 101.5 44.5t59.5 91.5q0 19 -13 29.5t-29 10.5q-42 0 -76.5 -57.5t-42.5 -118.5zM237 403q-58 0 -96.5 -80t-38.5 -165q0 -60 15 -95.5t42 -35.5q51 0 91 72.5t40 173.5q0 130 -53 130zM525 435q35 0 50.5 -18t15.5 -44q0 -44 -47 -88t-102 -68t-88 -24 q-2 -6 -2 -32q0 -108 69 -108q8 0 17 3t17.5 7.5t17 10.5t15.5 12t14 12.5t11 11t7 8.5l4 4q2 0 7 -8t5 -12q-16 -27 -63.5 -67.5t-88.5 -40.5q-78 0 -101 78q-69 -77 -143 -77q-58 0 -87 38t-29 105q0 107 71 202t156 95q87 0 110 -87q79 87 164 87z" />
<glyph unicode="&#x154;" horiz-adv-x="579" d="M553 -3q-73 0 -113 9.5t-56 40.5q-55 108 -105 244q-4 12 -26 12h-49l-36 -187q-12 -59 -10 -74q1 -7 24 -11.5t37 -4.5q2 -4 0 -14.5t-6 -14.5q-95 5 -107 5q-14 0 -111 -5q-3 4 -1 14.5t6 14.5q14 0 39.5 4.5t28.5 11.5q7 14 19 74l83 427q11 56 9 74q-1 7 -24 11.5 t-37 4.5q-2 4 0 14.5t6 14.5q95 -5 112 -5q16 0 59 1t73 1q67 0 111.5 -37t44.5 -104t-49.5 -120.5t-114.5 -77.5q51 -140 106 -234q18 -31 37 -44t56 -16q5 -7 -6 -29zM210 333h50q67 0 121 47t54 132q0 19 -4 36.5t-15 37.5t-36 32t-61 12q-43 0 -49 -10t-19 -75zM279 711 q-1 0 -3.5 4t-2.5 6q0 5 43.5 43t62.5 50q7 5 27 5q21 0 34.5 -6.5t13.5 -15.5q0 -16 -79.5 -51t-95.5 -35z" />
<glyph unicode="&#x155;" horiz-adv-x="356" d="M307 435q30 0 49 -21q9 -11 9 -28q0 -20 -9.5 -32t-26.5 -12t-30 15q-6 8 -20 8q-28 0 -76.5 -83.5t-62.5 -159.5l-22 -122q-16 -3 -34 -3q-19 0 -37 3l60 323q4 24 4 32q0 25 -10 25q-5 0 -12.5 -4t-14.5 -10t-15 -14t-13.5 -14t-9.5 -11l-5 -5q-2 0 -6 7.5t-4 11.5 q13 22 54 58t72 36q16 0 27.5 -15t11.5 -37q0 -11 -8 -53q-5 -27 -17 -84q26 63 70 126t76 63zM227 502q-2 0 -5 4t-3 6q0 6 42.5 55t52.5 56q14 10 37 10q13 0 26 -7.5t13 -22.5q0 -13 -75 -57t-88 -44z" />
<glyph unicode="&#x156;" horiz-adv-x="579" d="M203 -108q0 23 27.5 39t58.5 16q13 -10 13 -41q0 -37 -32 -79t-62 -58q-2 -2 -8 -2q-18 0 -18 7q0 2 11 8.5t23.5 20.5t16.5 32q3 16 -13.5 30.5t-16.5 26.5zM553 -3q-73 0 -113 9.5t-56 40.5q-55 108 -105 244q-4 12 -26 12h-49l-36 -187q-12 -59 -10 -74q1 -7 24 -11.5 t37 -4.5q2 -4 0 -14.5t-6 -14.5q-95 5 -107 5q-14 0 -111 -5q-3 4 -1 14.5t6 14.5q14 0 39.5 4.5t28.5 11.5q7 14 19 74l83 427q11 56 9 74q-1 7 -24 11.5t-37 4.5q-2 4 0 14.5t6 14.5q95 -5 112 -5q16 0 59 1t73 1q67 0 111.5 -37t44.5 -104t-49.5 -120.5t-114.5 -77.5 q51 -140 106 -234q18 -31 37 -44t56 -16q5 -7 -6 -29zM210 333h50q67 0 121 47t54 132q0 19 -4 36.5t-15 37.5t-36 32t-61 12q-43 0 -49 -10t-19 -75z" />
<glyph unicode="&#x157;" horiz-adv-x="356" d="M38 -108q0 23 27.5 39t58.5 16q13 -10 13 -41q0 -37 -32 -79t-62 -58q-2 -2 -8 -2q-18 0 -18 7q0 2 11 8.5t23.5 20.5t16.5 32q3 16 -13.5 30.5t-16.5 26.5zM307 435q30 0 49 -21q9 -11 9 -28q0 -20 -9.5 -32t-26.5 -12t-30 15q-6 8 -20 8q-28 0 -76.5 -83.5 t-62.5 -159.5l-22 -122q-16 -3 -34 -3q-19 0 -37 3l60 323q4 24 4 32q0 25 -10 25q-5 0 -12.5 -4t-14.5 -10t-15 -14t-13.5 -14t-9.5 -11l-5 -5q-2 0 -6 7.5t-4 11.5q13 22 54 58t72 36q16 0 27.5 -15t11.5 -37q0 -11 -8 -53q-5 -27 -17 -84q26 63 70 126t76 63z" />
<glyph unicode="&#x158;" horiz-adv-x="579" d="M553 -3q-73 0 -113 9.5t-56 40.5q-55 108 -105 244q-4 12 -26 12h-49l-36 -187q-12 -59 -10 -74q1 -7 24 -11.5t37 -4.5q2 -4 0 -14.5t-6 -14.5q-95 5 -107 5q-14 0 -111 -5q-3 4 -1 14.5t6 14.5q14 0 39.5 4.5t28.5 11.5q7 14 19 74l83 427q11 56 9 74q-1 7 -24 11.5 t-37 4.5q-2 4 0 14.5t6 14.5q95 -5 112 -5q16 0 59 1t73 1q67 0 111.5 -37t44.5 -104t-49.5 -120.5t-114.5 -77.5q51 -140 106 -234q18 -31 37 -44t56 -16q5 -7 -6 -29zM210 333h50q67 0 121 47t54 132q0 19 -4 36.5t-15 37.5t-36 32t-61 12q-43 0 -49 -10t-19 -75zM320 711 q-6 0 -10 7q-19 33 -78 108q2 10 15 10l89 -59q75 36 120 59q12 0 10 -10q-94 -73 -132 -108q-9 -7 -14 -7z" />
<glyph unicode="&#x159;" horiz-adv-x="356" d="M236 496q-5 0 -9 8q-32 60 -68 116q2 11 13 11l78 -64q66 39 105 64q4 0 7 -3.5t2 -7.5q-71 -68 -116 -116q-8 -8 -12 -8zM307 435q30 0 49 -21q9 -11 9 -28q0 -20 -9.5 -32t-26.5 -12t-30 15q-6 8 -20 8q-28 0 -76.5 -83.5t-62.5 -159.5l-22 -122q-16 -3 -34 -3 q-19 0 -37 3l60 323q4 24 4 32q0 25 -10 25q-5 0 -12.5 -4t-14.5 -10t-15 -14t-13.5 -14t-9.5 -11l-5 -5q-2 0 -6 7.5t-4 11.5q13 22 54 58t72 36q16 0 27.5 -15t11.5 -37q0 -11 -8 -53q-5 -27 -17 -84q26 63 70 126t76 63z" />
<glyph unicode="&#x15a;" horiz-adv-x="472" d="M312 666q21 0 40.5 -2.5t30 -4.5t34 -8.5t32.5 -8.5q-6 -70 -21 -144q-1 -7 -10 -7q-14 0 -21 7q4 63 -19 100t-74 37q-57 0 -90.5 -36t-33.5 -79q0 -24 5.5 -42.5t21 -36.5t23.5 -26t34 -27.5t31 -23.5q7 -5 32.5 -24t36 -29t27 -29t23.5 -40.5t7 -48.5 q0 -88 -70.5 -144.5t-157.5 -56.5q-74 0 -147 42q-9 36 -11.5 86.5t-0.5 63.5q4 6 25 6q7 0 10 -6q0 -32 12.5 -67t45 -65t78.5 -30q52 0 89.5 34t37.5 91q0 34 -15.5 62.5t-31 43t-48.5 41.5q-11 8 -36.5 26.5t-38 29.5t-29 30t-24 43t-7.5 53q0 81 67 135.5t143 54.5z M310 711q-1 0 -3.5 4t-2.5 6q0 5 43.5 43t62.5 50q7 5 27 5q21 0 34.5 -6.5t13.5 -15.5q0 -16 -79.5 -51t-95.5 -35z" />
<glyph unicode="&#x15b;" horiz-adv-x="322" d="M199 438q55 0 86 -27q10 -14 10 -32q0 -17 -9.5 -29t-24.5 -12q-22 0 -47 35q-1 1 -3.5 5t-3.5 5.5t-3.5 4.5t-4 4.5t-4.5 4t-5.5 3.5t-6 2t-7.5 1.5t-9 0.5q-24 0 -36.5 -18.5t-12.5 -37.5q0 -11 3 -22t12 -23.5t13.5 -18.5t19.5 -22t18 -20q61 -71 61 -125 q0 -55 -40.5 -89t-104.5 -34q-53 0 -88 30q-10 17 -10 30q0 21 10.5 33.5t26.5 12.5q9 0 15 -5t16 -21t12 -19q21 -29 53 -29q27 0 38 18.5t11 39.5q0 16 -9.5 34.5t-16 26.5t-26.5 31q-24 27 -35.5 41.5t-24 41t-12.5 53.5q0 46 40 86t99 40zM184 505q-2 0 -5 4t-3 6 q0 6 42.5 55t52.5 56q14 10 37 10q13 0 26 -7.5t13 -22.5q0 -13 -75 -57t-88 -44z" />
<glyph unicode="&#x15c;" horiz-adv-x="472" d="M312 666q21 0 40.5 -2.5t30 -4.5t34 -8.5t32.5 -8.5q-6 -70 -21 -144q-1 -7 -10 -7q-14 0 -21 7q4 63 -19 100t-74 37q-57 0 -90.5 -36t-33.5 -79q0 -24 5.5 -42.5t21 -36.5t23.5 -26t34 -27.5t31 -23.5q7 -5 32.5 -24t36 -29t27 -29t23.5 -40.5t7 -48.5 q0 -88 -70.5 -144.5t-157.5 -56.5q-74 0 -147 42q-9 36 -11.5 86.5t-0.5 63.5q4 6 25 6q7 0 10 -6q0 -32 12.5 -67t45 -65t78.5 -30q52 0 89.5 34t37.5 91q0 34 -15.5 62.5t-31 43t-48.5 41.5q-11 8 -36.5 26.5t-38 29.5t-29 30t-24 43t-7.5 53q0 81 67 135.5t143 54.5z M370 836q6 0 10 -7q34 -55 78 -108q-2 -10 -15 -10l-89 59q-72 -35 -120 -59q-12 0 -10 10q70 53 132 108q9 7 14 7z" />
<glyph unicode="&#x15d;" horiz-adv-x="322" d="M228 632q5 0 9 -8q32 -60 68 -116q-2 -11 -13 -11l-78 64q-66 -39 -105 -64q-4 0 -7 3.5t-2 7.5q71 68 116 116q8 8 12 8zM199 438q55 0 86 -27q10 -14 10 -32q0 -17 -9.5 -29t-24.5 -12q-22 0 -47 35q-1 1 -3.5 5t-3.5 5.5t-3.5 4.5t-4 4.5t-4.5 4t-5.5 3.5t-6 2 t-7.5 1.5t-9 0.5q-24 0 -36.5 -18.5t-12.5 -37.5q0 -11 3 -22t12 -23.5t13.5 -18.5t19.5 -22t18 -20q61 -71 61 -125q0 -55 -40.5 -89t-104.5 -34q-53 0 -88 30q-10 17 -10 30q0 21 10.5 33.5t26.5 12.5q9 0 15 -5t16 -21t12 -19q21 -29 53 -29q27 0 38 18.5t11 39.5 q0 16 -9.5 34.5t-16 26.5t-26.5 31q-24 27 -35.5 41.5t-24 41t-12.5 53.5q0 46 40 86t99 40z" />
<glyph unicode="&#x15e;" horiz-adv-x="472" d="M312 666q21 0 40.5 -2.5t30 -4.5t34 -8.5t32.5 -8.5q-6 -70 -21 -144q-1 -7 -10 -7q-14 0 -21 7q4 63 -19 100t-74 37q-57 0 -90.5 -36t-33.5 -79q0 -24 5.5 -42.5t21 -36.5t23.5 -26t34 -27.5t31 -23.5q7 -5 32.5 -24t36 -29t27 -29t23.5 -40.5t7 -48.5 q0 -88 -70.5 -144.5t-157.5 -56.5q-74 0 -147 42q-9 36 -11.5 86.5t-0.5 63.5q4 6 25 6q7 0 10 -6q0 -32 12.5 -67t45 -65t78.5 -30q52 0 89.5 34t37.5 91q0 34 -15.5 62.5t-31 43t-48.5 41.5q-11 8 -36.5 26.5t-38 29.5t-29 30t-24 43t-7.5 53q0 81 67 135.5t143 54.5z M164 -27h28q21 0 31.5 -17t5.5 -41q-8 -40 -42.5 -64.5t-78.5 -24.5q-23 0 -35 10v17q1 6 7 11t11 5q6 0 17 -7.5t21 -7.5q22 0 37 11.5t18 27.5q3 19 -5.5 29.5t-20.5 10.5t-31 -8q-2 0 -6 6t-2 9q2 2 21 26t26 34h23z" />
<glyph unicode="&#x15f;" horiz-adv-x="322" d="M103 -24h23q18 0 27 -14.5t5 -34.5q-7 -34 -36 -55t-66 -21q-19 0 -30 9v14q1 5 5.5 9.5t9.5 4.5t14.5 -6.5t17.5 -6.5q19 0 32 10t15 23q3 16 -4 25t-18 9q-9 0 -26 -7q-2 0 -5.5 5t-1.5 8q5 7 20 25.5t20 25.5h19zM199 438q55 0 86 -27q10 -14 10 -32q0 -17 -9.5 -29 t-24.5 -12q-22 0 -47 35q-1 1 -3.5 5t-3.5 5.5t-3.5 4.5t-4 4.5t-4.5 4t-5.5 3.5t-6 2t-7.5 1.5t-9 0.5q-24 0 -36.5 -18.5t-12.5 -37.5q0 -11 3 -22t12 -23.5t13.5 -18.5t19.5 -22t18 -20q61 -71 61 -125q0 -55 -40.5 -89t-104.5 -34q-53 0 -88 30q-10 17 -10 30 q0 21 10.5 33.5t26.5 12.5q9 0 15 -5t16 -21t12 -19q21 -29 53 -29q27 0 38 18.5t11 39.5q0 16 -9.5 34.5t-16 26.5t-26.5 31q-24 27 -35.5 41.5t-24 41t-12.5 53.5q0 46 40 86t99 40z" />
<glyph unicode="&#x160;" horiz-adv-x="472" d="M312 666q21 0 40.5 -2.5t30 -4.5t34 -8.5t32.5 -8.5q-6 -70 -21 -144q-1 -7 -10 -7q-14 0 -21 7q4 63 -19 100t-74 37q-57 0 -90.5 -36t-33.5 -79q0 -24 5.5 -42.5t21 -36.5t23.5 -26t34 -27.5t31 -23.5q7 -5 32.5 -24t36 -29t27 -29t23.5 -40.5t7 -48.5 q0 -88 -70.5 -144.5t-157.5 -56.5q-74 0 -147 42q-9 36 -11.5 86.5t-0.5 63.5q4 6 25 6q7 0 10 -6q0 -32 12.5 -67t45 -65t78.5 -30q52 0 89.5 34t37.5 91q0 34 -15.5 62.5t-31 43t-48.5 41.5q-11 8 -36.5 26.5t-38 29.5t-29 30t-24 43t-7.5 53q0 81 67 135.5t143 54.5z M336 711q-6 0 -10 7q-19 33 -78 108q2 10 15 10l89 -59q75 36 120 59q12 0 10 -10q-94 -73 -132 -108q-9 -7 -14 -7z" />
<glyph unicode="&#x161;" horiz-adv-x="322" d="M217 499q-5 0 -9 8q-32 60 -68 116q2 11 13 11l78 -64q66 39 105 64q4 0 7 -3.5t2 -7.5q-71 -68 -116 -116q-8 -8 -12 -8zM199 438q55 0 86 -27q10 -14 10 -32q0 -17 -9.5 -29t-24.5 -12q-22 0 -47 35q-1 1 -3.5 5t-3.5 5.5t-3.5 4.5t-4 4.5t-4.5 4t-5.5 3.5t-6 2 t-7.5 1.5t-9 0.5q-24 0 -36.5 -18.5t-12.5 -37.5q0 -11 3 -22t12 -23.5t13.5 -18.5t19.5 -22t18 -20q61 -71 61 -125q0 -55 -40.5 -89t-104.5 -34q-53 0 -88 30q-10 17 -10 30q0 21 10.5 33.5t26.5 12.5q9 0 15 -5t16 -21t12 -19q21 -29 53 -29q27 0 38 18.5t11 39.5 q0 16 -9.5 34.5t-16 26.5t-26.5 31q-24 27 -35.5 41.5t-24 41t-12.5 53.5q0 46 40 86t99 40z" />
<glyph unicode="&#x162;" horiz-adv-x="587" d="M550 655q29 0 59 15q12 6 18 2q-9 -110 -9 -172q-8 -8 -20 -7q-10 0 -12 5q1 55 -15 88.5t-49 33.5h-118l-99 -504q-12 -59 -10 -74q1 -7 24 -11.5t37 -4.5q2 -4 0.5 -14.5t-5.5 -14.5q-95 5 -108 5t-111 -5q-3 4 -0.5 14.5t6.5 14.5q14 0 39 4.5t28 11.5q7 14 19 74 l99 504h-120q-33 0 -62.5 -33.5t-50.5 -88.5q-3 -5 -14 -5q-11 -1 -17 7q28 72 58 172q8 4 20 -3q23 -14 50 -14h363zM222 -27h28q21 0 31.5 -17t5.5 -41q-8 -40 -42.5 -64.5t-78.5 -24.5q-23 0 -35 10v17q1 6 7 11t11 5q6 0 17 -7.5t21 -7.5q22 0 37 11.5t18 27.5 q3 19 -5.5 29.5t-20.5 10.5t-31 -8q-2 0 -6 6t-2 9q2 2 21 26t26 34h23z" />
<glyph unicode="&#x163;" horiz-adv-x="278" d="M82 -23h23q18 0 27 -14.5t5 -34.5q-7 -34 -36 -55t-66 -21q-19 0 -30 9v14q1 5 5.5 9.5t9.5 4.5t14.5 -6.5t17.5 -6.5q19 0 32 10t15 23q3 16 -4 25t-18 9q-9 0 -26 -7q-2 0 -5.5 5t-1.5 8q5 7 20 25.5t20 25.5h19zM117 413l11 59q12 15 36 40.5t29 25.5q9 0 17 -6 l-22 -119h75q5 0 5 -12q0 -11 -9 -25h-78l-53 -270q-4 -20 -4 -32q0 -25 10 -25q5 0 12.5 4t14.5 10t15 14t13.5 14t10.5 11l4 5q2 0 6 -7.5t4 -11.5q-12 -21 -56 -57.5t-75 -36.5q-16 0 -25 14.5t-9 37.5q0 16 7 53l54 277h-67q-2 0 -2 3q0 9 15 21.5t31 12.5h30z" />
<glyph unicode="&#x164;" horiz-adv-x="587" d="M550 655q29 0 59 15q12 6 18 2q-9 -110 -9 -172q-8 -8 -20 -7q-10 0 -12 5q1 55 -15 88.5t-49 33.5h-118l-99 -504q-12 -59 -10 -74q1 -7 24 -11.5t37 -4.5q2 -4 0.5 -14.5t-5.5 -14.5q-95 5 -108 5t-111 -5q-3 4 -0.5 14.5t6.5 14.5q14 0 39 4.5t28 11.5q7 14 19 74 l99 504h-120q-33 0 -62.5 -33.5t-50.5 -88.5q-3 -5 -14 -5q-11 -1 -17 7q28 72 58 172q8 4 20 -3q23 -14 50 -14h363zM374 715q-6 0 -10 7q-19 33 -78 108q2 10 15 10l89 -59q75 36 120 59q12 0 10 -10q-94 -73 -132 -108q-9 -7 -14 -7z" />
<glyph unicode="&#x165;" horiz-adv-x="275" d="M117 413l11 59q12 15 36 40.5t29 25.5q9 0 17 -6l-22 -119h75q5 0 5 -12q0 -11 -9 -25h-78l-53 -270q-4 -20 -4 -32q0 -25 10 -25q5 0 12.5 4t14.5 10t15 14t13.5 14t10.5 11l4 5q2 0 6 -7.5t4 -11.5q-12 -21 -56 -57.5t-75 -36.5q-16 0 -25 14.5t-9 37.5q0 16 7 53 l54 277h-67q-2 0 -2 3q0 9 15 21.5t31 12.5h30zM265 604q0 28 21.5 44t52.5 16q5 -9 5 -28q0 -14 -3 -34q-6 -31 -39 -71.5t-55 -52.5q-1 -1 -7 -1q-4 0 -7 4t-3 8l12 9q11 9 22.5 26.5t11.5 38.5q0 5 -5.5 18t-5.5 23z" />
<glyph unicode="&#x166;" horiz-adv-x="588" d="M153 348h320q6 0 4 -10q-2 -12 -12 -30h-320q-6 0 -3 13q3 16 11 27zM551 655q29 0 59 15q12 6 18 2q-9 -110 -9 -172q-8 -8 -20 -7q-10 0 -12 5q1 55 -15 88.5t-49 33.5h-118l-99 -504q-12 -59 -10 -74q1 -7 24 -11.5t37 -4.5q2 -4 0.5 -14.5t-5.5 -14.5q-95 5 -108 5 t-111 -5q-3 4 -0.5 14.5t6.5 14.5q14 0 39 4.5t28 11.5q7 14 19 74l99 504h-120q-33 0 -62.5 -33.5t-50.5 -88.5q-3 -5 -14 -5q-11 -1 -17 7q28 72 58 172q8 4 20 -3q23 -14 50 -14h363z" />
<glyph unicode="&#x167;" horiz-adv-x="285" d="M54 315h228q6 0 4 -10q-2 -12 -12 -30h-228q-6 0 -3 13q3 16 11 27zM118 413l11 59q12 15 36 40.5t29 25.5q9 0 17 -6l-22 -119h75q5 0 5 -12q0 -11 -9 -25h-78l-53 -270q-4 -20 -4 -32q0 -25 10 -25q5 0 12.5 4t14.5 10t15 14t13.5 14t9.5 11l5 5q2 0 6 -7.5t4 -11.5 q-12 -21 -56 -57.5t-75 -36.5q-16 0 -25 14.5t-9 37.5q0 16 7 53l54 277h-67q-2 0 -2 3q0 9 15 21.5t31 12.5h30z" />
<glyph unicode="&#x168;" horiz-adv-x="661" d="M217 657q13 0 110 5q3 -4 0.5 -14.5t-6.5 -14.5q-14 0 -39 -4.5t-28 -11.5q-7 -14 -19 -74l-48 -247q-23 -119 5 -176q33 -66 121 -66q78 0 128.5 49t76.5 171l53 271q10 52 4 69q-3 7 -26.5 13.5t-36.5 6.5q-5 11 4 29q92 -5 100 -5q19 0 34 1t33.5 2t34.5 2 q5 -13 -5 -29q-13 0 -42 -6t-35 -14q-13 -17 -22 -68l-53 -270q-29 -146 -98 -213t-181 -67q-106 0 -158 72q-49 70 -27 183l57 292q12 59 10 74q-1 7 -24 11.5t-37 4.5q-2 4 0 14.5t6 14.5q95 -5 108 -5zM375 819q37 0 61 -14q42 -24 72 -24q32 0 65 38q6 -2 6 -10 q0 -19 -18 -37q-34 -33 -78 -33q-37 0 -61 14q-42 24 -72 24q-32 0 -65 -38q-7 2 -7 10q0 18 19 37q34 33 78 33z" />
<glyph unicode="&#x169;" horiz-adv-x="491" d="M220 584q30 0 56 -13q4 -2 17.5 -9.5t24 -10.5t23.5 -3q29 0 65 36q7 -2 6 -9q-3 -21 -21 -37q-35 -32 -78 -32q-25 0 -55 14q-2 1 -13.5 7t-17 8t-16 4.5t-20.5 2.5q-29 0 -65 -36q-6 2 -5 10q3 21 20 36q35 32 79 32zM292 99q3 15 5.5 28.5t6.5 30t6 28.5 q-24 -52 -90 -122t-111 -70q-50 0 -50 72q0 35 14 103l33 154q4 24 4 32q0 25 -10 25q-5 0 -12.5 -4t-14.5 -10t-15 -14t-13.5 -14t-10.5 -11l-4 -5q-2 0 -6 7.5t-4 11.5q13 22 54 58t72 36q16 0 27.5 -15t11.5 -37q0 -16 -7 -53l-35 -165q-7 -32 -7 -54q0 -43 19 -43 t56.5 35.5t74.5 96.5t48 119q3 18 10.5 52.5t11.5 57.5q13 4 31 4q23 0 39 -4l-62 -323q-4 -20 -4 -32q0 -25 10 -25q5 0 12.5 4t14.5 10t15 14t13.5 14t10.5 11l4 5q2 0 6 -7.5t4 -11.5q-12 -21 -56 -57.5t-75 -36.5q-16 0 -25 14.5t-9 37.5q0 16 7 53z" />
<glyph unicode="&#x16a;" horiz-adv-x="661" d="M217 657q13 0 110 5q3 -4 0.5 -14.5t-6.5 -14.5q-14 0 -39 -4.5t-28 -11.5q-7 -14 -19 -74l-48 -247q-23 -119 5 -176q33 -66 121 -66q78 0 128.5 49t76.5 171l53 271q10 52 4 69q-3 7 -26.5 13.5t-36.5 6.5q-5 11 4 29q92 -5 100 -5q19 0 34 1t33.5 2t34.5 2 q5 -13 -5 -29q-13 0 -42 -6t-35 -14q-13 -17 -22 -68l-53 -270q-29 -146 -98 -213t-181 -67q-106 0 -158 72q-49 70 -27 183l57 292q12 59 10 74q-1 7 -24 11.5t-37 4.5q-2 4 0 14.5t6 14.5q95 -5 108 -5zM544 737h-236q-3 3 -3 9t4.5 18t7.5 12h232q5 0 5 -7q0 -21 -10 -32 z" />
<glyph unicode="&#x16b;" horiz-adv-x="491" d="M292 99q3 15 5.5 28.5t6.5 30t6 28.5q-24 -52 -90 -122t-111 -70q-50 0 -50 72q0 35 14 103l33 154q4 24 4 32q0 25 -10 25q-5 0 -12.5 -4t-14.5 -10t-15 -14t-13.5 -14t-10.5 -11l-4 -5q-2 0 -6 7.5t-4 11.5q13 22 54 58t72 36q16 0 27.5 -15t11.5 -37q0 -16 -7 -53 l-35 -165q-7 -32 -7 -54q0 -43 19 -43t56.5 35.5t74.5 96.5t48 119q3 18 10.5 52.5t11.5 57.5q13 4 31 4q23 0 39 -4l-62 -323q-4 -20 -4 -32q0 -25 10 -25q5 0 12.5 4t14.5 10t15 14t13.5 14t10.5 11l4 5q2 0 6 -7.5t4 -11.5q-12 -21 -56 -57.5t-75 -36.5q-16 0 -25 14.5 t-9 37.5q0 16 7 53zM371 503h-210q-3 3 -3 9t4.5 18t7.5 12h206q5 0 5 -7q0 -21 -10 -32z" />
<glyph unicode="&#x16c;" horiz-adv-x="661" d="M217 657q13 0 110 5q3 -4 0.5 -14.5t-6.5 -14.5q-14 0 -39 -4.5t-28 -11.5q-7 -14 -19 -74l-48 -247q-23 -119 5 -176q33 -66 121 -66q78 0 128.5 49t76.5 171l53 271q10 52 4 69q-3 7 -26.5 13.5t-36.5 6.5q-5 11 4 29q92 -5 100 -5q19 0 34 1t33.5 2t34.5 2 q5 -13 -5 -29q-13 0 -42 -6t-35 -14q-13 -17 -22 -68l-53 -270q-29 -146 -98 -213t-181 -67q-106 0 -158 72q-49 70 -27 183l57 292q12 59 10 74q-1 7 -24 11.5t-37 4.5q-2 4 0 14.5t6 14.5q95 -5 108 -5zM430 776q30 0 55 15.5t37 42.5q0 2 5 2t10 -4t4 -7l-1 -3 q-1 -3 -1 -4q-13 -36 -47.5 -63t-70.5 -27q-37 0 -60.5 26.5t-22.5 64.5v6q1 3 8 7t11 4t4 -2q1 -27 20 -42.5t49 -15.5z" />
<glyph unicode="&#x16d;" horiz-adv-x="491" d="M292 99q3 15 5.5 28.5t6.5 30t6 28.5q-24 -52 -90 -122t-111 -70q-50 0 -50 72q0 35 14 103l33 154q4 24 4 32q0 25 -10 25q-5 0 -12.5 -4t-14.5 -10t-15 -14t-13.5 -14t-10.5 -11l-4 -5q-2 0 -6 7.5t-4 11.5q13 22 54 58t72 36q16 0 27.5 -15t11.5 -37q0 -16 -7 -53 l-35 -165q-7 -32 -7 -54q0 -43 19 -43t56.5 35.5t74.5 96.5t48 119q3 18 10.5 52.5t11.5 57.5q13 4 31 4q23 0 39 -4l-62 -323q-4 -20 -4 -32q0 -25 10 -25q5 0 12.5 4t14.5 10t15 14t13.5 14t10.5 11l4 5q2 0 6 -7.5t4 -11.5q-12 -21 -56 -57.5t-75 -36.5q-16 0 -25 14.5 t-9 37.5q0 16 7 53zM379 606q0 -6 -2 -10q-15 -41 -49 -70.5t-71 -29.5t-60 29t-21 72v5l1 3q3 5 10 8.5t12 0.5q1 -32 19.5 -52t47.5 -20t55 20t40 52q3 3 9.5 0t8.5 -8z" />
<glyph unicode="&#x16e;" horiz-adv-x="661" d="M217 657q13 0 110 5q3 -4 0.5 -14.5t-6.5 -14.5q-14 0 -39 -4.5t-28 -11.5q-7 -14 -19 -74l-48 -247q-23 -119 5 -176q33 -66 121 -66q78 0 128.5 49t76.5 171l53 271q10 52 4 69q-3 7 -26.5 13.5t-36.5 6.5q-5 11 4 29q92 -5 100 -5q19 0 34 1t33.5 2t34.5 2 q5 -13 -5 -29q-13 0 -42 -6t-35 -14q-13 -17 -22 -68l-53 -270q-29 -146 -98 -213t-181 -67q-106 0 -158 72q-49 70 -27 183l57 292q12 59 10 74q-1 7 -24 11.5t-37 4.5q-2 4 0 14.5t6 14.5q95 -5 108 -5zM382 818q-4 -23 8 -39.5t33 -16.5t38.5 16.5t22.5 39.5t-6.5 39 t-32.5 16t-40 -16t-23 -39zM351 818q7 37 37 63t64 26t52.5 -26t10.5 -63t-36.5 -63.5t-61.5 -26.5q-34 0 -53.5 26.5t-12.5 63.5z" />
<glyph unicode="&#x16f;" horiz-adv-x="491" d="M227 586q-4 -23 7.5 -39.5t32.5 -16.5t39.5 16.5t22.5 39.5t-7.5 39t-32.5 16t-39.5 -16t-22.5 -39zM196 586q7 37 36.5 63t63.5 26t52.5 -26t10.5 -63t-36.5 -63.5t-61.5 -26.5q-34 0 -53 26.5t-12 63.5zM292 99q3 15 5.5 28.5t6.5 30t6 28.5q-24 -52 -90 -122t-111 -70 q-50 0 -50 72q0 35 14 103l33 154q4 24 4 32q0 25 -10 25q-5 0 -12.5 -4t-14.5 -10t-15 -14t-13.5 -14t-10.5 -11l-4 -5q-2 0 -6 7.5t-4 11.5q13 22 54 58t72 36q16 0 27.5 -15t11.5 -37q0 -16 -7 -53l-35 -165q-7 -32 -7 -54q0 -43 19 -43t56.5 35.5t74.5 96.5t48 119 q3 18 10.5 52.5t11.5 57.5q13 4 31 4q23 0 39 -4l-62 -323q-4 -20 -4 -32q0 -25 10 -25q5 0 12.5 4t14.5 10t15 14t13.5 14t10.5 11l4 5q2 0 6 -7.5t4 -11.5q-12 -21 -56 -57.5t-75 -36.5q-16 0 -25 14.5t-9 37.5q0 16 7 53z" />
<glyph unicode="&#x170;" horiz-adv-x="661" d="M217 657q13 0 110 5q3 -4 0.5 -14.5t-6.5 -14.5q-14 0 -39 -4.5t-28 -11.5q-7 -14 -19 -74l-48 -247q-23 -119 5 -176q33 -66 121 -66q78 0 128.5 49t76.5 171l53 271q10 52 4 69q-3 7 -26.5 13.5t-36.5 6.5q-5 11 4 29q92 -5 100 -5q19 0 34 1t33.5 2t34.5 2 q5 -13 -5 -29q-13 0 -42 -6t-35 -14q-13 -17 -22 -68l-53 -270q-29 -146 -98 -213t-181 -67q-106 0 -158 72q-49 70 -27 183l57 292q12 59 10 74q-1 7 -24 11.5t-37 4.5q-2 4 0 14.5t6 14.5q95 -5 108 -5zM474 718q-1 0 -3.5 4t-2.5 6q0 5 43.5 43t62.5 50q8 5 27 5 q21 0 34.5 -6.5t13.5 -15.5q0 -16 -79.5 -51t-95.5 -35zM329 718q-1 0 -3.5 4t-2.5 6q0 5 43.5 43t62.5 50q7 5 27 5q21 0 34.5 -6.5t13.5 -15.5q0 -16 -79.5 -51t-95.5 -35z" />
<glyph unicode="&#x171;" horiz-adv-x="491" d="M292 99q3 15 5.5 28.5t6.5 30t6 28.5q-24 -52 -90 -122t-111 -70q-50 0 -50 72q0 35 14 103l33 154q4 24 4 32q0 25 -10 25q-5 0 -12.5 -4t-14.5 -10t-15 -14t-13.5 -14t-10.5 -11l-4 -5q-2 0 -6 7.5t-4 11.5q13 22 54 58t72 36q16 0 27.5 -15t11.5 -37q0 -16 -7 -53 l-35 -165q-7 -32 -7 -54q0 -43 19 -43t56.5 35.5t74.5 96.5t48 119q3 18 10.5 52.5t11.5 57.5q13 4 31 4q23 0 39 -4l-62 -323q-4 -20 -4 -32q0 -25 10 -25q5 0 12.5 4t14.5 10t15 14t13.5 14t10.5 11l4 5q2 0 6 -7.5t4 -11.5q-12 -21 -56 -57.5t-75 -36.5q-16 0 -25 14.5 t-9 37.5q0 16 7 53zM183 502q-2 0 -5 4t-3 6q0 6 42.5 55t52.5 56q14 10 37 10q13 0 26 -7.5t13 -22.5q0 -13 -75 -57t-88 -44zM309 502q-2 0 -5 4t-3 6q0 6 42.5 55t52.5 56q14 10 37 10q13 0 26 -7.5t13 -22.5q0 -13 -75 -57t-88 -44z" />
<glyph unicode="&#x172;" horiz-adv-x="682" d="M271 -139q0 -32 31 -32q21 0 40 9.5t30.5 19t12.5 9.5q5 -1 1 -14t-7 -16q-60 -67 -111 -67q-22 0 -36.5 17t-14.5 38q0 36 39 88.5t84 86.5q-24 -4 -56 -4q-112 0 -162 78q-44 69 -23 177l57 292q12 59 10 74q-1 7 -24 11.5t-37 4.5q-2 4 0 14.5t6 14.5q95 -5 108 -5 t110 5q3 -4 0.5 -14.5t-6.5 -14.5q-14 0 -39 -4.5t-28 -11.5q-7 -14 -19 -74l-48 -247q-22 -115 4 -174q30 -68 122 -68q177 0 223 220l53 271q10 52 4 69q-3 7 -26.5 13.5t-36.5 6.5q-5 11 4 29q93 -5 102 -5q19 0 34 1t33.5 2t34.5 2q5 -13 -5 -29q-13 0 -42 -6t-35 -14 q-13 -17 -22 -68l-53 -270q-32 -162 -134 -233q-178 -124 -178 -182z" />
<glyph unicode="&#x173;" horiz-adv-x="490" d="M199 -180q0 35 33 84.5t75 91.5q-23 9 -23 50q4 32 8 53q3 15 5.5 28.5t6.5 30t6 28.5q-24 -52 -90 -122t-111 -70q-50 0 -50 72q0 35 14 103l33 154q4 24 4 32q0 25 -10 25q-5 0 -12.5 -4t-14.5 -10t-15 -14t-13.5 -14t-10.5 -11l-4 -5q-2 0 -6 7.5t-4 11.5q13 22 54 58 t72 36q16 0 27.5 -15t11.5 -37q0 -16 -7 -53l-35 -165q-7 -32 -7 -54q0 -43 19 -43t56.5 35.5t74.5 96.5t48 119q8 44 22 110q13 4 31 4q23 0 39 -4l-62 -323l-3 -18t-2 -14q0 -25 10 -25q5 0 12.5 4t14.5 10t15 14t13.5 14t9.5 11l5 5q2 0 6 -7.5t4 -11.5q-11 -21 -63 -63 q-133 -108 -133 -164q0 -32 31 -32q21 0 40 9.5t30.5 19t12.5 9.5q5 -1 1 -14t-7 -16q-60 -67 -111 -67q-22 0 -36.5 14.5t-14.5 35.5z" />
<glyph unicode="&#x174;" horiz-adv-x="841" d="M172 657q18 0 113 5q1 -5 -2 -16.5t-6 -12.5q-7 0 -18.5 -2t-26.5 -10t-17 -21q-1 -7 2 -55q6 -102 30 -400l229 484q7 14 19.5 23.5t20.5 9.5q4 0 8 -16q5 -52 59 -502l171 380q19 42 24 70q3 14 -9.5 24t-25 12.5t-21.5 2.5q-3 1 -0.5 13t6.5 16q85 -5 99 -5q19 0 33 1 t29.5 2t29.5 2q1 -4 -2 -16.5t-5 -12.5q-8 0 -29.5 -7.5t-35.5 -18.5q-20 -16 -48 -76l-233 -499q-6 -13 -19.5 -23.5t-22.5 -10.5q-6 0 -6 16q-8 72 -61 497l-228 -479q-6 -13 -19 -23.5t-22 -10.5q-7 0 -7 16l-48 518q0 4 -1 14t-1 13.5t-1 11t-1.5 10.5t-1.5 8.5t-2.5 9 t-3.5 7.5t-5 7q-7 9 -23.5 14.5t-27.5 5.5q-1 0 0 7t3 14t3 8q15 -1 33.5 -2t33.5 -2t34 -1zM570 836q6 0 10 -7q34 -55 78 -108q-2 -10 -15 -10l-89 59q-72 -35 -120 -59q-12 0 -10 10q70 53 132 108q9 7 14 7z" />
<glyph unicode="&#x175;" horiz-adv-x="629" d="M406 629q5 0 9 -8q32 -60 68 -116q-2 -11 -13 -11l-78 64q-66 -39 -105 -64q-4 0 -7 3.5t-2 7.5q71 68 116 116q8 8 12 8zM385 375q3 -135 6 -192q4 -90 15 -107q76 66 107 153q14 38 14 104q0 37 -26 63q5 15 18 27t29 12q27 0 41 -22t14 -58q0 -59 -51.5 -147 t-115 -151t-97.5 -63q-5 5 -12 66.5t-8 89.5l-2 64q-154 -220 -202 -220q-8 9 -8 154v207q0 25 -10 25q-5 0 -12.5 -4t-14.5 -10t-15 -14t-13.5 -14t-9.5 -11l-5 -5q-2 0 -6 7.5t-4 11.5q13 22 54 58t72 36q16 0 27.5 -16t11.5 -38v-53v-152q0 -58 4 -86q50 54 113 165 q17 31 43 92q18 22 43 28z" />
<glyph unicode="&#x176;" horiz-adv-x="556" d="M211 116l29 151q2 17 -1 28l-83 253q-15 46 -48 69q-22 16 -49 16q-2 1 -2 6.5t2.5 13t5.5 9.5q113 -5 115 -5q25 0 120 5q1 -5 -1.5 -17t-5.5 -12q-17 0 -38 -7.5t-24 -24.5q-2 -8 5 -30l81 -240q136 190 175 261q5 7 6 15q1 4 -3.5 9.5t-20 10.5t-39.5 5q-2 2 0 14 t4 15q85 -5 93 -5t103 5q0 -3 -3 -16t-5 -13q-60 0 -89 -40l-205 -291q-4 -6 -10 -31l-31 -154q-12 -59 -10 -74q1 -7 24 -11.5t37 -4.5q2 -4 0.5 -14.5t-5.5 -14.5q-95 5 -108 5q-14 0 -111 -5q-3 4 -0.5 14.5t6.5 14.5q14 0 39 4.5t28 11.5q7 14 19 74zM410 836q6 0 10 -7 q34 -55 78 -108q-2 -10 -15 -10l-89 59q-72 -35 -120 -59q-12 0 -10 10q70 53 132 108q9 7 14 7z" />
<glyph unicode="&#x177;" horiz-adv-x="447" d="M283 641q5 0 9 -8q32 -60 68 -116q-2 -11 -13 -11l-78 64q-66 -39 -105 -64q-4 0 -7 3.5t-2 7.5q71 68 116 116q8 8 12 8zM132 435q30 0 50 -53.5t27.5 -137t9.5 -134.5t2 -95q40 49 77.5 123.5t37.5 146.5q0 59 -25 107q13 43 50 43q44 0 44 -79q0 -110 -86 -252.5 t-194.5 -239.5t-175.5 -97q-26 0 -43 12t-17 29q0 32 23 44q11 -7 37 -13t43 -6q79 0 136 83q7 10 11 23t5.5 32t2 29.5t0 34.5t-0.5 27q0 49 -2.5 99t-9 102t-19 84.5t-29.5 32.5q-5 0 -12.5 -4t-14.5 -10t-15 -14t-13.5 -14t-10.5 -11l-4 -5q-2 0 -6 7.5t-4 11.5 q13 22 54 58t72 36z" />
<glyph unicode="&#x178;" horiz-adv-x="556" d="M211 116l29 151q2 17 -1 28l-83 253q-15 46 -48 69q-22 16 -49 16q-2 1 -2 6.5t2.5 13t5.5 9.5q113 -5 115 -5q25 0 120 5q1 -5 -1.5 -17t-5.5 -12q-17 0 -38 -7.5t-24 -24.5q-2 -8 5 -30l81 -240q136 190 175 261q5 7 6 15q1 4 -3.5 9.5t-20 10.5t-39.5 5q-2 2 0 14 t4 15q85 -5 93 -5t103 5q0 -3 -3 -16t-5 -13q-60 0 -89 -40l-205 -291q-4 -6 -10 -31l-31 -154q-12 -59 -10 -74q1 -7 24 -11.5t37 -4.5q2 -4 0.5 -14.5t-5.5 -14.5q-95 5 -108 5q-14 0 -111 -5q-3 4 -0.5 14.5t6.5 14.5q14 0 39 4.5t28 11.5q7 14 19 74zM420 778 q4 21 20 35.5t36 14.5q19 0 30 -14.5t7 -35.5t-20 -35.5t-36 -14.5q-19 0 -30 14.5t-7 35.5zM252 778q4 21 20 35.5t36 14.5q19 0 30 -14.5t7 -35.5t-20.5 -35.5t-36.5 -14.5q-19 0 -29.5 14.5t-6.5 35.5z" />
<glyph unicode="&#x179;" horiz-adv-x="602" d="M279 629q-46 0 -86 -37t-68 -100q-3 -4 -11 -4q-18 0 -23 8q32 59 64 173q51 -8 75 -8h181q65 0 197 10q4 -1 8.5 -9t3.5 -13q-2 -4 -85 -105.5t-210 -252t-222 -259.5h244q61 0 110 53q9 10 18.5 23t13.5 20.5t13.5 24.5t10.5 19q1 3 13 3q14 0 21 -9q-47 -98 -73 -166 h-470q-8 0 -13 5t-1 9l518 616zM341 711q-1 0 -3.5 4t-2.5 6q0 5 43.5 43t62.5 50q7 5 27 5q21 0 34.5 -6.5t13.5 -15.5q0 -16 -79.5 -51t-95.5 -35z" />
<glyph unicode="&#x17a;" horiz-adv-x="387" d="M145 435q21 0 77 -20q31 -11 56 -11q22 0 56 16l34 15q11 -5 11 -20q0 -5 -44.5 -56t-97.5 -109t-99 -107.5t-46 -50.5q22 11 46 11q26 0 62 -17q40 -17 53 -17q9 0 19.5 9.5t17 20t13.5 23.5t8 14q10 0 12 -16q-54 -120 -105 -120q-23 0 -80 22q-27 10 -71 10 q-13 0 -24.5 -5.5t-23.5 -14.5t-18 -12q-9 3 -11 19q0 7 75 89t151 163t76 82q-32 -21 -63 -21q-21 0 -61 17q-36 17 -54 17q-10 0 -20.5 -10t-17 -20.5t-13.5 -23.5t-8 -14q-10 0 -12 16q8 27 40 74t62 47zM221 502q-2 0 -5 4t-3 6q0 6 42.5 55t52.5 56q14 10 37 10 q13 0 26 -7.5t13 -22.5q0 -13 -75 -57t-88 -44z" />
<glyph unicode="&#x17b;" horiz-adv-x="602" d="M279 629q-46 0 -86 -37t-68 -100q-3 -4 -11 -4q-18 0 -23 8q32 59 64 173q51 -8 75 -8h181q65 0 197 10q4 -1 8.5 -9t3.5 -13q-2 -4 -85 -105.5t-210 -252t-222 -259.5h244q61 0 110 53q9 10 18.5 23t13.5 20.5t13.5 24.5t10.5 19q1 3 13 3q14 0 21 -9q-47 -98 -73 -166 h-470q-8 0 -13 5t-1 9l518 616zM361 778q4 21 20.5 35.5t36.5 14.5q19 0 29.5 -14.5t6.5 -35.5t-20 -35.5t-36 -14.5q-19 0 -30 14.5t-7 35.5z" />
<glyph unicode="&#x17c;" horiz-adv-x="387" d="M145 435q21 0 77 -20q31 -11 56 -11q22 0 56 16l34 15q11 -5 11 -20q0 -5 -44.5 -56t-97.5 -109t-99 -107.5t-46 -50.5q22 11 46 11q26 0 62 -17q40 -17 53 -17q9 0 19.5 9.5t17 20t13.5 23.5t8 14q10 0 12 -16q-54 -120 -105 -120q-23 0 -80 22q-27 10 -71 10 q-13 0 -24.5 -5.5t-23.5 -14.5t-18 -12q-9 3 -11 19q0 7 75 89t151 163t76 82q-32 -21 -63 -21q-21 0 -61 17q-36 17 -54 17q-10 0 -20.5 -10t-17 -20.5t-13.5 -23.5t-8 -14q-10 0 -12 16q8 27 40 74t62 47zM214 596q4 21 20.5 35.5t36.5 14.5q19 0 29.5 -14.5t6.5 -35.5 t-20 -35.5t-36 -14.5q-19 0 -30 14.5t-7 35.5z" />
<glyph unicode="&#x17d;" horiz-adv-x="602" d="M279 629q-46 0 -86 -37t-68 -100q-3 -4 -11 -4q-18 0 -23 8q32 59 64 173q51 -8 75 -8h181q65 0 197 10q4 -1 8.5 -9t3.5 -13q-2 -4 -85 -105.5t-210 -252t-222 -259.5h244q61 0 110 53q9 10 18.5 23t13.5 20.5t13.5 24.5t10.5 19q1 3 13 3q14 0 21 -9q-47 -98 -73 -166 h-470q-8 0 -13 5t-1 9l518 616zM373 711q-7 0 -10 7q-19 33 -78 108q2 10 15 10l89 -59q75 36 120 59q12 0 10 -10q-94 -73 -132 -108q-9 -7 -14 -7z" />
<glyph unicode="&#x17e;" horiz-adv-x="387" d="M245 496q-5 0 -9 8q-32 60 -68 116q2 11 13 11l78 -64q66 39 105 64q4 0 7 -3.5t2 -7.5q-71 -68 -116 -116q-8 -8 -12 -8zM145 435q21 0 77 -20q31 -11 56 -11q22 0 56 16l34 15q11 -5 11 -20q0 -5 -44.5 -56t-97.5 -109t-99 -107.5t-46 -50.5q22 11 46 11q26 0 62 -17 q40 -17 53 -17q9 0 19.5 9.5t17 20t13.5 23.5t8 14q10 0 12 -16q-54 -120 -105 -120q-23 0 -80 22q-27 10 -71 10q-13 0 -24.5 -5.5t-23.5 -14.5t-18 -12q-9 3 -11 19q0 7 75 89t151 163t76 82q-32 -21 -63 -21q-21 0 -61 17q-36 17 -54 17q-10 0 -20.5 -10t-17 -20.5 t-13.5 -23.5t-8 -14q-10 0 -12 16q8 27 40 74t62 47z" />
<glyph unicode="&#x17f;" horiz-adv-x="296" d="M196 376q-35 -207 -59 -333q-23 -120 -84 -198t-123 -78q-41 0 -54 25q0 11 1 16q6 40 29 40q17 0 38 -23q15 -15 29 -15q28 0 46.5 50.5t43.5 178.5l60 337h-85q-2 0 -2 3q0 9 15 21.5t31 12.5h47q23 119 84 195.5t123 76.5q41 0 54 -25v-9q-4 -47 -30 -47q-17 0 -38 23 q-15 15 -29 15q-30 0 -52 -67.5t-45 -198.5z" />
<glyph unicode="&#x1a0;" horiz-adv-x="710" d="M406 635q-98 0 -174.5 -107t-76.5 -260q0 -47 8 -88t26.5 -79.5t54 -60.5t84.5 -22q73 0 131.5 57t88.5 142t30 176q0 41 -7.5 79t-25 77t-53.5 62.5t-86 23.5zM645 592q17 0 29.5 10t12.5 25q0 3 -9 21q-7 16 -7 22q0 17 16.5 27.5t32.5 10.5q12 0 22 -4q10 -17 10 -34 q0 -44 -40.5 -76.5t-78.5 -32.5q-9 0 -14 1q53 -75 53 -180q0 -172 -103 -282.5t-250 -110.5q-118 0 -188 81t-70 203q0 168 106.5 280t247.5 112q72 0 129 -33q2 -1 15 -8.5t15.5 -9t13 -7t15 -7t13 -4t15.5 -3.5t14 -1z" />
<glyph unicode="&#x1a1;" horiz-adv-x="414" d="M237 403q-58 0 -96.5 -80t-38.5 -165q0 -60 15 -95.5t42 -35.5q39 0 70 41.5t46 96.5t15 108q0 130 -53 130zM374 381q30 0 30 26q0 7 -3 19.5t-3 17.5q0 15 11.5 26t27.5 11q17 0 31 -8q4 -12 4 -24q0 -39 -29 -67.5t-67 -28.5q-7 0 -17 2q9 -30 9 -67 q0 -106 -71.5 -199.5t-156.5 -93.5q-58 0 -87 38t-29 105q0 107 71 202t156 95q39 0 69 -21q6 -4 16.5 -14t19 -14.5t18.5 -4.5z" />
<glyph unicode="&#x1af;" horiz-adv-x="661" d="M641 613q-17 -18 -26 -67l-53 -270q-29 -146 -98 -213t-181 -67q-106 0 -158 72q-49 70 -27 183l57 292q12 59 10 74q-1 7 -24 11.5t-37 4.5q-2 4 0 14.5t6 14.5q95 -5 108 -5t110 5q3 -4 0.5 -14.5t-6.5 -14.5q-14 0 -39 -4.5t-28 -11.5q-7 -14 -19 -74l-48 -247 q-23 -119 5 -176q33 -66 121 -66q78 0 128.5 49t76.5 171l53 271q10 52 4 69q-3 7 -26.5 13.5t-36.5 6.5q-5 11 4 29q92 -5 100 -5q90 0 90 26q0 3 -9 21q-7 16 -7 22q0 17 16.5 27.5t32.5 10.5q12 0 22 -4q10 -17 10 -34q0 -36 -31.5 -63.5t-68.5 -36.5q-23 -5 -31 -14z " />
<glyph unicode="&#x1b0;" horiz-adv-x="491" d="M422 435q15 0 28.5 8t13.5 20q0 7 -3 19.5t-3 17.5q0 15 11.5 26t27.5 11q17 0 31 -8q4 -12 4 -24q0 -39 -29 -67.5t-67 -28.5q-15 0 -16 -10l-56 -293q-4 -20 -4 -32q0 -25 10 -25q5 0 12.5 4t14.5 10t15 14t13.5 14t10.5 11l4 5q2 0 6 -7.5t4 -11.5q-12 -21 -56 -57.5 t-75 -36.5q-16 0 -25 14.5t-9 37.5q0 16 7 53q3 15 5.5 28.5t6.5 30t6 28.5q-24 -52 -90 -122t-111 -70q-50 0 -50 72q0 35 14 103l33 154q4 24 4 32q0 25 -10 25q-5 0 -12.5 -4t-14.5 -10t-15 -14t-13.5 -14t-10.5 -11l-4 -5q-2 0 -6 7.5t-4 11.5q13 22 54 58t72 36 q16 0 27.5 -15t11.5 -37q0 -16 -7 -53l-35 -165q-7 -32 -7 -54q0 -43 19 -43t56.5 35.5t74.5 96.5t48 119q3 18 10.5 52.5t11.5 57.5q20 6 66 6z" />
<glyph unicode="&#x1e6;" horiz-adv-x="697" d="M585 494q4 59 -40.5 100t-108.5 41q-120 0 -201.5 -97t-80.5 -256q0 -64 19 -121t66.5 -98.5t115.5 -41.5q61 0 112 34q8 6 10 17l20 103q12 59 10 74q-1 7 -26 11.5t-40 4.5q-2 4 -0.5 14.5t5.5 14.5q95 -5 108 -5q12 0 110 5q3 -4 1.5 -14.5t-5.5 -14.5 q-14 0 -37.5 -4.5t-26.5 -11.5q-7 -14 -19 -74l-14 -71q-3 -9 -0.5 -22t2.5 -14q0 -11 -22 -22q-36 -19 -52.5 -26.5t-63 -17.5t-103.5 -10q-114 0 -189.5 80t-75.5 193q0 121 58.5 215t150.5 141t197 45q59 -1 161 -26q-1 -21 -5.5 -82.5t-4.5 -63.5q0 -5 -8 -5 q-13 0 -23 5zM444 711q-6 0 -10 7q-19 33 -78 108q2 10 15 10l89 -59q75 36 120 59q12 0 10 -10q-94 -73 -132 -108q-9 -7 -14 -7z" />
<glyph unicode="&#x1e7;" horiz-adv-x="412" d="M210 495q-5 0 -9 8q-32 60 -68 116q2 11 13 11l78 -64q66 39 105 64q4 0 7 -3.5t2 -7.5q-71 -68 -116 -116q-8 -8 -12 -8zM278 -118q0 22 -14 41t-41 32.5t-47 21.5t-49 17q-101 -43 -101 -104q0 -88 143 -88q49 0 79 23.5t30 56.5zM212 407q-45 0 -71.5 -51t-26.5 -109 q0 -40 16 -68t46 -28q45 0 71 45t26 98q0 41 -17 77t-44 36zM333 381q0 -1 4 -13.5t7 -28t3 -27.5q0 -37 -10.5 -68.5t-28 -51.5t-29 -30t-23.5 -17t-43.5 -19.5t-51.5 -23t-20 -20.5t31.5 -22.5t69 -25.5t69 -42.5t31.5 -69.5q0 -71 -63.5 -113t-170.5 -42q-69 0 -112.5 26 t-43.5 72q0 75 144 141l-18 12q-25 17 -25 36q0 17 35.5 39t64.5 29q-32 0 -72.5 32t-40.5 85q0 82 58.5 139.5t130.5 57.5q39 0 85 -22q6 -3 18.5 0t26.5 8.5t18 6.5q12 -4 26.5 -15t14.5 -20q0 -14 -12 -14q-2 0 -33.5 1t-39.5 0z" />
<glyph unicode="&#x218;" horiz-adv-x="472" d="M101 -108q0 23 27.5 39t58.5 16q13 -10 13 -41q0 -37 -32 -79t-62 -58q-2 -2 -8 -2q-18 0 -18 7q0 2 11 8.5t23.5 20.5t16.5 32q3 16 -13.5 30.5t-16.5 26.5zM312 666q21 0 40.5 -2.5t30 -4.5t34 -8.5t32.5 -8.5q-6 -70 -21 -144q-1 -7 -10 -7q-14 0 -21 7q4 63 -19 100 t-74 37q-57 0 -90.5 -36t-33.5 -79q0 -24 5.5 -42.5t21 -36.5t23.5 -26t34 -27.5t31 -23.5q7 -5 32.5 -24t36 -29t27 -29t23.5 -40.5t7 -48.5q0 -88 -70.5 -144.5t-157.5 -56.5q-74 0 -147 42q-9 36 -11.5 86.5t-0.5 63.5q4 6 25 6q7 0 10 -6q0 -32 12.5 -67t45 -65 t78.5 -30q52 0 89.5 34t37.5 91q0 34 -15.5 62.5t-31 43t-48.5 41.5q-11 8 -36.5 26.5t-38 29.5t-29 30t-24 43t-7.5 53q0 81 67 135.5t143 54.5z" />
<glyph unicode="&#x219;" horiz-adv-x="322" d="M55 -108q0 23 27.5 39t58.5 16q13 -10 13 -41q0 -37 -32 -79t-62 -58q-2 -2 -8 -2q-18 0 -18 7q0 2 11 8.5t23.5 20.5t16.5 32q3 16 -13.5 30.5t-16.5 26.5zM199 438q55 0 86 -27q10 -14 10 -32q0 -17 -9.5 -29t-24.5 -12q-22 0 -47 35q-1 1 -3.5 5t-3.5 5.5t-3.5 4.5 t-4 4.5t-4.5 4t-5.5 3.5t-6 2t-7.5 1.5t-9 0.5q-24 0 -36.5 -18.5t-12.5 -37.5q0 -11 3 -22t12 -23.5t13.5 -18.5t19.5 -22t18 -20q61 -71 61 -125q0 -55 -40.5 -89t-104.5 -34q-53 0 -88 30q-10 17 -10 30q0 21 10.5 33.5t26.5 12.5q9 0 15 -5t16 -21t12 -19q21 -29 53 -29 q27 0 38 18.5t11 39.5q0 16 -9.5 34.5t-16 26.5t-26.5 31q-24 27 -35.5 41.5t-24 41t-12.5 53.5q0 46 40 86t99 40z" />
<glyph unicode="&#x21a;" horiz-adv-x="587" d="M168 -108q0 23 27.5 39t58.5 16q13 -10 13 -41q0 -37 -32 -79t-62 -58q-2 -2 -8 -2q-18 0 -18 7q0 2 11 8.5t23.5 20.5t16.5 32q3 16 -13.5 30.5t-16.5 26.5zM550 655q29 0 59 15q12 6 18 2q-9 -110 -9 -172q-8 -8 -20 -7q-10 0 -12 5q1 55 -15 88.5t-49 33.5h-118 l-99 -504q-12 -59 -10 -74q1 -7 24 -11.5t37 -4.5q2 -4 0.5 -14.5t-5.5 -14.5q-95 5 -108 5t-111 -5q-3 4 -0.5 14.5t6.5 14.5q14 0 39 4.5t28 11.5q7 14 19 74l99 504h-120q-33 0 -62.5 -33.5t-50.5 -88.5q-3 -5 -14 -5q-11 -1 -17 7q28 72 58 172q8 4 20 -3q23 -14 50 -14 h363z" />
<glyph unicode="&#x21b;" horiz-adv-x="278" d="M83 -108q0 23 27.5 39t58.5 16q13 -10 13 -41q0 -37 -32 -79t-62 -58q-2 -2 -8 -2q-18 0 -18 7q0 2 11 8.5t23.5 20.5t16.5 32q3 16 -13.5 30.5t-16.5 26.5zM117 413l11 59q12 15 36 40.5t29 25.5q9 0 17 -6l-22 -119h75q5 0 5 -12q0 -11 -9 -25h-78l-53 -270 q-4 -20 -4 -32q0 -25 10 -25q5 0 12.5 4t14.5 10t15 14t13.5 14t10.5 11l4 5q2 0 6 -7.5t4 -11.5q-12 -21 -56 -57.5t-75 -36.5q-16 0 -25 14.5t-9 37.5q0 16 7 53l54 277h-67q-2 0 -2 3q0 9 15 21.5t31 12.5h30z" />
<glyph unicode="&#x237;" horiz-adv-x="249" d="M117 323q4 24 4 32q0 25 -10 25q-5 0 -12.5 -4t-14.5 -10t-15 -14t-13.5 -14t-9.5 -11l-5 -5q-2 0 -6 7.5t-4 11.5q13 22 54 58t72 36q16 0 27.5 -15t11.5 -37q0 -16 -7 -53l-55 -285q-20 -101 -71 -169q-29 -38 -69 -68.5t-70 -42.5q-9 7 -9 20q50 29 88 91.5t54 145.5z " />
<glyph unicode="&#x2bb;" horiz-adv-x="180" d="M129 513q0 -23 -27.5 -39t-58.5 -16q-13 10 -13 41q0 37 32 79t62 58q2 2 8 2q18 0 18 -7q0 -2 -11 -8.5t-23.5 -20.5t-16.5 -32q-3 -16 13.5 -30.5t16.5 -26.5z" />
<glyph unicode="&#x2bc;" horiz-adv-x="174" d="M65 592q0 28 21.5 44t52.5 16q5 -9 5 -28q0 -14 -3 -34q-6 -31 -39 -71.5t-55 -52.5q-1 -1 -7 -1q-4 0 -7 4t-3 8l12 9q11 9 22.5 26.5t11.5 38.5q0 5 -5.5 18t-5.5 23z" />
<glyph unicode="&#x2be;" horiz-adv-x="195" d="M29 472q35 0 63 28.5t36 67.5q9 43 -8 69.5t-57 26.5q-6 17 9 34q55 0 86.5 -38t20.5 -91t-58 -92t-101 -39q-2 15 9 34z" />
<glyph unicode="&#x2bf;" horiz-adv-x="195" d="M132 472q3 -23 -3 -34q-55 0 -87.5 39t-21.5 92t56.5 91t100.5 38q7 -19 -3 -34q-40 0 -67 -26.5t-36 -69.5q-8 -39 9.5 -67.5t51.5 -28.5z" />
<glyph unicode="&#x2c0;" horiz-adv-x="188" d="M76 607q-13 0 -24.5 -6t-15.5 -11q-6 2 -6 11q0 12 22 26.5t43 14.5q28 0 45.5 -14.5t17.5 -37.5q0 -8 -2.5 -15t-8 -13t-9.5 -10t-13 -8.5t-12 -6.5t-13 -6l-10 -4q-14 -6 -14 -17q0 -8 5 -15q-8 -8 -19 -8q-18 7 -18 28q0 4 1.5 7.5t3.5 6t6.5 5.5t6.5 4t8.5 3.5 t7.5 3.5q18 8 26.5 15t8.5 19q0 13 -11.5 20.5t-25.5 7.5z" />
<glyph unicode="&#x2c6;" horiz-adv-x="246" d="M148 625q5 0 9 -8q32 -60 68 -116q-2 -11 -13 -11l-78 64q-66 -39 -105 -64q-4 0 -7 3.5t-2 7.5q71 68 116 116q8 8 12 8z" />
<glyph unicode="&#x2c7;" horiz-adv-x="245" d="M97 493q-5 0 -9 8q-32 60 -68 116q2 11 13 11l78 -64q66 39 105 64q4 0 7 -3.5t2 -7.5q-71 -68 -116 -116q-8 -8 -12 -8z" />
<glyph unicode="&#x2d8;" horiz-adv-x="243" d="M223 600q0 -6 -2 -10q-15 -41 -49 -70.5t-71 -29.5t-60 29t-21 72v5l1 3q3 5 10 8.5t12 0.5q1 -32 19.5 -52t47.5 -20t55 20t40 52q3 3 9.5 0t8.5 -8z" />
<glyph unicode="&#x2d9;" horiz-adv-x="134" d="M21 540q4 21 20.5 35.5t36.5 14.5q19 0 29.5 -14.5t6.5 -35.5t-20 -35.5t-36 -14.5q-19 0 -30 14.5t-7 35.5z" />
<glyph unicode="&#x2da;" horiz-adv-x="456" d="M638 580q-4 -23 7.5 -39.5t32.5 -16.5t39.5 16.5t22.5 39.5t-7.5 39t-32.5 16t-39.5 -16t-22.5 -39zM607 580q7 37 36.5 63t63.5 26t52.5 -26t10.5 -63t-36.5 -63.5t-61.5 -26.5q-34 0 -53 26.5t-12 63.5z" />
<glyph unicode="&#x2db;" horiz-adv-x="459" d="M626 42q29 0 28 -10q0 -3 -4 -7q-3 -2 -44 -29t-70 -55t-34 -57q-1 -8 -1 -17.5t8 -17.5t23 -8q21 0 40 9.5t30.5 19t12.5 9.5q5 0 2 -13q-2 -11 -8 -17q-60 -67 -111 -67q-35 0 -45.5 25t-5.5 52q9 45 82 114t97 69z" />
<glyph unicode="&#x2dc;" horiz-adv-x="446" d="M721 568q30 0 56 -13q4 -2 17.5 -9.5t24 -10.5t23.5 -3q29 0 65 36q7 -2 6 -9q-3 -21 -21 -37q-35 -32 -78 -32q-25 0 -55 14q-2 1 -13.5 7t-17 8t-16 4.5t-20.5 2.5q-29 0 -65 -36q-6 2 -5 10q3 21 20 36q35 32 79 32z" />
<glyph unicode="&#x2dd;" d="M587 490q-2 0 -5 4t-3 6q0 6 42.5 55t52.5 56q14 10 37 10q13 0 26 -7.5t13 -22.5q0 -13 -75 -57t-88 -44zM713 490q-2 0 -5 4t-3 6q0 6 42.5 55t52.5 56q14 10 37 10q13 0 26 -7.5t13 -22.5q0 -13 -75 -57t-88 -44z" />
<glyph unicode="&#x300;" horiz-adv-x="0" d="M-192 490q-13 0 -88 44t-75 57q0 15 13 22.5t26 7.5q23 0 37 -10q10 -7 52.5 -56t42.5 -55q0 -2 -3 -6t-5 -4z" />
<glyph unicode="&#x301;" horiz-adv-x="0" d="M-325 490q-2 0 -5 4t-3 6q0 6 42.5 55t52.5 56q14 10 37 10q13 0 26 -7.5t13 -22.5q0 -13 -75 -57t-88 -44z" />
<glyph unicode="&#x302;" horiz-adv-x="0" d="M-240 625q5 0 9 -8q32 -60 68 -116q-2 -11 -13 -11l-78 64q-66 -39 -105 -64q-4 0 -7 3.5t-2 7.5q71 68 116 116q8 8 12 8z" />
<glyph unicode="&#x303;" horiz-adv-x="0" d="M-297 568q30 0 56 -13q4 -2 17.5 -9.5t24 -10.5t23.5 -3q29 0 65 36q7 -2 6 -9q-3 -21 -21 -37q-35 -32 -78 -32q-25 0 -55 14q-2 1 -13.5 7t-17 8t-16 4.5t-20.5 2.5q-29 0 -65 -36q-6 2 -5 10q3 21 20 36q35 32 79 32z" />
<glyph unicode="&#x304;" horiz-adv-x="0" d="M-157 490h-210q-3 3 -3 9t4.5 18t7.5 12h206q5 0 5 -7q0 -21 -10 -32z" />
<glyph unicode="&#x305;" horiz-adv-x="0" d="M129 749q0 5 8.5 29t14.5 24h542q5 0 3 -9q-4 -23 -16 -47q-1 -3 -3.5 -4.5t-3.5 -1.5l-2 -1h-539z" />
<glyph unicode="&#x306;" horiz-adv-x="0" d="M-132 600q0 -6 -2 -10q-15 -41 -49 -70.5t-71 -29.5t-60 29t-21 72q0 1 1 5v3q3 5 10 8.5t12 0.5q1 -32 19.5 -52t47.5 -20t55 20t40 52q3 3 9.5 0t8.5 -8z" />
<glyph unicode="&#x307;" horiz-adv-x="0" d="M-298 540q4 21 20.5 35.5t36.5 14.5q19 0 29.5 -14.5t6.5 -35.5t-20 -35.5t-36 -14.5q-19 0 -30 14.5t-7 35.5z" />
<glyph unicode="&#x308;" horiz-adv-x="0" d="M-158 582q17 0 27 -14t6 -33t-19.5 -32t-32.5 -13t-28 13.5t-7 32.5t20.5 32.5t33.5 13.5zM-329 582q17 0 27.5 -14t6.5 -33t-19.5 -32t-32.5 -13t-28 13.5t-7 32.5t20 32.5t33 13.5z" />
<glyph unicode="&#x309;" horiz-adv-x="0" d="M-278 607q-13 0 -24.5 -6t-15.5 -11q-6 2 -6 11q0 12 22 26.5t43 14.5q28 0 45.5 -14.5t17.5 -37.5q0 -8 -2.5 -15t-8 -13t-9.5 -10t-13 -8.5t-12 -6.5t-13 -6l-10 -4q-14 -6 -14 -17q0 -8 5 -15q-8 -8 -19 -8q-18 7 -18 28q0 4 1.5 7.5t3.5 6t6.5 5.5t6.5 4t8.5 3.5 t7.5 3.5q18 8 26.5 15t8.5 19q0 13 -11.5 20.5t-25.5 7.5z" />
<glyph unicode="&#x30a;" horiz-adv-x="0" d="M-300 580q-4 -23 7.5 -39.5t32.5 -16.5t39.5 16.5t22.5 39.5t-7.5 39t-32.5 16t-39.5 -16t-22.5 -39zM-331 580q7 37 36.5 63t63.5 26t52.5 -26t10.5 -63t-36.5 -63.5t-61.5 -26.5q-34 0 -53 26.5t-12 63.5z" />
<glyph unicode="&#x30b;" horiz-adv-x="0" d="M-372 490q-2 0 -5 4t-3 6q0 6 42.5 55t52.5 56q14 10 37 10q13 0 26 -7.5t13 -22.5q0 -13 -75 -57t-88 -44zM-246 490q-2 0 -5 4t-3 6q0 6 42.5 55t52.5 56q14 10 37 10q13 0 26 -7.5t13 -22.5q0 -13 -75 -57t-88 -44z" />
<glyph unicode="&#x30c;" horiz-adv-x="0" d="M-270 493q-5 0 -9 8q-32 60 -68 116q2 11 13 11l78 -64q66 39 105 64q4 0 7 -3.5t2 -7.5q-71 -68 -116 -116q-8 -8 -12 -8z" />
<glyph unicode="&#x312;" horiz-adv-x="0" d="M210 513q0 -23 -27.5 -39t-58.5 -16q-13 10 -13 41q0 37 32 79t62 58q2 2 8 2q18 0 18 -7q0 -2 -11 -8.5t-23.5 -20.5t-16.5 -32q-3 -16 13.5 -30.5t16.5 -26.5z" />
<glyph unicode="&#x315;" horiz-adv-x="0" d="M162 592q0 28 21.5 44t52.5 16q5 -9 5 -28q0 -14 -3 -34q-6 -31 -39 -71.5t-55 -52.5q-1 -1 -7 -1q-4 0 -7 4t-3 8l11 9q12 9 23.5 26.5t11.5 38.5q0 5 -5.5 18t-5.5 23z" />
<glyph unicode="&#x323;" horiz-adv-x="0" d="M-305 -82q4 21 20 35.5t36 14.5q19 0 30 -14.5t7 -35.5t-20.5 -35.5t-36.5 -14.5q-19 0 -29.5 14.5t-6.5 35.5z" />
<glyph unicode="&#x324;" horiz-adv-x="0" d="M-158 -71q17 0 27 -14t6 -33t-19.5 -32t-32.5 -13t-28 13.5t-7 32.5t20.5 32.5t33.5 13.5zM-329 -71q17 0 27.5 -14t6.5 -33t-19.5 -32t-32.5 -13t-28 13.5t-7 32.5t20 32.5t33 13.5z" />
<glyph unicode="&#x325;" horiz-adv-x="0" d="M-300 -153q-4 -23 7.5 -39.5t32.5 -16.5t39.5 16.5t22.5 39.5t-7.5 39t-32.5 16t-39.5 -16t-22.5 -39zM-331 -153q7 37 36.5 63t63.5 26t52.5 -26t10.5 -63t-36.5 -63.5t-61.5 -26.5q-34 0 -53 26.5t-12 63.5z" />
<glyph unicode="&#x326;" horiz-adv-x="0" d="M-302 -68q0 23 27.5 39t58.5 16q13 -10 13 -41q0 -37 -32 -79t-62 -58q-2 -2 -8 -2q-18 0 -18 7q0 2 11 8.5t23.5 20.5t16.5 32q3 16 -13.5 30.5t-16.5 26.5z" />
<glyph unicode="&#x327;" horiz-adv-x="0" d="M-247 -27h23q18 0 27 -14.5t5 -34.5q-7 -34 -36 -55t-66 -21q-19 0 -30 9v14q1 5 5.5 9.5t9.5 4.5t14.5 -6.5t17.5 -6.5q19 0 32 10t15 23q3 16 -4 25t-18 9q-8 0 -26 -7q-2 0 -5.5 5t-1.5 8q5 7 20 25.5t20 25.5h19z" />
<glyph unicode="&#x328;" horiz-adv-x="0" d="M-72 42q29 0 28 -10q0 -3 -4 -7q-3 -2 -44 -29t-70 -55t-34 -57q-1 -8 -1 -17.5t8 -17.5t23 -8q21 0 40 9.5t30.5 19t12.5 9.5q5 0 2 -13q-2 -11 -8 -17q-60 -67 -111 -67q-35 0 -45.5 25t-5.5 52q9 45 82 114t97 69z" />
<glyph unicode="&#x32d;" horiz-adv-x="0" d="M-240 -63q5 0 9 -8q32 -60 68 -116q-2 -11 -13 -11l-78 64q-66 -39 -105 -64q-4 0 -7 3.5t-2 7.5q71 68 116 116q8 8 12 8z" />
<glyph unicode="&#x32e;" horiz-adv-x="0" d="M-132 -78q0 -6 -2 -10q-15 -41 -49 -70.5t-71 -29.5t-60 29t-21 72q0 1 1 5v3q3 5 10 8.5t12 0.5q1 -32 19.5 -52t47.5 -20t55 20t40 52q3 3 9.5 0t8.5 -8z" />
<glyph unicode="&#x330;" horiz-adv-x="0" d="M-297 -78q30 0 56 -13q4 -2 17.5 -9.5t24 -10.5t23.5 -3q29 0 65 36q7 -2 6 -9q-3 -21 -21 -37q-35 -32 -78 -32q-25 0 -55 14q-2 1 -13.5 7t-17 8t-16 4.5t-20.5 2.5q-29 0 -65 -36q-6 2 -5 10q3 21 20 36q35 32 79 32z" />
<glyph unicode="&#x331;" horiz-adv-x="0" d="M-157 -106h-210q-3 3 -3 9t4.5 18t7.5 12h206q5 0 5 -7q0 -21 -10 -32z" />
<glyph unicode="&#x384;" horiz-adv-x="174" d="M252 704q24 0 20 -23q-7 -33 -63 -108.5t-66 -79.5h-3q-3 0 -6.5 3t-2.5 6q2 11 27.5 75.5t45.5 101.5q5 8 20.5 16.5t27.5 8.5z" />
<glyph unicode="&#x385;" horiz-adv-x="344" d="M380 597q17 0 27 -13.5t6 -32.5t-19 -31.5t-32 -12.5t-27.5 13t-6.5 32t19.5 32t32.5 13zM183 597q17 0 27 -13.5t6 -32.5t-19 -31.5t-32 -12.5t-27.5 13t-6.5 32t19.5 32t32.5 13zM336 702q21 0 17 -22q-6 -31 -54.5 -104t-56.5 -77h-3q-2 0 -5 3t-2 6q2 11 24 73t38 97 q5 8 18 16t24 8z" />
<glyph unicode="&#x386;" horiz-adv-x="497" d="M306 939q24 0 20 -23q-7 -33 -63 -108.5t-66 -79.5h-3q-3 0 -6.5 3t-2.5 6q2 11 27.5 75.5t45.5 101.5q5 8 20.5 16.5t27.5 8.5zM-143 26q24 22 54.5 66.5t56 88t60.5 113.5t54 109t52.5 110.5t39.5 85.5q-14 24 -65 -2q-1 4 1 16q8 18 31.5 35.5t42.5 17.5q39 0 61 -40 q14 -24 23.5 -60.5t13 -64.5t9 -82.5t8.5 -79.5q33 -273 69 -335q-2 -4 -6 -8t-8 -6l-3 -2q-50 7 -66 29q-26 83 -43 272l-193 -41l-114 -248q-4 -10 -20 -10q-51 21 -58 36zM74 303l166 11q-1 9 -4.5 48t-4.5 51t-5 43t-7.5 47.5t-9 38.5t-12.5 40z" />
<glyph unicode="&#x387;" horiz-adv-x="222" d="M54 252q0 27 21 48.5t46 21.5q19 0 31 -13t12 -33q0 -28 -20.5 -49.5t-45.5 -21.5q-19 0 -31.5 13.5t-12.5 33.5z" />
<glyph unicode="&#x388;" horiz-adv-x="479" d="M490 939q24 0 20 -23q-7 -33 -63 -108.5t-66 -79.5h-3q-3 0 -6.5 3t-2.5 6q2 11 27.5 75.5t45.5 101.5q5 8 20.5 16.5t27.5 8.5zM169 43q40 0 88.5 17t77.5 34.5t34 24.5q5 -2 7 -10t1 -13q-4 -16 -34 -56t-59 -40h-257q-58 0 -71 34q12 14 27.5 55t23.5 82l79 432 q-7 29 -27 39q2 13 13 19q46 -3 96 -3q50 1 110.5 3t108.5 3q20 -38 35 -80q-2 -3 -4.5 -7.5t-4.5 -6.5t-6 -4q-43 30 -75.5 39.5t-88.5 9.5q-27 0 -91 -8q-3 -13 -10 -53t-18 -99t-19 -100h23q75 0 150 29q7 -6 13.5 -17.5t10.5 -21.5t9.5 -24t6.5 -17q0 -5 -6 -11t-11 -8 q-44 24 -102 24q-70 0 -102 -2q-3 -14 -7 -38.5t-6 -32.5q-4 -21 -14 -68.5t-14 -74t-3 -35.5q37 -15 116 -15z" />
<glyph unicode="&#x389;" horiz-adv-x="480" d="M372 939q24 0 20 -23q-7 -33 -63 -108.5t-66 -79.5h-3q-3 0 -6.5 3t-2.5 6q2 11 27.5 75.5t45.5 101.5q5 8 20.5 16.5t27.5 8.5zM426 468q-8 -43 -25 -129.5t-23 -120.5q-10 -54 -18.5 -128t-6.5 -89q-14 -17 -27 -17q-7 0 -28.5 13t-19.5 23q35 154 63 292 q-15 -1 -61 -2.5t-77.5 -2.5t-72 -4t-67.5 -8q-3 -16 -7.5 -41.5t-6.5 -35.5q-10 -55 -19 -128.5t-7 -88.5q-14 -17 -26 -17q-7 0 -29 13t-20 23q43 187 72 334q23 120 41 293q2 5 11 11t13 6q18 0 36 -12.5t16 -24.5q0 -2 -7.5 -28.5t-17.5 -64.5t-15 -66q-17 -85 -24 -121 l275 1l1 6q23 120 41 293q2 5 11 11t13 6q18 0 36 -12.5t16 -24.5q0 -2 -7.5 -28.5t-17.5 -64.5t-15 -66z" />
<glyph unicode="&#x38a;" horiz-adv-x="151" d="M191 939q24 0 20 -23q-7 -33 -63 -108.5t-66 -79.5h-3q-3 0 -6.5 3t-2.5 6q2 11 27.5 75.5t45.5 101.5q5 8 20.5 16.5t27.5 8.5zM97 468q-8 -42 -25 -129t-23 -121q-10 -54 -18.5 -128t-6.5 -89q-14 -17 -27 -17q-7 0 -29 13t-20 23q43 187 72 334q23 120 41 293 q2 5 11 11t13 6q18 0 36 -12.5t16 -24.5q0 -2 -7.5 -28.5t-17.5 -64.5t-15 -66z" />
<glyph unicode="&#x38c;" horiz-adv-x="680" d="M391 939q24 0 20 -23q-7 -33 -63 -108.5t-66 -79.5h-3q-3 0 -6.5 3t-2.5 6q2 11 27.5 75.5t45.5 101.5q5 8 20.5 16.5t27.5 8.5zM390 627q-64 0 -123 -48.5t-96 -119.5t-53 -150q-11 -71 -3.5 -133.5t46 -104.5t99.5 -42q95 0 174.5 95t102.5 215q11 73 3 137 t-47.5 107.5t-102.5 43.5zM393 667q120 0 183.5 -96.5t33.5 -251.5q-27 -139 -129 -234t-220 -95q-121 0 -183 94t-31 253q27 139 127.5 234.5t218.5 95.5z" />
<glyph unicode="&#x38e;" horiz-adv-x="507" d="M287 939q24 0 20 -23q-7 -33 -63 -108.5t-66 -79.5h-3q-3 0 -6.5 3t-2.5 6q2 11 27.5 75.5t45.5 101.5q5 8 20.5 16.5t27.5 8.5zM503 624q-96 -55 -202.5 -213.5t-119.5 -226.5q-10 -50 -15.5 -108t-3.5 -75q-14 -17 -27 -17q-7 0 -30 13t-21 23q11 55 42 160q1 4 3 10.5 t3 9.5q-14 391 -92 391q-34 0 -57 -26q-3 0 -8 12q-2 6 0 11q16 33 44.5 56.5t52.5 23.5q42 0 65.5 -122.5t25.5 -268.5q52 114 131.5 223t148.5 163q5 3 31 -6.5t27 -11.5q7 -11 2 -21z" />
<glyph unicode="&#x38f;" horiz-adv-x="689" d="M516 939q24 0 20 -23q-7 -33 -63 -108.5t-66 -79.5h-3q-3 0 -6.5 3t-2.5 6q2 11 27.5 75.5t45.5 101.5q5 8 20.5 16.5t27.5 8.5zM417 667q120 0 179.5 -95.5t32.5 -236.5q-18 -89 -76.5 -161.5t-139.5 -113.5q12 -6 67 -6q57 0 123 43q5 0 6.5 -5.5t0.5 -9.5 q-7 -12 -21 -28.5t-43.5 -35t-58.5 -18.5h-120q-15 30 -11 51q3 12 15 24q149 92 184 274q24 126 -15 202t-122 76q-65 0 -122.5 -48.5t-90 -111t-44.5 -124.5q-21 -107 3.5 -175t73.5 -98q21 -41 19 -51q-3 -12 -26 -19h-163q-7 4 -28.5 30t-24.5 34q5 11 19 11 q6 -2 21 -8.5t28 -10t31 -4.5q14 -1 31.5 0.5t28.5 3.5l10 1q-61 31 -88.5 115t-8.5 181q26 131 122 222.5t208 91.5z" />
<glyph unicode="&#x390;" horiz-adv-x="232" d="M208 594q17 0 27 -13.5t6 -32.5t-19 -31.5t-32 -12.5t-27.5 13t-6.5 32t19.5 32t32.5 13zM11 594q17 0 27 -13.5t6 -32.5t-19 -31.5t-32 -12.5t-27.5 13t-6.5 32t19.5 32t32.5 13zM164 699q21 0 17 -22q-6 -31 -54.5 -104t-56.5 -77h-3q-1 0 -3 1.5t-3.5 3.5t-0.5 4 q2 11 24 73t38 97q5 8 18 16t24 8zM65 67q29 0 59 30q2 0 5 -5t3 -9t-1 -7q-16 -34 -42.5 -57t-53.5 -23q-30 1 -42.5 27.5t-4.5 65.5q7 41 63 327q14 17 26 17q6 0 27.5 -16.5t19.5 -26.5q-11 -38 -31 -97.5t-33 -103.5t-22 -89q-3 -13 2 -21t11.5 -10t13.5 -2z" />
<glyph unicode="&#x391;" horiz-adv-x="497" d="M-60 26q24 22 54.5 66.5t56 88t60.5 113.5t54 109t52.5 110.5t39.5 85.5q-14 24 -65 -2q-1 4 1 16q8 18 31.5 35.5t42.5 17.5q39 0 61 -40q14 -24 23.5 -60.5t13 -64.5t9 -82.5t8.5 -79.5q33 -273 69 -335q-2 -4 -6 -8t-7 -6l-4 -2q-50 7 -66 29q-26 83 -43 272l-193 -41 l-114 -248q-4 -10 -20 -10q-51 21 -58 36zM157 303l166 11q-1 9 -4.5 48t-4.5 51t-5 43t-7.5 47.5t-9 38.5t-12.5 40z" />
<glyph unicode="&#x392;" horiz-adv-x="480" d="M126 603q-7 29 -27 39q2 13 13 19q46 -3 101 -3q123 0 181.5 -39t43.5 -117q-8 -43 -35.5 -76.5t-49.5 -46t-42 -19.5q18 -5 36 -15.5t39.5 -30t31 -52.5t1.5 -74q-6 -30 -20.5 -58.5t-43 -60t-81.5 -51.5t-123 -21q-5 0 -13 -1t-74 -1h-8h-11.5t-11.5 0.5t-13 2.5 t-11 4.5t-10 7t-6 10.5q12 14 27.5 55t23.5 82zM218 327q-60 0 -78 -1q-15 -80 -17 -94q-30 -163 -27 -186q21 -10 50 -10q65 0 120.5 32t70.5 107q13 66 -18.5 109t-100.5 43zM265 618q-39 2 -63 -9q-15 -47 -52 -242q1 0 13.5 -1.5t17.5 -1.5q84 0 130 39t57 95 q24 120 -103 120z" />
<glyph unicode="&#x393;" horiz-adv-x="412" d="M168 610q-5 -26 -35 -191.5t-34 -188.5q-37 -197 -32 -229q-14 -17 -26 -17q-7 0 -28 13t-19 23l112 583q-8 28 -56 41q2 13 13 19q77 -5 121 -5q54 0 129.5 2.5t113.5 3.5q24 -81 27 -132q-8 -11 -20 -14q-28 58 -60.5 79t-90.5 21q-51 0 -115 -8z" />
<glyph unicode="&#x394;" horiz-adv-x="583" d="M430 63q-58 243 -96 466q-1 1 -30.5 -47t-70.5 -116.5l-82 -137t-70 -116.5l-29 -49h378zM370 655q29 -141 74.5 -334t66.5 -288q-13 -29 -53 -37q-12 7 -57 7l-423 -3q-2 0 -4 3.5t-1 6.5q203 326 332 538q12 21 32 70q13 23 29 36q4 3 4 1z" />
<glyph unicode="&#x395;" horiz-adv-x="479" d="M206 43q40 0 88.5 17t77.5 34.5t34 24.5q5 -2 7 -10t1 -13q-4 -16 -34 -56t-59 -40h-257q-58 0 -71 34q12 14 27.5 55t23.5 82l79 432q-7 29 -27 39q2 13 13 19q46 -3 96 -3q50 1 110.5 3t108.5 3q20 -38 35 -80q-2 -3 -4.5 -7.5t-4.5 -6.5t-6 -4q-43 30 -75.5 39.5 t-88.5 9.5q-27 0 -91 -8q-3 -13 -10 -53t-18 -99t-19 -100h23q75 0 150 29q7 -6 13.5 -17.5t10.5 -21.5t9.5 -24t6.5 -17q0 -5 -6 -11t-11 -8q-44 24 -102 24q-70 0 -102 -2q-3 -14 -7 -38.5t-6 -32.5q-4 -21 -14 -68.5t-14 -74t-3 -35.5q38 -15 116 -15z" />
<glyph unicode="&#x396;" horiz-adv-x="514" d="M108 550q-3 -1 -8 -0.5t-9.5 3t-4.5 4.5q39 76 76 106q14 -2 37 -2h158q88 0 169 11q11 -9 7 -24l-445 -598q59 -10 166 -10q60 0 109 25t74 54q5 -2 7 -10t1 -13q-4 -17 -33.5 -56.5t-58.5 -39.5h-299q-25 0 -45.5 10.5t-17.5 25.5q31 32 51.5 55.5t40.5 48.5t31.5 40.5 t38.5 53t47 64.5q99 133 239 323q-45 2 -203 -6q-52 -3 -128 -65z" />
<glyph unicode="&#x397;" horiz-adv-x="480" d="M471 468q-8 -43 -25 -129.5t-23 -120.5q-10 -54 -18.5 -128t-6.5 -89q-14 -17 -27 -17q-7 0 -28.5 13t-19.5 23q35 154 63 292q-15 -1 -61 -2.5t-77.5 -2.5t-72 -4t-67.5 -8q-3 -16 -7.5 -41.5t-6.5 -35.5q-10 -55 -19 -128.5t-7 -88.5q-14 -17 -26 -17q-7 0 -29 13 t-20 23q43 187 72 334q23 120 41 293q2 5 11 11t13 6q18 0 36 -12.5t16 -24.5q0 -2 -7.5 -28.5t-17.5 -64.5t-15 -66q-17 -85 -24 -121l275 1l1 6q23 120 41 293q2 5 11 11t13 6q18 0 36 -12.5t16 -24.5q0 -2 -7.5 -28.5t-17.5 -64.5t-15 -66z" />
<glyph unicode="&#x398;" horiz-adv-x="666" d="M321 353q49 0 77.5 8t52.5 31q3 3 8 -2q14 -35 22 -98q0 -11 -17 -17q-3 3 -11.5 9.5t-10.5 8t-8.5 6t-9.5 5.5t-10 3.5t-13 3t-15 1t-20 0.5q-49 0 -77.5 -8t-52.5 -31q-3 -3 -8 2q-14 35 -22 98q0 11 17 17q3 -3 11.5 -9.5t10.5 -8t8.5 -6t9.5 -5.5t10 -3.5t13 -3 t15 -1t20 -0.5zM407 630q-96 0 -169.5 -95.5t-101.5 -225.5q-12 -45 -7 -95t19.5 -92t48.5 -69t80 -27q95 0 172.5 93.5t104.5 219.5q12 47 6.5 98t-21 94t-50.5 71t-82 28zM410 667q120 0 183.5 -96.5t33.5 -251.5q-27 -139 -129 -234t-220 -95q-120 0 -182 94t-31 253 q27 140 127 235t218 95z" />
<glyph unicode="&#x399;" horiz-adv-x="151" d="M142 468q-8 -42 -25 -129t-23 -121q-10 -54 -18.5 -128t-6.5 -89q-14 -17 -27 -17q-7 0 -29 13t-20 23q43 187 72 334q23 120 41 293q2 5 11 11t13 6q18 0 36 -12.5t16 -24.5q0 -2 -7.5 -28.5t-17.5 -64.5t-15 -66z" />
<glyph unicode="&#x39a;" horiz-adv-x="441" d="M427 50q-45 -54 -101 -54q-44 0 -76.5 52.5t-47.5 123t-17 143.5q-93 -134 -107 -217q-11 -82 -8 -97q-14 -17 -26 -17q-7 0 -29 13t-20 23q43 187 72 334q23 120 41 293q2 5 11 11t13 6q18 0 36 -12.5t16 -24.5q0 -2 -7.5 -28.5t-17.5 -64.5t-15 -66q-40 -207 -41 -210 q61 117 158 234t163 168q5 3 35 -6.5t31 -11.5q7 -10 1 -21q-60 -34 -137 -109t-143 -163q6 -119 57.5 -205t104.5 -86q9 0 17.5 1.5t15 4.5t11 5.5t8.5 5.5l4 3q1 0 1.5 -5.5t-0.5 -12t-3 -10.5z" />
<glyph unicode="&#x39b;" horiz-adv-x="493" d="M327 626q14 -22 23.5 -61.5t13.5 -72.5t9.5 -83.5t7.5 -69.5q35 -275 69 -335q-2 -4 -6 -8t-7 -6l-3 -2q-51 7 -67 29l-8 28t-7.5 30.5t-5.5 28t-5 31t-4 29t-3.5 33.5t-3.5 32t-3.5 36.5t-3.5 36.5q-2 16 -5.5 59t-6 64t-7 53.5t-10.5 57t-15 46.5q-110 -257 -262 -582 q-4 -10 -20 -10q-51 21 -58 36q24 22 54.5 66.5t56 88t60.5 113.5t54 109t52.5 110.5t39.5 85.5q-9 12 -26.5 10.5t-37.5 -12.5q-2 6 0 16q8 18 32 35.5t43 17.5q17 0 30 -7.5t17.5 -14t12.5 -18.5z" />
<glyph unicode="&#x39c;" horiz-adv-x="603" d="M602 467q-24 -220 -27 -250q-6 -56 -8.5 -125.5t0.5 -88.5q-14 -19 -25 -20q-3 -1 -17 5t-26.5 14.5t-11.5 15.5q6 42 20.5 142.5t24.5 184.5q16 147 18 205q-83 -236 -222 -470q-2 -4 -6 -8t-7 -6l-3 -2q-53 2 -69 24q-20 42 -61 212q-25 104 -33 200q-62 -236 -65 -249 q-38 -165 -34 -257q-9 -14 -18 -16q-15 5 -33.5 17.5t-22.5 28.5q13 41 25.5 80.5t23.5 81.5t19 72.5t18 75t15 66t14.5 68.5t12 59t12 61.5t10.5 53.5q1 5 8 14.5t12 9.5q4 0 9 -4t8.5 -8.5t8.5 -11.5t6 -9q6 -28 27.5 -133.5t35.5 -165.5q33 -139 66 -213q138 223 243 514 q3 9 11 18.5t13 9.5q12 0 29.5 -14t19.5 -23q0 -3 -3.5 -28t-9 -65t-8.5 -66z" />
<glyph unicode="&#x39d;" horiz-adv-x="429" d="M363 7q-1 -4 -5.5 -8.5t-9.5 -6.5l-4 -2q-51 10 -65 25q-57 153 -92 287q-7 26 -19 69.5t-21 76.5t-15 60q-23 -96 -51 -258q-26 -161 -17 -255q-2 -4 -8 -10t-10 -7q-50 23 -59 51q70 269 119 611q6 23 13 23q9 0 22.5 -13t16.5 -20q9 -30 40.5 -134t48.5 -157 q65 -213 92 -282q44 230 59 329q32 203 29 258q6 15 17 17q16 -9 23 -58t7 -91q-46 -198 -111 -505z" />
<glyph unicode="&#x39e;" horiz-adv-x="441" d="M206 661q113 0 217 1q29 -42 42 -116q-3 -7 -13 -12.5t-16 -3.5q-38 87 -142 87h-56q-39 0 -71.5 -18t-41.5 -63q-3 -4 -12.5 -7t-13.5 0q-6 37 -6 103q42 29 113 29zM209 358q49 0 77.5 8t52.5 31q3 3 8 -2q14 -35 22 -98q0 -11 -17 -17q-3 3 -11.5 9.5t-10.5 8t-8.5 6 t-9.5 5.5t-10 3.5t-13 3t-15 1t-20 0.5q-49 0 -78 -8t-53 -31q-3 -2 -7 2q-14 35 -22 98q0 11 17 17q3 -3 11.5 -9.5t10.5 -8t8.5 -6t9.5 -5.5t10 -3.5t13 -3t15 -1t20 -0.5zM204 43q56 0 107.5 24.5t72.5 44.5t29 32q5 -2 6.5 -10t0.5 -13q-4 -17 -43 -69t-68 -52h-196 q-82 0 -123 18q-4 16 -5 57t5 69q3 3 14.5 -2t12.5 -9q16 -58 54 -74t133 -16z" />
<glyph unicode="&#x39f;" horiz-adv-x="680" d="M414 627q-64 0 -123 -48.5t-96 -119.5t-53 -150q-11 -71 -3.5 -133.5t46 -104.5t99.5 -42q95 0 174.5 95t102.5 215q11 73 3 137t-47.5 107.5t-102.5 43.5zM417 667q120 0 183.5 -96.5t33.5 -251.5q-27 -139 -129 -234t-220 -95q-121 0 -183 94t-31 253 q27 139 127.5 234.5t218.5 95.5z" />
<glyph unicode="&#x3a0;" horiz-adv-x="519" d="M168 610q-5 -26 -35 -191.5t-34 -188.5q-36 -194 -31 -229q-14 -17 -27 -17q-7 0 -27.5 13t-18.5 23l111 583q-7 26 -65 41q2 13 13 19q89 -6 130 -5q44 0 109.5 5t117.5 6q121 -27 138 -45q2 -5 -1 -11t-6 -7q-45 6 -77 9q-25 -84 -37 -147q-29 -154 -47 -250 q-10 -55 -19 -128.5t-7 -88.5q-14 -17 -26 -17q-7 0 -29.5 13t-20.5 23q47 186 71 334q26 159 38 264h-26q-130 0 -194 -8z" />
<glyph unicode="&#x3a1;" horiz-adv-x="433" d="M260 620q-57 0 -94 -10q-5 -26 -35 -191.5t-34 -188.5q-36 -194 -31 -229q-14 -17 -27 -17q-7 0 -27.5 13t-18.5 23l111 583q-7 26 -65 41q2 13 13 19q77 -5 130 -5q9 0 34 1t45.5 0.5t41.5 -3.5q83 -10 117.5 -63t20.5 -125q-16 -83 -81 -135.5t-145 -52.5 q-7 0 -21.5 7.5t-19.5 14.5q-3 4 -1 12t7 12q19 -10 42 -10q46 0 86.5 48t51.5 102q11 57 -17 105.5t-83 48.5z" />
<glyph unicode="&#x3a2;" horiz-adv-x="931" />
<glyph unicode="&#x3a3;" horiz-adv-x="509" d="M-23 29q10 7 27 18.5t28.5 19t15.5 11.5q53 44 146 119t120 97q-23 70 -98.5 185.5t-113.5 162.5q2 13 13 19q46 -3 101 -3q52 1 129.5 3t121.5 3q21 -38 36 -80q-11 -16 -16 -18q-49 34 -78 45.5t-82 11.5q-51 0 -115 -8q7 -12 74 -109.5t90 -151.5q12 -35 8 -47 q-266 -225 -300 -248q37 -15 134 -15q90 0 150 25q26 11 51 26t30 23q5 -2 7 -10t1 -13q-3 -13 -40.5 -55t-61.5 -42h-307q-59 0 -71 31z" />
<glyph unicode="&#x3a4;" horiz-adv-x="502" d="M374 621h-42q-26 -137 -71 -391q-36 -194 -31 -229q-14 -17 -27 -17q-7 0 -28.5 13t-19.5 23l121 601h-70q-38 0 -71 -20t-42 -65q-3 -4 -13 -7t-14 0q-6 37 -6 103q42 29 114 29h167q78 0 160 1q29 -42 42 -116q-3 -7 -13 -12.5t-16 -3.5q-40 91 -140 91z" />
<glyph unicode="&#x3a5;" horiz-adv-x="507" d="M585 624q-96 -55 -202.5 -213.5t-119.5 -226.5q-10 -50 -15.5 -108t-3.5 -75q-14 -17 -27 -17q-7 0 -30 13t-21 23q11 55 42 160q1 4 3 10.5t3 9.5q-14 391 -92 391q-34 0 -57 -26q-3 0 -8 12q-2 6 0 11q16 33 44.5 56.5t52.5 23.5q42 0 65.5 -122.5t25.5 -268.5 q52 114 131.5 223t148.5 163q5 3 31 -6.5t27 -11.5q7 -11 2 -21z" />
<glyph unicode="&#x3a6;" horiz-adv-x="578" d="M51 319q15 88 85.5 153t171.5 78q7 45 12 97q2 5 9.5 11t11.5 6q18 0 37 -12.5t17 -24.5q0 -1 -3.5 -11.5t-8.5 -28.5t-9 -35q94 -8 143 -68t35 -145q-14 -88 -87 -153.5t-175 -78.5q-11 -93 -9 -106q-14 -17 -23 -17q-7 0 -30 13t-21 23q9 35 20 86q-95 8 -142.5 67.5 t-33.5 145.5zM356 470q-10 -53 -26.5 -137t-22.5 -115q-3 -16 -12 -79q65 13 117 67t66 123q13 70 -18.5 124t-93.5 66q-1 -6 -10 -49zM305 518q-65 -14 -118 -67.5t-66 -121.5q-13 -70 19 -124t94 -66q34 154 45 215q12 63 26 164z" />
<glyph unicode="&#x3a7;" horiz-adv-x="501" d="M437 4q-2 -4 -6 -8t-7 -6l-4 -2q-58 8 -74 30q-58 80 -110 261q-55 -71 -133 -160.5t-109 -118.5q-8 -6 -18 -6q-9 0 -23.5 8.5t-11.5 21.5q41 25 123 112t158 187q-3 13 -10 45.5t-10.5 46.5t-10 42t-11.5 46t-12.5 41.5t-15.5 45.5q-9 24 -35 24q-22 0 -44 -17 q-1 4 1 16q8 17 34.5 35t45.5 18q38 0 57 -40q24 -50 63 -227q87 120 189 233q10 8 29.5 17t33.5 15l14 5q7 0 14 -4.5t6 -8.5q-40 -30 -118.5 -114t-156.5 -191q22 -97 64.5 -193t87.5 -154z" />
<glyph unicode="&#x3a8;" horiz-adv-x="653" d="M157 491q-11 83 -21 101q-13 21 -33 22q-22 0 -44 -17q-2 6 0 16q8 18 33.5 35.5t44.5 17.5q36 0 52 -40t27 -146q13 -132 110 -143q0 2 1 8.5t2 8.5q23 120 41 293q3 5 9 11t10 6q18 0 38.5 -12.5t18.5 -24.5q0 -2 -7.5 -28.5t-17.5 -64.5t-15 -66q-5 -27 -14.5 -76 t-10.5 -53q45 12 83.5 56.5t79.5 117.5q43 77 75 114.5t70 37.5q16 0 31.5 -11.5t18.5 -20.5q-5 -14 -9 -15q-9 3 -29 3q-10 0 -20 -7.5t-20 -22.5t-18 -28.5t-19.5 -34.5t-17.5 -32q-55 -93 -107.5 -141t-125.5 -58q-10 -48 -15 -79q-10 -54 -18.5 -128t-6.5 -89 q-14 -17 -27 -17q-7 0 -28.5 13t-19.5 23q33 144 60 278q-70 4 -108.5 50.5t-52.5 142.5z" />
<glyph unicode="&#x3a9;" horiz-adv-x="689" d="M414 667q120 0 179.5 -95.5t32.5 -236.5q-18 -89 -76.5 -161.5t-139.5 -113.5q12 -6 67 -6q57 0 123 43q5 0 6.5 -5.5t0.5 -9.5q-7 -12 -21 -28.5t-43.5 -35t-58.5 -18.5h-120q-15 30 -11 51q3 12 15 24q149 92 184 274q24 126 -15 202t-122 76q-65 0 -122.5 -48.5 t-90 -111t-44.5 -124.5q-21 -107 3.5 -175t73.5 -98q21 -41 19 -51q-3 -12 -26 -19h-163q-7 4 -28.5 30t-24.5 34q6 11 19 11q6 -2 21 -8.5t28 -10t31 -4.5q14 -1 31.5 0.5t27.5 3.5l11 1q-61 31 -88.5 115t-8.5 181q26 131 122 222.5t208 91.5z" />
<glyph unicode="&#x3aa;" horiz-adv-x="151" d="M216 778q4 21 20 35.5t36 14.5q19 0 30 -14.5t7 -35.5t-20 -35.5t-36 -14.5q-19 0 -30 14.5t-7 35.5zM48 778q4 21 20 35.5t36 14.5q19 0 30 -14.5t7 -35.5t-20.5 -35.5t-36.5 -14.5q-19 0 -29.5 14.5t-6.5 35.5zM142 468q-8 -42 -25 -129t-23 -121q-10 -54 -18.5 -128 t-6.5 -89q-14 -17 -27 -17q-7 0 -29 13t-20 23q43 187 72 334q23 120 41 293q2 5 11 11t13 6q18 0 36 -12.5t16 -24.5q0 -2 -7.5 -28.5t-17.5 -64.5t-15 -66z" />
<glyph unicode="&#x3ab;" horiz-adv-x="507" d="M349 778q4 21 20 35.5t36 14.5q19 0 30 -14.5t7 -35.5t-20 -35.5t-36 -14.5q-19 0 -30 14.5t-7 35.5zM181 778q4 21 20 35.5t36 14.5q19 0 30 -14.5t7 -35.5t-20.5 -35.5t-36.5 -14.5q-19 0 -29.5 14.5t-6.5 35.5zM585 624q-96 -55 -202.5 -213.5t-119.5 -226.5 q-10 -50 -15.5 -108t-3.5 -75q-14 -17 -27 -17q-7 0 -30 13t-21 23q11 55 42 160q1 4 3 10.5t3 9.5q-14 391 -92 391q-34 0 -57 -26q-3 0 -8 12q-2 6 0 11q16 33 44.5 56.5t52.5 23.5q42 0 65.5 -122.5t25.5 -268.5q52 114 131.5 223t148.5 163q5 3 31 -6.5t27 -11.5 q7 -11 2 -21z" />
<glyph unicode="&#x3ac;" horiz-adv-x="459" d="M315 709q24 0 20 -23q-7 -33 -63 -108.5t-66 -79.5h-3q-3 0 -6.5 3t-2.5 6q2 11 27.5 75.5t45.5 101.5q5 8 20.5 16.5t27.5 8.5zM232 437q30 0 45 -48.5t11 -118.5q0 -5 -1 -14.5t-1.5 -17t-0.5 -10.5l25 43q55 164 77 165q11 0 22 -16.5t10 -38.5q-1 -20 -18.5 -56.5 t-35.5 -59.5l-50 -78q-11 -40 -11 -68q0 -53 37 -53q25 0 50 25q3 -2 5 -10.5t1 -11.5q-8 -22 -32 -47.5t-52 -25.5q-45 0 -45 70q0 30 5 54q-102 -127 -168 -127q-88 0 -88 108q0 60 30.5 138.5t82.5 138t102 59.5zM64 78q0 -49 30 -49q54 0 137 120q23 53 25 133 q2 86 -31 86q-28 0 -67 -51t-66.5 -120.5t-27.5 -118.5z" />
<glyph unicode="&#x3ad;" horiz-adv-x="320" d="M305 707q24 0 20 -23q-7 -33 -63 -108.5t-66 -79.5h-3q-3 0 -6.5 3t-2.5 6q2 11 27.5 75.5t45.5 101.5q5 8 20.5 16.5t27.5 8.5zM282 361q-29 15 -50 15q-55 0 -92.5 -28t-37.5 -74q0 -17 9 -31.5t16 -16.5q43 27 74 27q10 0 16 -3q17 -21 17 -43q0 -2 -5 -6.5t-9 -5.5 q-55 0 -111 -29.5t-56 -69.5q0 -42 61 -42q21 0 43.5 5.5t40 13t31 15t22 13t9.5 5.5q7 -6 -3 -29q-20 -31 -59.5 -56.5t-78.5 -25.5q-44 0 -72 22t-28 61q0 83 79 131q-35 22 -35 66q0 66 45 113t98 47q34 0 55.5 -18.5t27.5 -34.5q2 -12 -7 -21z" />
<glyph unicode="&#x3ae;" horiz-adv-x="443" d="M366 708q24 0 20 -23q-7 -33 -63 -108.5t-66 -79.5h-3q-3 0 -6.5 3t-2.5 6q2 11 27.5 75.5t45.5 101.5q5 8 20.5 16.5t27.5 8.5zM40 333q-4 0 -7 7t-2 13q15 32 44.5 55t57.5 23q30 -1 35.5 -41t-0.5 -86q39 65 73.5 99t77.5 34q36 0 47.5 -29.5t11.5 -76.5 q0 -36 -36 -242.5t-35 -286.5q-13 -17 -27 -17q-8 0 -31 16t-20 27q2 10 34.5 130t56 218.5t23.5 129.5q0 56 -29 56q-36 0 -77 -50t-75 -121q-2 -13 -5 -28.5t-5 -24.5q-1 -4 -10.5 -52.5t-12.5 -69.5q-15 -20 -26 -20q-8 0 -26 13.5t-17 22.5q5 33 54 157l24 58 q22 115 -40 115q-32 0 -58 -29z" />
<glyph unicode="&#x3af;" horiz-adv-x="232" d="M230 707q24 0 20 -23q-7 -33 -63 -108.5t-66 -79.5h-3q-3 0 -6.5 3t-2.5 6q2 11 27.5 75.5t45.5 101.5q5 8 20.5 16.5t27.5 8.5zM109 67q29 0 59 30q2 0 5 -5t3 -9t-1 -7q-16 -34 -42.5 -57t-53.5 -23q-30 1 -42.5 27.5t-4.5 65.5q7 41 63 327q14 17 26 17 q6 0 27.5 -16.5t19.5 -26.5q-11 -38 -31 -97.5t-33 -103.5t-22 -89q-3 -13 2 -21t11.5 -10t13.5 -2z" />
<glyph unicode="&#x3b0;" horiz-adv-x="392" d="M302 594q17 0 27 -13.5t6 -32.5t-19 -31.5t-32 -12.5t-27.5 13t-6.5 32t19.5 32t32.5 13zM105 594q17 0 27 -13.5t6 -32.5t-19 -31.5t-32 -12.5t-27.5 13t-6.5 32t19.5 32t32.5 13zM258 699q21 0 17 -22q-3 -17 -20 -48t-36.5 -59.5t-35.5 -50.5t-19 -23h-3q-1 0 -3 1.5 t-3.5 3.5t-0.5 4q2 11 24 73t38 97q5 8 18 16t24 8zM64 410q-2 2 0.5 12t5.5 10q20 0 47 -22.5t27 -64.5q0 -23 -46.5 -106t-46.5 -125q0 -56 62 -56q51 0 109 73t58 182q0 70 -24 111q2 7 8 10q7 0 26.5 -17.5t22.5 -25.5q12 -35 12 -82q0 -146 -65.5 -230.5t-143.5 -84.5 q-41 0 -72 35t-31 100q0 52 36.5 135.5t36.5 97.5q0 29 -22 48z" />
<glyph unicode="&#x3b1;" horiz-adv-x="459" d="M232 437q30 0 45 -48.5t11 -118.5q0 -5 -1 -14.5t-1.5 -17t-0.5 -10.5l25 43q55 164 77 165q11 0 22 -16.5t10 -38.5q-1 -20 -18.5 -56.5t-35.5 -59.5l-50 -78q-11 -40 -11 -68q0 -53 37 -53q25 0 50 25q3 -2 5 -10.5t1 -11.5q-8 -22 -32 -47.5t-52 -25.5q-45 0 -45 70 q0 30 5 54q-102 -127 -168 -127q-88 0 -88 108q0 60 30.5 138.5t82.5 138t102 59.5zM64 78q0 -49 30 -49q54 0 137 120q23 53 25 133q2 86 -31 86q-28 0 -67 -51t-66.5 -120.5t-27.5 -118.5z" />
<glyph unicode="&#x3b2;" horiz-adv-x="438" d="M118 74q-1 3 1.5 12t5.5 9q30 -38 88 -38q46 0 80.5 47.5t34.5 124.5q0 32 -17.5 65t-38.5 33q-4 0 -10 -3q-43 -37 -60 -37q-6 4 -14.5 17t-8.5 27q0 17 19 27q63 32 108.5 88.5t45.5 131.5q0 26 -12 42.5t-35 16.5q-115 0 -166 -257q-1 -3 -15 -71.5t-26 -127 t-22.5 -125t-10.5 -92.5q0 -115 25 -152q-5 -10 -18.5 -21.5t-28.5 -11.5q-11 0 -25 17t-14 45q0 78 93 561q30 155 84 222.5t121 67.5q35 0 55 -23.5t24 -45t4 -44.5q0 -65 -26.5 -125t-62.5 -99q71 -45 71 -148q0 -43 -15.5 -90.5t-52.5 -85t-85 -37.5q-37 0 -62 26.5 t-34 53.5z" />
<glyph unicode="&#x3b3;" horiz-adv-x="371" d="M174 0q-12 -14 -18 -42q-26 -113 -41 -154q-12 -31 -31 -31q-15 0 -28 21.5t-13 31.5q0 13 35.5 90t63.5 130q19 102 19 184q0 132 -72 132q-16 0 -35 -9.5t-26 -18.5q-8 0 -8 18q15 33 44 57t54 24q39 -1 57 -47.5t18 -121.5q0 -36 -4.5 -80t-8 -69t-5.5 -32 q101 153 129 207q41 78 53 132q1 4 6 9t7 5q9 0 16.5 -33t4.5 -48q-9 -47 -57 -129q-14 -24 -32.5 -51.5t-38.5 -55.5t-34.5 -47t-33.5 -44t-21 -28z" />
<glyph unicode="&#x3b4;" horiz-adv-x="376" d="M420 465q-25 44 -80 102t-94 58q-8 0 -12.5 -0.5t-9.5 -6t-5 -16.5q0 -21 49 -108q37 -64 52.5 -106t15.5 -90q0 -119 -71 -211t-144 -92q-37 0 -68 31.5t-31 84.5q0 84 45 182.5t132 132.5q12 4 18 4q13 0 51 -25q-9 21 -33.5 69t-35.5 79t-11 61q0 78 50 78 q45 0 105.5 -67.5t74.5 -104.5q13 -35 14 -53q-1 -1 -6 -2t-6 0zM293 310q0 40 -11 60q-11 6 -39 6q-32 0 -75.5 -45t-75 -109t-31.5 -114q0 -61 51 -61q35 0 78.5 45t73 107.5t29.5 110.5z" />
<glyph unicode="&#x3b5;" horiz-adv-x="320" d="M282 361q-29 15 -50 15q-55 0 -92.5 -28t-37.5 -74q0 -17 9 -31.5t16 -16.5q43 27 74 27q10 0 16 -3q17 -21 17 -43q0 -2 -5 -6.5t-9 -5.5q-55 0 -111 -29.5t-56 -69.5q0 -42 61 -42q21 0 43.5 5.5t40 13t31 15t22 13t9.5 5.5q7 -6 -3 -29q-20 -31 -59.5 -56.5 t-78.5 -25.5q-44 0 -72 22t-28 61q0 83 79 131q-35 22 -35 66q0 66 45 113t98 47q34 0 55.5 -18.5t27.5 -34.5q2 -12 -7 -21z" />
<glyph unicode="&#x3b6;" horiz-adv-x="347" d="M200 -106q-3 0 -10 4.5t-7 9.5q20 11 39.5 34t19.5 49q0 21 -28 21q-13 0 -57 -8q-35 -7 -63 -7q-37 0 -56.5 23t-19.5 55q0 163 213 461q-4 0 -10.5 1t-23 6t-28.5 11.5t-20 20.5t-5 31q10 53 91 80q5 0 9 -4t3 -8q-14 -8 -30 -29.5t-19 -36.5q-5 -27 12.5 -38t38.5 -11 q44 53 90 93.5t64 40.5q9 0 15 -19.5t6 -30.5q0 -21 -26 -40q-63 -47 -86 -62q-66 -52 -160 -192.5t-94 -228.5q0 -26 16.5 -39t40.5 -13q22 0 63 9q50 9 64 9q49 0 49 -52q0 -42 -30.5 -81.5t-60.5 -58.5z" />
<glyph unicode="&#x3b7;" horiz-adv-x="443" d="M40 333q-4 0 -7 7t-2 13q15 32 44.5 55t57.5 23q30 -1 35.5 -41t-0.5 -86q39 65 73.5 99t77.5 34q36 0 47.5 -29.5t11.5 -76.5q0 -36 -36 -242.5t-35 -286.5q-13 -17 -27 -17q-8 0 -31 16t-20 27q2 10 34.5 130t56 218.5t23.5 129.5q0 56 -29 56q-36 0 -77 -50t-75 -121 q-2 -13 -5 -28.5t-5 -24.5q-1 -4 -10.5 -52.5t-12.5 -69.5q-15 -20 -26 -20q-8 0 -26 13.5t-17 22.5q5 33 54 157l24 58q22 115 -40 115q-32 0 -58 -29z" />
<glyph unicode="&#x3b8;" horiz-adv-x="471" d="M319 636q-37 0 -74 -48t-37 -104q0 -21 8 -37.5t22 -26.5t29 -16.5t34.5 -10t32 -4.5t27.5 -1.5t17 -0.5q14 75 14 123q0 126 -73 126zM318 695q30 0 52.5 -21.5t34.5 -57.5t18 -76t6 -84q0 -36 -5 -73q4 0 11.5 -0.5t11.5 -1.5q5 -20 5 -53q0 -4 -3.5 -11.5t-6.5 -8.5 q-8 0 -32 3q-32 -135 -96.5 -225.5t-122.5 -90.5q-59 0 -61 90v16t-0.5 19.5t-1 19.5t-2.5 19.5t-4.5 15t-6.5 11.5t-10 4q-26 0 -48 -25q-3 0 -5.5 8t-1.5 13q15 33 43 56.5t53 23.5q22 0 22 -42q0 -15 -6 -69t-6 -56q0 -45 28 -45q41 0 98.5 76.5t81.5 189.5q-28 6 -56 17 t-62.5 32t-56 56.5t-21.5 79.5q0 75 44 132.5t106 57.5z" />
<glyph unicode="&#x3b9;" horiz-adv-x="232" d="M109 67q29 0 59 30q2 0 5 -5t3 -9t-1 -7q-16 -34 -42.5 -57t-53.5 -23q-30 1 -42.5 27.5t-4.5 65.5q7 41 63 327q14 17 26 17q6 0 27.5 -16.5t19.5 -26.5q-11 -38 -31 -97.5t-33 -103.5t-22 -89q-3 -13 2 -21t11.5 -10t13.5 -2z" />
<glyph unicode="&#x3ba;" horiz-adv-x="427" d="M173 221l73 72q31 49 71 96.5t55 47.5q10 0 27 -19t17 -30q0 -14 -5 -17q-21 -13 -60.5 -46.5t-64.5 -59.5q-11 -17 -21.5 -51.5t-10.5 -63.5q0 -84 47 -84q25 0 48 25q3 -4 5 -11.5t1 -10.5q-13 -31 -37 -52t-49 -21q-26 0 -37.5 29t-11.5 69q0 87 17 138 q-4 -4 -33 -32.5t-46 -50.5q-17 -38 -47 -79t-62 -66q-10 -8 -22 -8t-20 29t4 47q86 86 128 123q14 53 14 86q0 84 -47 84q-25 0 -48 -25q-3 4 -5 11.5t-1 10.5q13 31 37 52t49 21q26 0 37.5 -29t11.5 -69q0 -50 -14 -116z" />
<glyph unicode="&#x3bb;" d="M401 68q-11 -26 -35 -49t-48 -23q-19 0 -33 13.5t-21 38.5t-11 52t-4.5 62.5t0.5 62t2 57.5q0 4 0.5 6.5t0.5 6.5v7q-16 -28 -53 -78t-70 -92t-69 -86t-40 -49q-10 -5 -17 -5q-11 0 -26.5 17.5t-15.5 26.5q55 30 173 190t125 198q3 42 1 78.5t-8 64.5t-22 44t-41 16 q-15 0 -34.5 -11.5t-27.5 -20.5q-4 0 -6.5 6.5t-1.5 11.5q15 33 44 57t54 24q96 0 70 -342q-11 -147 2 -220q7 -36 23.5 -51t33.5 -15q24 0 49 25q3 -3 5 -11.5t1 -11.5z" />
<glyph unicode="&#x3bc;" horiz-adv-x="444" d="M391 69q-10 -27 -34.5 -50t-47.5 -23q-26 0 -37.5 23t-11 55t2.5 66q-40 -70 -74 -109.5t-69 -39.5q-49 0 -49 97q-1 -4 -10.5 -39t-18.5 -77t-9 -71q0 -43 33 -95q-1 -10 -15.5 -18.5t-28.5 -8.5q-9 0 -17.5 4.5t-17 22.5t-8.5 48q0 45 30 163t52 187q3 13 19 108 t19 111q11 14 23 14q9 0 23 -11t20 -27q-5 -30 -59 -176q-8 -42 -8 -73q0 -35 8.5 -59.5t22.5 -24.5q17 0 34.5 12.5t36.5 40.5t30 46.5t32 56.5q12 43 26.5 107.5t22.5 93.5q11 14 23 14q9 0 23 -11t20 -27l-76 -189q-14 -62 -5.5 -103t39.5 -41q25 0 50 25q3 -2 5 -10.5 t1 -11.5z" />
</font>
</defs>
</svg>
