<?xml version="1.0" standalone="no"?>
<!DOCTYPE svg PUBLIC "-//W3C//DTD SVG 1.1//EN" "http://www.w3.org/Graphics/SVG/1.1/DTD/svg11.dtd" >
<svg xmlns="http://www.w3.org/2000/svg" xmlns:xlink="http://www.w3.org/1999/xlink" version="1.1">
<metadata></metadata>
<defs>
<font id="crimsonitalic" horiz-adv-x="363" >
<font-face units-per-em="1024" ascent="742" descent="-282" />
<missing-glyph horiz-adv-x="227" />
<glyph horiz-adv-x="0" />
<glyph horiz-adv-x="341" />
<glyph unicode=" "  horiz-adv-x="227" />
<glyph unicode="&#x09;" horiz-adv-x="227" />
<glyph unicode="&#xa0;" horiz-adv-x="227" />
<glyph unicode="&#x400;" horiz-adv-x="555" d="M202 657q42 0 145 3.5t155 3.5q-2 -12 -0.5 -69.5t1.5 -66.5q-5 -5 -18 -5q-11 0 -11 7q-4 56 -26 78t-62 22h-80q-60 0 -66 -11q-11 -21 -20 -72l-37 -192q0 -2 3 -3t9 -2t12.5 -1h14.5h49q66 0 83 13q11 9 32 56q0 2 1 3q3 7 16 7q11 0 14 -5l-36 -189q-4 -4 -16 -4 q-11 0 -13 8q-3 62 -13 70t-97 8q-67 0 -69 -9l-39 -198q-13 -63 -7 -69q10 -10 64 -10h44q77 0 124 31q44 30 78 101q3 6 15 6q18 0 22 -6q-6 -12 -28 -52.5t-35 -67t-20 -46.5q-48 0 -149.5 2t-166.5 2q-23 0 -58.5 -1.5t-52.5 -1.5q-3 4 -1 14.5t6 14.5q14 0 39.5 4.5 t28.5 11.5q7 14 19 74l83 427q11 56 9 74q-1 7 -24 11.5t-37 4.5q-2 4 0 14.5t6 14.5q95 -5 109 -5zM463 713q-16 0 -95.5 35t-79.5 51q0 9 13.5 15.5t34.5 6.5q20 0 27 -5q19 -12 62.5 -50t43.5 -43q0 -2 -2.5 -6t-3.5 -4z" />
<glyph unicode="&#x401;" horiz-adv-x="555" d="M202 657q42 0 145 3.5t155 3.5q-2 -12 -0.5 -69.5t1.5 -66.5q-5 -5 -18 -5q-11 0 -11 7q-4 56 -26 78t-62 22h-80q-60 0 -66 -11q-11 -21 -20 -72l-37 -192q0 -2 3 -3t9 -2t12.5 -1h14.5h49q66 0 83 13q11 9 32 56q0 2 1 3q3 7 16 7q11 0 14 -5l-36 -189q-4 -4 -16 -4 q-11 0 -13 8q-3 62 -13 70t-97 8q-67 0 -69 -9l-39 -198q-13 -63 -7 -69q10 -10 64 -10h44q77 0 124 31q44 30 78 101q3 6 15 6q18 0 22 -6q-6 -12 -28 -52.5t-35 -67t-20 -46.5q-48 0 -149.5 2t-166.5 2q-23 0 -58.5 -1.5t-52.5 -1.5q-3 4 -1 14.5t6 14.5q14 0 39.5 4.5 t28.5 11.5q7 14 19 74l83 427q11 56 9 74q-1 7 -24 11.5t-37 4.5q-2 4 0 14.5t6 14.5q95 -5 109 -5zM338 727q-6 0 -10 7q-19 33 -78 108q2 10 15 10l89 -59q75 36 120 59q12 0 10 -10q-94 -73 -132 -108q-9 -7 -14 -7z" />
<glyph unicode="&#x402;" horiz-adv-x="681" d="M622 224q0 -73 -29 -141.5t-75 -117.5t-93.5 -83t-92.5 -52q-7 2 -4 21q95 53 150 153.5t55 202.5q0 67 -28 104.5t-77 37.5q-36 0 -77 -12l-43 -221q-12 -59 -10 -74q1 -7 24 -11.5t37 -4.5q2 -4 0.5 -14.5t-5.5 -14.5q-95 5 -108 5q-14 0 -111 -5q-3 4 -0.5 14.5 t6.5 14.5q14 0 39 4.5t28 11.5q7 14 19 74l99 504h-120q-33 0 -62.5 -33.5t-50.5 -88.5q-3 -5 -14 -5q-11 -1 -17 7q28 72 58 172q8 4 20 -3q23 -14 50 -14h363q29 0 59 15q12 6 18 2q-9 -110 -9 -172q-8 -8 -20 -7q-10 0 -12 5q1 55 -15 88.5t-49 33.5h-118l-48 -247 q66 24 114 24q73 0 111 -48t38 -125z" />
<glyph unicode="&#x403;" horiz-adv-x="503" d="M-49 -3q-3 4 -1 14.5t6 14.5q14 0 39 4.5t28 11.5q7 14 19 74l83 427q11 66 10 74q-1 7 -24 11.5t-37 4.5q-2 4 -0.5 14.5t5.5 14.5q17 0 52 -1.5t58 -1.5q65 0 155 2t138 2q-1 -20 1.5 -46t9 -68t7.5 -52q-6 -6 -25 -6q-12 0 -12 6q-7 74 -39 101q-31 27 -103 27h-28 q-54 0 -68 -10q-4 -3 -18 -72l-83 -427q-12 -59 -10 -74q1 -7 24 -11.5t37 -4.5q2 -4 0 -14.5t-6 -14.5q-95 5 -107 5q-14 0 -111 -5zM247 713q-1 0 -3.5 4t-2.5 6q0 5 43.5 43t62.5 50q7 5 27 5q21 0 34.5 -6.5t13.5 -15.5q0 -16 -79.5 -51t-95.5 -35z" />
<glyph unicode="&#x404;" horiz-adv-x="610" d="M562 173q6 0 13 -2t11 -4l4 -2q-3 -16 -32 -72t-40 -65q-69 -36 -195 -36q-119 0 -195 79.5t-76 193.5q0 121 58.5 215t150.5 141t197 45q59 -1 161 -26q-6 -109 -10 -146q0 -5 -8 -5q-13 0 -23 5q4 59 -40.5 100t-108.5 41q-104 0 -180 -73.5t-96 -199.5q111 -3 112 -3 q80 0 98 7q4 2 8 5.5t6.5 7.5t6.5 11.5t5.5 12t5.5 14.5t6 14q3 7 15 7t15 -5l-37 -189q-4 -4 -16 -4q-11 0 -13 8q-3 57 -13 66q-10 8 -97 8q-36 0 -70.5 -0.5t-36.5 -0.5q-1 -13 -1 -39q0 -37 6.5 -73t22 -70.5t38.5 -60t58.5 -41.5t78.5 -16q131 0 211 152z" />
<glyph unicode="&#x405;" horiz-adv-x="472" d="M312 666q21 0 40.5 -2.5t30 -4.5t34 -8.5t32.5 -8.5q-6 -70 -21 -144q-1 -7 -10 -7q-14 0 -21 7q4 63 -19 100t-74 37q-57 0 -90.5 -36t-33.5 -79q0 -24 5.5 -42.5t21 -36.5t23.5 -26t34 -27.5t31 -23.5q7 -5 32.5 -24t36 -29t27 -29t23.5 -40.5t7 -48.5 q0 -88 -70.5 -144.5t-157.5 -56.5q-74 0 -147 42q-9 36 -11.5 86.5t-0.5 63.5q4 6 25 6q7 0 10 -6q0 -32 12.5 -67t45 -65t78.5 -30q52 0 89.5 34t37.5 91q0 34 -15.5 62.5t-31 43t-48.5 41.5q-11 8 -36.5 26.5t-38 29.5t-29 30t-24 43t-7.5 53q0 81 67 135.5t143 54.5z" />
<glyph unicode="&#x406;" horiz-adv-x="316" d="M234 657q12 0 110 5q3 -4 0.5 -14.5t-6.5 -14.5q-14 0 -39 -4.5t-28 -11.5q-7 -14 -19 -74l-83 -427q-12 -59 -10 -74q1 -7 24 -11.5t37 -4.5q2 -4 0 -14.5t-6 -14.5q-95 5 -107 5q-13 0 -111 -5q-3 4 -1 14.5t6 14.5q14 0 39.5 4.5t28.5 11.5q7 14 19 74l83 427 q11 56 9 74q-1 7 -24 11.5t-37 4.5q-2 4 0 14.5t6 14.5q95 -5 109 -5z" />
<glyph unicode="&#x407;" horiz-adv-x="316" d="M294 776q4 21 20 35.5t36 14.5q19 0 30 -14.5t7 -35.5t-20 -35.5t-36 -14.5q-19 0 -30 14.5t-7 35.5zM126 776q4 21 20 35.5t36 14.5q19 0 30 -14.5t7 -35.5t-20.5 -35.5t-36.5 -14.5q-19 0 -29.5 14.5t-6.5 35.5zM234 657q12 0 110 5q3 -4 0.5 -14.5t-6.5 -14.5 q-14 0 -39 -4.5t-28 -11.5q-7 -14 -19 -74l-83 -427q-12 -59 -10 -74q1 -7 24 -11.5t37 -4.5q2 -4 0 -14.5t-6 -14.5q-95 5 -107 5q-13 0 -111 -5q-3 4 -1 14.5t6 14.5q14 0 39.5 4.5t28.5 11.5q7 14 19 74l83 427q11 56 9 74q-1 7 -24 11.5t-37 4.5q-2 4 0 14.5t6 14.5 q95 -5 109 -5z" />
<glyph unicode="&#x408;" horiz-adv-x="303" d="M163 523q12 67 11 89q-2 7 -25 13.5t-34 6.5q-3 0 -1 14q2 13 7 15q19 0 53 -2.5t57 -2.5t59 2.5t50 2.5q1 -3 -1 -14q-3 -15 -7 -15q-8 0 -34 -6.5t-29 -13.5q-14 -34 -26 -93l-84 -434q-24 -126 -108 -219t-186 -93q-10 0 -21 4t-18 8l-6 4q-8 16 -4 37q4 22 24 36 t44 14q17 0 33.5 -21.5t28.5 -21.5q13 0 29.5 14t34.5 41t36 76.5t30 112.5z" />
<glyph unicode="&#x409;" horiz-adv-x="814" d="M490 339l-44 -225q-13 -61 -6 -71q12 -17 70 -17q79 0 128.5 51.5t49.5 142.5q0 16 -4.5 32t-17.5 38t-43.5 35.5t-75.5 13.5h-57zM531 543l-34 -173h94q98 0 145 -42.5t47 -114.5q0 -96 -83.5 -156t-211.5 -60h-214q-3 4 -0.5 14.5t6.5 14.5q14 0 39 4.5t28 11.5 q10 20 19 74l84 427q11 60 10 74q0 12 -80 12q-88 0 -91 -12q-9 -29 -17 -73q-83 -393 -188 -511q-22 -24 -44.5 -36.5t-33.5 -12.5q-39 0 -59 10q0 11 5 17q64 32 126 121q42 62 85.5 176.5t66.5 234.5q11 57 9 74q-1 7 -24 11.5t-37 4.5q-2 4 0 14.5t6 14.5q136 -4 209 -4 q152 0 230 4q3 -4 0.5 -14.5t-6.5 -14.5q-14 0 -39 -4.5t-28 -11.5q-7 -14 -19 -74z" />
<glyph unicode="&#x40a;" horiz-adv-x="909" d="M585 333l-44 -219q-13 -61 -6 -71q12 -17 70 -17q79 0 128.5 51.5t49.5 142.5q0 15 -4.5 31t-17.5 36t-43.5 33t-75.5 13h-57zM591 369q62 1 95 1q98 0 145 -42.5t47 -114.5q0 -96 -83.5 -156t-211.5 -60h-217q-3 4 -0.5 14.5t6.5 14.5q14 0 39 4.5t28 11.5q7 14 19 74 l43 211h-76l-218 -4l-39 -204q-12 -59 -10 -74q1 -7 24.5 -11.5t37.5 -4.5q2 -4 -0.5 -16t-6.5 -16q-95 5 -108 5t-110 -5q-3 4 -0.5 16t6.5 16q14 0 39 4.5t28 11.5q7 14 19 74l82 421q12 59 10 74q-1 7 -24 11.5t-37 4.5q-2 4 0 16t6 16q95 -5 109 -5q12 0 110 5 q3 -4 0 -16t-7 -16q-14 0 -39 -4.5t-28 -11.5q-7 -14 -19 -74l-35 -176q166 3 218 3h76l33 173q12 59 10 74q-1 7 -24 11.5t-37 4.5q-2 4 0 16t6 16q95 -5 109 -5q12 0 110 5q3 -4 0 -16t-7 -16q-14 0 -39 -4.5t-28 -11.5q-7 -13 -17 -71q-21 -110 -34 -174z" />
<glyph unicode="&#x40b;" horiz-adv-x="701" d="M553 655q29 0 59 15q12 6 18 2q-9 -110 -9 -172q-8 -8 -20 -7q-10 0 -12 5q1 55 -15 88.5t-49 33.5h-118l-46 -233q35 24 83.5 36t87.5 12q100 0 100 -123q0 -37 -16 -115q-4 -19 -6.5 -32.5t-3.5 -18t-2.5 -12t-3.5 -18.5q-11 -65 -10 -74q1 -7 24 -11.5t37 -4.5 q2 -4 0.5 -14.5t-5.5 -14.5q-95 5 -108 5q-14 0 -111 -5q-3 4 -0.5 14.5t6.5 14.5q14 0 39 4.5t28 11.5q7 14 19 74q11 53 22 112q11 55 11 90q0 33 -20 52t-53 19q-69 0 -124 -33l-47 -240q-12 -59 -10 -74q1 -7 24 -11.5t37 -4.5q2 -4 0.5 -14.5t-5.5 -14.5q-95 5 -108 5 q-14 0 -111 -5q-3 4 -0.5 14.5t6.5 14.5q14 0 39 4.5t28 11.5q7 14 19 74l99 504h-120q-33 0 -62.5 -33.5t-50.5 -88.5q-3 -5 -14 -5q-11 -1 -17 7q28 72 58 172q8 4 20 -3q23 -14 50 -14h363z" />
<glyph unicode="&#x40c;" horiz-adv-x="638" d="M261 732q-1 0 -3.5 4t-2.5 6q0 5 43.5 43t62.5 50q7 5 27 5q21 0 34.5 -6.5t13.5 -15.5q0 -16 -79.5 -51t-95.5 -35zM136 540q12 59 10 74q-1 7 -24 11.5t-37 4.5q-2 4 0 16t6 16q95 -5 109 -5q12 0 110 5q3 -4 0.5 -16t-6.5 -16q-14 0 -39.5 -4.5t-28.5 -11.5 q-7 -14 -19 -74l-37 -192q67 0 112 50q31 35 52.5 64t47 69.5t30.5 48.5q60 91 142 91q29 0 43 -11q5 -12 5 -21q0 -25 -15 -41t-41 -16q-8 0 -25 6t-31 6q-8 0 -22.5 -8.5t-25.5 -23.5q-6 -9 -38 -55t-57 -81q-46 -61 -84 -82q17 0 29 -4.5t22 -18t13 -19t12 -25.5 q15 -32 35 -103t31 -100q16 -42 92 -48q5 -6 -7 -29q-89 0 -121 13q-37 15 -48 51q-46 147 -60 181q-11 29 -22 41.5t-28 18.5q-30 12 -41 8q-7 -2 -8 -5l-37 -186q-11 -56 -9 -74q1 -7 24 -11.5t37 -4.5q2 -4 0 -16t-6 -16q-95 5 -108 5t-111 -5q-3 4 -0.5 16t6.5 16 q14 0 39 4.5t28 11.5q9 17 20 74z" />
<glyph unicode="&#x40d;" horiz-adv-x="679" d="M429 726q-16 0 -95.5 35t-79.5 51q0 9 13.5 15.5t34.5 6.5q20 0 27 -5q19 -12 62.5 -50t43.5 -43q0 -2 -2.5 -6t-3.5 -4zM452 116l73 377l20 84l-376 -525q-9 -12 -16 -41q-3 -12 -4 -14q-45 3 -64 3q-51 0 -89 -3q-3 4 -1 14.5t6 14.5q14 0 39.5 4.5t28.5 11.5 q7 14 19 74l82 427q10 63 9 74q-1 7 -24 11.5t-37 4.5q-2 4 0 14.5t6 14.5q95 -5 109 -5q12 0 110 5q3 -4 0.5 -14.5t-6.5 -14.5q-14 0 -39 -4.5t-28 -11.5q-10 -20 -19 -74l-73 -378q-1 -8 -18 -72l372 518q14 18 17 33l3 17q30 -2 69 -2q29 0 87 3q3 -4 0.5 -14.5 t-6.5 -14.5q-14 0 -39 -4.5t-28 -11.5q-7 -14 -19 -74l-83 -426q-12 -60 -10 -75q1 -7 24 -11.5t37 -4.5q2 -4 0 -14.5t-6 -14.5q-95 5 -107 5q-13 0 -111 -5q-3 4 -1 14.5t6 14.5q14 0 39.5 4.5t28.5 11.5q7 14 19 74z" />
<glyph unicode="&#x40e;" horiz-adv-x="538" d="M242 845q1 -32 23.5 -53t55.5 -21q31 0 56 21t38 52q3 0 10 -7t6 -10q-17 -43 -51.5 -72t-79.5 -29q-43 0 -71 29t-28 65q2 8 18 17.5t23 7.5zM87 657q21 0 116 5q1 -5 -1.5 -16.5t-5.5 -12.5q-7 0 -18.5 -2t-26.5 -10t-17 -21q-3 -14 11 -65q12 -46 43 -161.5t34 -127.5 q41 62 162 267q33 54 37 80q4 21 -16.5 30t-36.5 9q-3 1 -1 13t6 16q68 -4 96 -4q19 0 33 1t29.5 2t29.5 2q1 -4 -2 -16.5t-5 -12.5q-10 0 -31 -6.5t-34 -19.5q-17 -17 -68 -101q-41 -67 -75.5 -123.5t-62 -101t-77.5 -123.5q-54 -85 -96 -130q-54 -58 -107 -58 q-20 0 -33 11t-8 38q4 18 19 33q9 0 33 -1.5t34 -0.5t28.5 10.5t38.5 28.5q16 16 42 54l-94 373q-9 35 -34 94q-5 11 -24 17t-31 6q-1 0 0 7t3 14t3 8q105 -5 107 -5z" />
<glyph unicode="&#x40f;" horiz-adv-x="671" d="M425 49q7 14 19 74l81 418q12 59 10 74q-1 7 -24 11.5t-37 4.5q-2 4 0 14.5t6 14.5q95 -5 108 -5q12 0 110 5q3 -4 1 -14.5t-6 -14.5q-14 0 -39.5 -4.5t-28.5 -11.5q-7 -14 -19 -74l-83 -427q-11 -56 -9 -74q1 -7 24 -11.5t37 -4.5q2 -4 0 -14.5t-6 -14.5q-95 5 -108 5 h-104q-30 0 -45 -28q-35 -64 -53 -155q-5 -5 -14.5 -5t-13.5 5q17 87 8 155q-2 13 -13 20.5t-23 7.5h-97q-14 0 -111 -5q-3 4 -0.5 14.5t6.5 14.5q14 0 39 4.5t28 11.5q7 14 19 74l83 427q12 59 10 74q-1 7 -24 11.5t-37 4.5q-2 4 0 14.5t6 14.5q95 -5 109 -5q11 0 109 5 q3 -4 1 -14.5t-6 -14.5q-14 0 -39.5 -4.5t-28.5 -11.5q-10 -20 -19 -74l-81 -418q-12 -59 -10 -74q1 -13 128 -13q131 0 137 13z" />
<glyph unicode="&#x410;" horiz-adv-x="586" d="M337 26q57 0 57 31q0 30 -3 49l-22 150h-199q-48 -87 -71 -131q-29 -56 -29 -75q0 -13 23 -18.5t39 -5.5q1 -2 -0.5 -13t-3.5 -16q-13 1 -28.5 2t-29 2t-31.5 1q-19 0 -33.5 -1t-31.5 -2t-33 -2q-1 2 1 13t5 16q11 0 30 5t27 14q25 27 62 94l276 495q6 11 19.5 20t20.5 9 q2 0 5 -3l86 -534q2 -14 5 -32t4.5 -26t1.5 -10q3 -13 18 -21t26 -9.5t19 -1.5q2 -6 0.5 -16t-3.5 -13q-92 5 -109 5q-19 0 -34.5 -1t-34.5 -2t-35 -2q-3 4 -1 14.5t7 14.5zM188 289h175l-38 246z" />
<glyph unicode="&#x411;" horiz-adv-x="553" d="M211 339l-45 -225q-13 -61 -6 -71q12 -17 71 -17q79 0 128.5 51.5t49.5 142.5q0 16 -4.5 32t-17.5 38t-43.5 35.5t-75.5 13.5h-57zM209 -3h-215q-3 4 -0.5 14.5t6.5 14.5q14 0 39 4.5t28 11.5q10 20 19 74l84 427q11 56 9 74q-1 7 -24 11.5t-37 4.5q-2 4 -0.5 14.5 t5.5 14.5q17 0 52 -1.5t58 -1.5q42 0 134 2.5t144 2.5q-1 -29 6.5 -87.5t7.5 -65.5q-6 -6 -21 -6q-12 0 -12 6q-4 57 -31 88t-66 31h-57q-60 0 -66 -11q-11 -21 -20 -72l-34 -177h94q98 0 145 -42.5t47 -114.5q0 -96 -83.5 -156t-211.5 -60z" />
<glyph unicode="&#x412;" horiz-adv-x="566" d="M217 370h94q50 0 85.5 44t35.5 108q0 47 -27 77.5t-87 30.5q-43 0 -49 -10t-19 -75zM210 339l-44 -225q-13 -61 -6 -71q12 -17 70 -17q79 0 128.5 51.5t49.5 142.5q0 15 -0.5 24.5t-8 29.5t-21 32.5t-42.5 22.5t-69 10h-57zM232 657q16 0 59 1t73 1q69 0 112.5 -30.5 t43.5 -91.5q0 -108 -120 -171q37 -3 70 -42.5t33 -97.5q0 -101 -83.5 -165t-211.5 -64h-214q-3 4 -0.5 14.5t6.5 14.5q14 0 39 4.5t28 11.5q7 14 19 74l83 427q11 56 10 74q0 8 -23 12t-38 4q-2 4 -0.5 14.5t5.5 14.5q95 -5 109 -5z" />
<glyph unicode="&#x413;" horiz-adv-x="503" d="M-4 -3q-3 4 -1 14.5t6 14.5q14 0 39 4.5t28 11.5q7 14 19 74l83 427q11 66 10 74q-1 7 -24 11.5t-37 4.5q-2 4 -0.5 14.5t5.5 14.5q17 0 52 -1.5t58 -1.5q65 0 155 2t138 2q-1 -20 1.5 -46t9 -68t7.5 -52q-6 -6 -25 -6q-12 0 -12 6q-7 74 -39 101q-31 27 -103 27h-28 q-54 0 -68 -10q-4 -3 -18 -72l-83 -427q-12 -59 -10 -74q1 -7 24 -11.5t37 -4.5q2 -4 0 -14.5t-6 -14.5q-95 5 -107 5q-13 0 -111 -5z" />
<glyph unicode="&#x414;" horiz-adv-x="583" d="M215 543q11 57 9 74q-1 7 -24 11.5t-37 4.5q-2 4 -0.5 14.5t5.5 14.5q136 -4 210 -4q151 0 229 4q3 -4 1 -14.5t-6 -14.5q-14 0 -39.5 -4.5t-28.5 -11.5q-7 -14 -19 -74l-83 -427q-11 -56 -9 -74q1 -7 24 -11.5t37 -4.5q2 -4 0 -14.5t-6 -14.5q-8 -13 -13 -24 q-39 -81 -54 -156q-5 -5 -14.5 -5t-13.5 5q17 84 7 155q-4 26 -24 26h-147q-4 0 -72.5 1t-110.5 1q-24 0 -37 -26q-33 -61 -52 -155q-6 -5 -15.5 -5t-12.5 5q14 68 6 156q-1 8 -4 24q-3 4 -0.5 14.5t6.5 14.5q8 0 29.5 4t28.5 9q61 48 132 205.5t98 296.5zM62 39 q-1 -3 16.5 -5t41.5 -3.5t45 -2t33 -0.5q128 0 135 16q7 14 19 74l82 425q11 60 10 74q0 12 -79 12q-88 0 -91 -12q-12 -36 -18 -73q-24 -123 -83.5 -277t-110.5 -228z" />
<glyph unicode="&#x415;" horiz-adv-x="555" d="M234 657q42 0 145 3.5t155 3.5q-2 -12 -0.5 -69.5t1.5 -66.5q-5 -5 -18 -5q-11 0 -11 7q-4 56 -26 78t-62 22h-80q-60 0 -66 -11q-11 -21 -20 -72l-37 -192q0 -2 3 -3t9 -2t12.5 -1h14.5h49q66 0 83 13q11 9 32 56q0 2 1 3q3 7 16 7q11 0 14 -5l-36 -189q-4 -4 -16 -4 q-11 0 -13 8q-3 62 -13 70t-97 8q-67 0 -69 -9l-39 -198q-13 -63 -7 -69q10 -10 64 -10h44q77 0 124 31q44 30 78 101q3 6 15 6q18 0 22 -6q-6 -12 -28 -52.5t-35 -67t-20 -46.5q-48 0 -149.5 2t-166.5 2q-23 0 -58.5 -1.5t-52.5 -1.5q-3 4 -1 14.5t6 14.5q14 0 39.5 4.5 t28.5 11.5q7 14 19 74l83 427q11 56 9 74q-1 7 -24 11.5t-37 4.5q-2 4 0 14.5t6 14.5q95 -5 109 -5z" />
<glyph unicode="&#x416;" horiz-adv-x="893" d="M853 671q29 0 43 -11q5 -12 5 -21q0 -25 -15 -41t-41 -16q-8 0 -25 6t-31 6q-8 0 -22.5 -8.5t-25.5 -23.5q-6 -9 -38 -55t-57 -81q-46 -61 -84 -82q17 0 29 -4.5t22 -18t13 -19t12 -25.5q15 -32 35 -103t31 -100q16 -42 92 -48q5 -6 -7 -29q-89 0 -121 13q-37 15 -48 51 q-46 147 -60 181q-11 29 -22 41.5t-28 18.5q-30 12 -41 8q-7 -2 -8 -5l-37 -186q-11 -56 -9 -74q1 -7 24 -11.5t37 -4.5q2 -4 0 -16t-6 -16q-95 5 -108 5q-14 0 -111 -5q-3 4 -0.5 16t6.5 16q14 0 39 4.5t28 11.5q9 17 20 74l36 187q-1 2 -6 4q-11 4 -44 -8q-34 -11 -73 -60 q-42 -53 -130 -181q-24 -35 -69 -51q-37 -13 -126 -13q-1 1 0 13.5t5 15.5q76 6 107 47q23 29 71.5 105t74.5 105q21 23 31.5 32.5t30 19t42.5 9.5q-33 24 -52 82q-10 28 -26.5 73.5t-21.5 61.5t-16.5 24.5t-21.5 8.5q-14 0 -33 -6t-27 -6q-16 0 -27 8t-11 24q0 25 17 45 q18 12 47 12q36 0 65 -22t42 -69q30 -108 67 -182q15 -29 36.5 -39.5t55.5 -10.5l37 192q12 59 10 74q-1 7 -24 11.5t-37 4.5q-2 4 0 16t6 16q95 -5 109 -5q12 0 110 5q3 -4 0.5 -16t-6.5 -16q-14 0 -39.5 -4.5t-28.5 -11.5q-7 -14 -19 -74l-37 -192q67 0 112 50 q31 35 52.5 64t47 69.5t30.5 48.5q60 91 142 91z" />
<glyph unicode="&#x417;" horiz-adv-x="486" d="M301 671q80 0 119.5 -31.5t39.5 -83.5q0 -61 -44.5 -111t-113.5 -72q57 -8 91 -51t34 -91q0 -52 -20 -94.5t-49.5 -68t-66 -43t-67.5 -24.5t-56 -7q-91 0 -156 45q-7 8 -7.5 69t3.5 75q16 10 31 8q0 -74 33 -116q38 -48 101 -48q20 0 45 10t51.5 30t44 59t17.5 90 q0 96 -90 114q-18 4 -74 4q-2 4 1.5 15.5t6.5 13.5q75 2 138 54t63 125q0 49 -25.5 71.5t-64.5 22.5q-108 0 -172 -161q-3 -3 -12 -3q-6 0 -13 4t-6 7l50 151q99 37 168 37z" />
<glyph unicode="&#x418;" horiz-adv-x="679" d="M452 116l73 377l20 84l-376 -525q-9 -12 -16 -41q-3 -12 -4 -14q-45 3 -64 3q-51 0 -89 -3q-3 4 -1 14.5t6 14.5q14 0 39.5 4.5t28.5 11.5q7 14 19 74l82 427q10 63 9 74q-1 7 -24 11.5t-37 4.5q-2 4 0 14.5t6 14.5q95 -5 109 -5q12 0 110 5q3 -4 0.5 -14.5t-6.5 -14.5 q-14 0 -39 -4.5t-28 -11.5q-10 -20 -19 -74l-73 -378q-1 -8 -18 -72l372 518q14 18 17 33l3 17q30 -2 69 -2q29 0 87 3q3 -4 0.5 -14.5t-6.5 -14.5q-14 0 -39 -4.5t-28 -11.5q-7 -14 -19 -74l-83 -426q-12 -60 -10 -75q1 -7 24 -11.5t37 -4.5q2 -4 0 -14.5t-6 -14.5 q-95 5 -107 5q-13 0 -111 -5q-3 4 -1 14.5t6 14.5q14 0 39.5 4.5t28.5 11.5q7 14 19 74z" />
<glyph unicode="&#x419;" horiz-adv-x="679" d="M371 845q1 -32 23.5 -53t55.5 -21q31 0 56 21t38 52q3 0 10 -7t6 -10q-17 -43 -51.5 -72t-79.5 -29q-43 0 -71 29t-28 65q2 8 18 17.5t23 7.5zM452 116l73 377l20 84l-376 -525q-9 -12 -16 -41q-3 -12 -4 -14q-45 3 -64 3q-51 0 -89 -3q-3 4 -1 14.5t6 14.5 q14 0 39.5 4.5t28.5 11.5q7 14 19 74l82 427q10 63 9 74q-1 7 -24 11.5t-37 4.5q-2 4 0 14.5t6 14.5q95 -5 109 -5q12 0 110 5q3 -4 0.5 -14.5t-6.5 -14.5q-14 0 -39 -4.5t-28 -11.5q-10 -20 -19 -74l-73 -378q-1 -8 -18 -72l372 518q14 18 17 33l3 17q30 -2 69 -2 q29 0 87 3q3 -4 0.5 -14.5t-6.5 -14.5q-14 0 -39 -4.5t-28 -11.5q-7 -14 -19 -74l-83 -426q-12 -60 -10 -75q1 -7 24 -11.5t37 -4.5q2 -4 0 -14.5t-6 -14.5q-95 5 -107 5q-13 0 -111 -5q-3 4 -1 14.5t6 14.5q14 0 39.5 4.5t28.5 11.5q7 14 19 74z" />
<glyph unicode="&#x41a;" horiz-adv-x="638" d="M170 540q12 59 10 74q-1 7 -24 11.5t-37 4.5q-2 4 0 16t6 16q95 -5 109 -5q12 0 110 5q3 -4 0.5 -16t-6.5 -16q-14 0 -39.5 -4.5t-28.5 -11.5q-7 -14 -19 -74l-37 -192q67 0 112 50q31 35 52.5 64t47 69.5t30.5 48.5q60 91 142 91q29 0 43 -11q5 -12 5 -21q0 -25 -15 -41 t-41 -16q-8 0 -25 6t-31 6q-8 0 -22.5 -8.5t-25.5 -23.5q-6 -9 -38 -55t-57 -81q-46 -61 -84 -82q17 0 29 -4.5t22 -18t13 -19t12 -25.5q15 -32 35 -103t31 -100q16 -42 92 -48q5 -6 -7 -29q-89 0 -121 13q-37 15 -48 51q-46 147 -60 181q-11 29 -22 41.5t-28 18.5 q-30 12 -41 8q-7 -2 -8 -5l-37 -186q-11 -56 -9 -74q1 -7 24 -11.5t37 -4.5q2 -4 0 -16t-6 -16q-95 5 -108 5t-111 -5q-3 4 -0.5 16t6.5 16q14 0 39 4.5t28 11.5q9 17 20 74z" />
<glyph unicode="&#x41b;" horiz-adv-x="596" d="M368 116l83 427q11 60 10 74q0 12 -80 12q-88 0 -91 -12q-9 -29 -17 -73q-83 -393 -188 -511q-22 -24 -44.5 -36.5t-33.5 -12.5q-39 0 -59 10q0 11 5 17q64 32 126 121q42 62 85.5 176.5t66.5 234.5q11 57 9 74q-1 7 -24 11.5t-37 4.5q-2 4 0 14.5t6 14.5q136 -4 209 -4 q152 0 230 4q3 -4 0.5 -14.5t-6.5 -14.5q-14 0 -39 -4.5t-28 -11.5q-7 -14 -19 -74l-83 -427q-12 -59 -10 -74q1 -7 24 -11.5t37 -4.5q2 -4 0.5 -14.5t-5.5 -14.5q-95 5 -108 5t-111 -5q-3 4 -0.5 14.5t6.5 14.5q14 0 39 4.5t28 11.5q7 14 19 74z" />
<glyph unicode="&#x41c;" horiz-adv-x="838" d="M398 49q-6 -10 -22 -30t-23 -21q-1 0 -8 2l-114 584q-20 -96 -47.5 -221t-45.5 -205.5t-18 -82.5q-4 -17 -2 -31q2 -10 28 -14t42 -4q2 -4 0 -15t-4 -14q-92 5 -97 5q-3 0 -110 -5q-1 2 1 13t5 16q15 0 43 5t35 13q13 15 21 50q97 421 106 478q6 28 4 40q-1 8 -25 14.5 t-36 6.5q-2 5 0.5 16t5.5 13q58 -4 90 -4q39 0 81 4q3 -28 28 -159t48 -247l24 -117l56 101q56 100 112 201l57 101l64 120q58 -4 70 -4q44 0 92 4l-2 -29q-13 0 -39 -5.5t-31 -12.5q-8 -15 -12 -38l-76 -437q-12 -67 -7 -97q1 -9 24 -13t37 -4q5 -16 -3 -29q-92 5 -110 5 q-6 0 -113 -5q-1 2 1 13t5 16q43 0 63 11q8 5 16 42q1 6 13.5 83t33 203t32.5 201z" />
<glyph unicode="&#x41d;" horiz-adv-x="689" d="M169 116q-12 -59 -10 -74q1 -7 24 -11.5t37 -4.5q2 -4 0 -14.5t-6 -14.5q-95 5 -107 5q-13 0 -111 -5q-3 4 -1 14.5t6 14.5q14 0 39.5 4.5t28.5 11.5q7 14 19 74l83 427q11 56 9 74q-1 7 -24 11.5t-37 4.5q-2 4 0 14.5t6 14.5q95 -5 109 -5q12 0 110 5q3 -4 0.5 -14.5 t-6.5 -14.5q-14 0 -39 -4.5t-28 -11.5q-10 -20 -19 -74l-37 -187h292l37 187q10 63 9 74q-1 7 -24 11.5t-37 4.5q-2 4 0 14.5t6 14.5q95 -5 109 -5q13 0 110 5q3 -4 0.5 -14.5t-6.5 -14.5q-14 0 -39 -4.5t-28 -11.5q-7 -14 -19 -74l-83 -427q-12 -59 -10 -74q1 -7 24 -11.5 t37 -4.5q2 -4 0 -14.5t-6 -14.5q-95 5 -108 5t-110 -5q-3 4 -1 14.5t6 14.5q14 0 39.5 4.5t28.5 11.5q7 14 19 74l39 200h-292z" />
<glyph unicode="&#x41e;" horiz-adv-x="710" d="M406 635q-98 0 -174.5 -107t-76.5 -260q0 -47 8 -88t26.5 -79.5t54 -60.5t84.5 -22q73 0 131.5 57t88.5 142t30 176q0 41 -7.5 79t-25 77t-53.5 62.5t-86 23.5zM415 665q116 0 186.5 -80t70.5 -203q0 -172 -103 -282.5t-250 -110.5q-118 0 -188 81t-70 203 q0 168 106.5 280t247.5 112z" />
<glyph unicode="&#x41f;" horiz-adv-x="626" d="M390 658q187 0 265 4q3 -4 0.5 -14.5t-6.5 -14.5q-14 0 -39 -4.5t-28 -11.5q-7 -14 -19 -74l-83 -427q-12 -59 -10 -74q1 -7 24 -11.5t37 -4.5q2 -4 0.5 -14.5t-5.5 -14.5q-95 5 -108 5t-111 -5q-3 4 -0.5 14.5t6.5 14.5q14 0 39 4.5t28 11.5q7 14 19 74l83 427 q11 55 9 72q-1 14 -107 14t-112 -14q-6 -12 -18 -72l-83 -427q-12 -59 -10 -74q1 -7 24 -11.5t37 -4.5q2 -4 0 -14.5t-6 -14.5q-95 5 -108 5q-12 0 -110 -5q-3 4 -1 14.5t6 14.5q14 0 39.5 4.5t28.5 11.5q7 14 19 74l83 427q11 56 9 74q-1 7 -24 11.5t-37 4.5q-2 4 0 14.5 t6 14.5q76 -4 263 -4z" />
<glyph unicode="&#x420;" horiz-adv-x="511" d="M523 508q0 -94 -70 -160t-163 -66q-32 0 -45 10q-8 8 -8 16q0 2 4 4q8 -4 33 -4q59 0 109.5 53t50.5 133q0 136 -116 136q-42 0 -48 -10t-19 -75l-84 -429q-11 -56 -9 -74q1 -7 24 -11.5t37 -4.5q2 -4 0 -14.5t-6 -14.5q-95 5 -108 5t-110 -5q-3 4 -1 14.5t6 14.5 q14 0 39.5 4.5t28.5 11.5q7 14 19 74l83 427q11 56 9 74q-1 7 -24 11.5t-37 4.5q-2 4 0 14.5t6 14.5q95 -5 111 -5t46.5 1t60.5 1q80 0 130.5 -41.5t50.5 -109.5z" />
<glyph unicode="&#x421;" horiz-adv-x="645" d="M569 173q6 0 13 -2t11 -4l4 -2q-3 -16 -32 -72t-40 -65q-69 -36 -195 -36q-119 0 -195 79.5t-76 193.5q0 121 58.5 215t150.5 141t197 45q59 -1 161 -26q-6 -109 -10 -146q0 -5 -8 -5q-13 0 -23 5q4 59 -40.5 100t-108.5 41q-120 0 -201.5 -97t-80.5 -256q0 -37 6.5 -73 t22 -70.5t38.5 -60t58.5 -41.5t78.5 -16q131 0 211 152z" />
<glyph unicode="&#x422;" horiz-adv-x="587" d="M551 655q29 0 59 15q12 6 18 2q-9 -110 -9 -172q-8 -8 -20 -7q-10 0 -12 5q1 55 -15 88.5t-49 33.5h-118l-99 -504q-12 -59 -10 -74q1 -7 24 -11.5t37 -4.5q2 -4 0.5 -14.5t-5.5 -14.5q-95 5 -108 5t-111 -5q-3 4 -0.5 14.5t6.5 14.5q14 0 39 4.5t28 11.5q7 14 19 74 l99 504h-120q-33 0 -62.5 -33.5t-50.5 -88.5q-3 -5 -14 -5q-11 -1 -17 7q28 72 58 172q8 4 20 -3q23 -14 50 -14h363z" />
<glyph unicode="&#x423;" horiz-adv-x="538" d="M151 657q21 0 116 5q1 -5 -1.5 -16.5t-5.5 -12.5q-7 0 -18.5 -2t-26.5 -10t-17 -21q-3 -14 11 -65q12 -46 43 -161.5t34 -127.5q41 62 162 267q33 54 37 80q4 21 -16.5 30t-36.5 9q-3 1 -1 13t6 16q68 -4 96 -4q19 0 33 1t29.5 2t29.5 2q1 -4 -2 -16.5t-5 -12.5 q-10 0 -31 -6.5t-34 -19.5q-17 -17 -68 -101q-41 -67 -75.5 -123.5t-62 -101t-77.5 -123.5q-54 -85 -96 -130q-54 -58 -107 -58q-20 0 -33 11t-8 38q4 18 19 33q9 0 33 -1.5t34 -0.5t28.5 10.5t38.5 28.5q16 16 42 54l-94 373q-9 35 -34 94q-5 11 -24 17t-31 6q-1 0 0 7 t3 14t3 8q105 -5 107 -5z" />
<glyph unicode="&#x424;" horiz-adv-x="624" d="M246 144l71 367q-65 -18 -114 -69.5t-62 -116.5q-13 -64 16.5 -116t88.5 -65zM237 105q-93 8 -147.5 67t-37.5 144q17 89 95 154t177 83q7 46 6 59q-1 8 -23.5 14.5t-34.5 6.5q-3 0 -1 13q2 11 7 16q105 -5 110 -5q14 0 109 5q0 -10 -1 -15q-2 -14 -6 -14q-9 0 -35 -7 t-29 -14q-10 -23 -18 -53q94 -6 150.5 -66t39.5 -145q-18 -91 -96.5 -157t-180.5 -83q-6 -36 -5 -62q1 -7 24 -13.5t32 -6.5q2 0 0 -15q-2 -11 -4 -14q-92 5 -107 5q-5 0 -113 -5q-2 4 0 15q2 14 6 14q12 0 36.5 6t29.5 14q5 13 17 59zM399 517l-72 -370q68 16 119 70 t64 121q13 66 -18 117.5t-93 61.5z" />
<glyph unicode="&#x425;" horiz-adv-x="620" d="M224 657q25 0 120 5q1 -5 -1.5 -17t-5.5 -12q-17 0 -38 -7.5t-24 -24.5q-3 -11 5 -30l74 -179q154 174 172 200q7 11 8 16q1 4 -3 9t-19 10t-39 5q-3 1 -1 12t5 17q62 -5 99 -5q46 0 103 5q2 -4 -0.5 -14.5t-7.5 -14.5q-7 0 -19 -2t-34 -12t-37 -26l-213 -231l123 -295 q17 -40 83 -40q5 -9 -5 -29q-93 5 -94 5q-7 0 -137 -5q-3 4 -1 16.5t6 12.5q13 0 35 8t25 20q1 3 -2 12l-96 234q-102 -115 -199 -234q-7 -11 -8 -16q-1 -4 4.5 -9t21.5 -10t40 -5q2 -4 0 -15t-4 -14q-85 5 -104 5q-20 0 -115 -5q-1 4 2 15t5 14q8 0 23 2t40.5 12t40.5 26 l237 266l-89 216q-19 49 -48 69q-22 16 -49 16q-2 1 -2 6.5t2.5 13t5.5 9.5q112 -5 115 -5z" />
<glyph unicode="&#x426;" horiz-adv-x="677" d="M458 -1l-352 1q-14 0 -111 -5q-3 4 -0.5 14.5t6.5 14.5q14 0 39 4.5t28 11.5q7 14 19 74l83 427q12 59 10 74q-1 7 -24 11.5t-37 4.5q-2 4 0 14.5t6 14.5q95 -5 109 -5q11 0 109 5q3 -4 1 -14.5t-6 -14.5q-14 0 -39.5 -4.5t-28.5 -11.5q-7 -14 -19 -74l-81 -418 q-12 -59 -10 -74q1 -13 128 -13q131 0 137 13q7 14 19 74l82 418q11 56 9 74q-1 7 -24 11.5t-37 4.5q-2 4 0 14.5t6 14.5q95 -5 109 -5q13 0 110 5q3 -4 0.5 -14.5t-6.5 -14.5q-14 0 -39 -4.5t-28 -11.5q-7 -14 -19 -74l-83 -424q-12 -59 -10 -74q1 -7 24.5 -11.5t37.5 -4.5 q2 -4 0 -14.5t-6 -14.5q-8 -13 -13 -24q-41 -84 -55 -156q-5 -5 -14.5 -5t-13.5 5q17 87 8 155q-4 26 -24 26z" />
<glyph unicode="&#x427;" horiz-adv-x="581" d="M118 543q12 59 10 74q-1 7 -24 11.5t-37 4.5q-2 4 -0.5 14.5t5.5 14.5q95 -5 109 -5q13 0 110 5q3 -4 0.5 -14.5t-6.5 -14.5q-14 0 -39 -4.5t-28 -11.5q-7 -14 -19 -74q-4 -18 -7.5 -36t-4.5 -24q-8 -39 -0.5 -76.5t35 -65.5t73.5 -28q64 0 102 29l39 201q12 59 10 74 q-1 7 -24 11.5t-37 4.5q-2 4 -0.5 14.5t5.5 14.5q95 -5 109 -5q13 0 110 5q3 -4 0.5 -14.5t-6.5 -14.5q-14 0 -39 -4.5t-28 -11.5q-7 -14 -19 -74l-83 -427q-12 -59 -10 -74q1 -7 24 -11.5t37 -4.5q2 -4 0.5 -14.5t-5.5 -14.5q-95 5 -108 5t-111 -5q-3 4 -0.5 14.5t6.5 14.5 q14 0 39 4.5t28 11.5q7 14 19 74l36 183q-45 -31 -134 -31q-28 0 -56 9.5t-55.5 30.5t-39 63t-0.5 99z" />
<glyph unicode="&#x428;" horiz-adv-x="922" d="M713 0h-304h-304q-13 0 -111 -5q-3 4 -0.5 14.5t6.5 14.5q14 0 39 4.5t28 11.5q7 14 19 74l83 427q12 59 10 74q-1 7 -24 11.5t-37 4.5q-2 4 0 14.5t6 14.5q95 -5 109 -5q11 0 109 5q3 -4 1 -14.5t-6 -14.5q-14 0 -39.5 -4.5t-28.5 -11.5q-7 -14 -19 -74l-81 -418 q-12 -59 -10 -74q1 -13 103 -13q105 0 111 13q7 14 19 74l82 418q11 56 9 74q-1 7 -24 11.5t-37 4.5q-2 4 0 14.5t6 14.5q95 -5 109 -5q11 0 109 5q3 -4 1 -14.5t-6 -14.5q-14 0 -39.5 -4.5t-28.5 -11.5q-7 -14 -19 -74l-81 -418q-12 -59 -10 -74q1 -13 103 -13 q105 0 111 13q7 14 19 74l82 418q11 56 9 74q-1 7 -24 11.5t-37 4.5q-2 4 0 14.5t6 14.5q95 -5 109 -5q13 0 110 5q3 -4 0.5 -14.5t-6.5 -14.5q-14 0 -39 -4.5t-28 -11.5q-7 -14 -19 -74l-83 -427q-12 -59 -10 -74q1 -7 24 -11.5t37 -4.5q2 -4 0 -14.5t-6 -14.5 q-95 5 -108 5z" />
<glyph unicode="&#x429;" horiz-adv-x="929" d="M713 0h-304h-304q-13 0 -111 -5q-3 4 -0.5 14.5t6.5 14.5q14 0 39 4.5t28 11.5q7 14 19 74l83 427q12 59 10 74q-1 7 -24 11.5t-37 4.5q-2 4 0 14.5t6 14.5q95 -5 109 -5q11 0 109 5q3 -4 1 -14.5t-6 -14.5q-14 0 -39.5 -4.5t-28.5 -11.5q-7 -14 -19 -74l-81 -418 q-12 -59 -10 -74q1 -13 103 -13q105 0 111 13q7 14 19 74l82 418q11 56 9 74q-1 7 -24 11.5t-37 4.5q-2 4 0 14.5t6 14.5q95 -5 109 -5q11 0 109 5q3 -4 1 -14.5t-6 -14.5q-14 0 -39.5 -4.5t-28.5 -11.5q-7 -14 -19 -74l-81 -418q-12 -59 -10 -74q1 -13 103 -13 q105 0 111 13q7 14 19 74l82 418q11 56 9 74q-1 7 -24 11.5t-37 4.5q-2 4 0 14.5t6 14.5q95 -5 109 -5q13 0 110 5q3 -4 0.5 -14.5t-6.5 -14.5q-14 0 -39 -4.5t-28 -11.5q-7 -14 -19 -74l-83 -427q-12 -58 -10 -72q1 -7 24 -11.5t37 -4.5q2 -4 0.5 -14.5t-5.5 -14.5 q-8 -13 -13 -24q-41 -84 -55 -156q-5 -5 -14.5 -5t-13.5 5q17 87 8 155q-4 28 -21 28z" />
<glyph unicode="&#x42a;" horiz-adv-x="709" d="M392 370h94q98 0 145 -42.5t47 -114.5q0 -96 -83.5 -156t-211.5 -60h-214q-3 4 -0.5 14.5t6.5 14.5q14 0 39 4.5t28 11.5q7 14 19 74l83 427q13 67 8 72q-11 10 -64 10q-71 0 -114 -27t-78 -101q-3 -6 -14 -6q-18 0 -22 6q7 13 22 41.5t24.5 46t20 40.5t15.5 38 q48 0 123.5 -2t140.5 -2q23 0 58.5 1.5t52.5 1.5q3 -4 0.5 -14.5t-6.5 -14.5q-14 0 -39 -4.5t-28 -11.5q-7 -14 -19 -74zM385 339l-43 -225q-13 -60 -5 -71q12 -17 68 -17q79 0 128.5 51.5t49.5 142.5q0 16 -4.5 32t-17.5 38t-43.5 35.5t-75.5 13.5h-57z" />
<glyph unicode="&#x42b;" horiz-adv-x="775" d="M171 543q11 53 8 74q-1 7 -24 11.5t-37 4.5q-2 4 0 14.5t6 14.5q95 -5 109 -5q12 0 110 5q3 -4 0.5 -14.5t-6.5 -14.5q-14 0 -39 -4.5t-28 -11.5q-5 -11 -18 -74l-33 -173h94q98 0 145 -42.5t47 -114.5q0 -96 -83.5 -156t-211.5 -60h-214q-3 4 -0.5 14.5t6.5 14.5 q14 0 39 4.5t28 11.5q7 14 19 74zM212 339l-43 -225q-13 -60 -5 -71q12 -17 68 -17q79 0 128.5 51.5t49.5 142.5q0 16 -4.5 32t-17.5 38t-43.5 35.5t-75.5 13.5h-57zM693 657q12 0 110 5q3 -4 0.5 -14.5t-6.5 -14.5q-14 0 -39 -4.5t-28 -11.5q-7 -14 -19 -74l-83 -427 q-12 -59 -10 -74q1 -7 24 -11.5t37 -4.5q2 -4 0.5 -14.5t-5.5 -14.5q-95 5 -108 5q-14 0 -111 -5q-3 4 -0.5 14.5t6.5 14.5q14 0 39 4.5t28 11.5q7 14 19 74l83 427q12 59 10 74q-1 7 -24 11.5t-37 4.5q-2 4 -0.5 14.5t5.5 14.5q95 -5 109 -5z" />
<glyph unicode="&#x42c;" horiz-adv-x="536" d="M171 543q11 53 8 74q-1 7 -24 11.5t-37 4.5q-2 4 0 14.5t6 14.5q95 -5 109 -5q12 0 110 5q3 -4 0.5 -14.5t-6.5 -14.5q-14 0 -39 -4.5t-28 -11.5q-5 -11 -18 -74l-33 -173h94q98 0 145 -42.5t47 -114.5q0 -96 -83.5 -156t-211.5 -60h-214q-3 4 -0.5 14.5t6.5 14.5 q14 0 39 4.5t28 11.5q7 14 19 74zM212 339l-43 -225q-13 -60 -5 -71q12 -17 68 -17q79 0 128.5 51.5t49.5 142.5q0 16 -4.5 32t-17.5 38t-43.5 35.5t-75.5 13.5h-57z" />
<glyph unicode="&#x42d;" horiz-adv-x="648" d="M352 667q65 0 118 -26.5t84 -68.5t47.5 -89.5t16.5 -94.5q0 -75 -23.5 -140.5t-63 -111t-90.5 -78.5t-106 -48.5t-110 -15.5q-126 0 -191 45q-7 8 -7.5 69t3.5 75q16 10 31 8q0 -76 34 -116q17 -20 53.5 -34t77.5 -14q120 0 196 78t95 204q-14 1 -112 1q-86 0 -100 -8 t-39 -66q-5 -8 -16 -8q-13 0 -15 4l37 189q5 5 17 5q13 0 13 -7v-16.5t0.5 -17t1.5 -13.5t3.5 -12t6.5 -6q15 -7 95 -7q23 0 41.5 0.5t38 1.5t32.5 1q2 22 2 35q0 97 -49 173t-133 76q-153 0 -210 -146q-5 -3 -12 -3t-13 4.5t-5 8.5l50 148q94 21 201 21z" />
<glyph unicode="&#x42e;" horiz-adv-x="892" d="M167 522q12 67 11 89q-2 7 -24.5 13.5t-34.5 6.5q-3 0 -1 14q2 13 6 15q17 0 52.5 -2t58.5 -2q24 0 61 2t49 2q1 -3 -1 -14q-2 -15 -7 -15q-9 0 -35 -6.5t-29 -13.5q-14 -34 -26 -93l-29 -150h114q37 128 126.5 213t195.5 85q114 0 171 -98.5t29 -240.5 q-27 -141 -122.5 -239t-209.5 -98q-115 0 -171.5 97t-29.5 238h-111l-36 -186q-12 -62 -11 -93q1 -7 24.5 -13.5t32.5 -6.5q2 0 0 -15q-2 -11 -4 -14q-92 5 -108 5q-6 0 -113 -5q-2 4 0 15q2 14 6 14q13 0 37.5 6t29.5 14q15 34 24 89zM632 624q-75 0 -134 -82.5t-80 -191.5 q-13 -81 -8.5 -151.5t39.5 -118t94 -47.5q75 0 134.5 83t80.5 193q13 81 8.5 151t-40 117t-94.5 47z" />
<glyph unicode="&#x42f;" horiz-adv-x="584" d="M370 659q30 0 73 -1t59 -1q14 0 111 5q3 -4 0.5 -14.5t-6.5 -14.5q-14 0 -39 -4.5t-28 -11.5q-7 -14 -19 -74l-84 -427q-11 -66 -10 -74q1 -7 24.5 -11.5t37.5 -4.5q2 -4 0 -14.5t-6 -14.5q-95 5 -109 5q-12 0 -110 -5q-3 4 -0.5 14.5t6.5 14.5q14 0 39 4.5t28 11.5 q7 14 19 74q22 113 36 186h-49q-21 0 -30 -12q-148 -185 -194 -237q-26 -29 -69 -44q-34 -12 -125 -12q-1 1 0 13.5t5 15.5q67 5 116 60q121 135 196 235q-46 18 -75.5 65.5t-19.5 99.5q10 54 48.5 95t84 59.5t90.5 18.5zM232 477q-12 -63 23.5 -103.5t93.5 -40.5h49l41 209 q12 61 10 75q-2 10 -44 10q-74 0 -116.5 -40.5t-56.5 -109.5z" />
<glyph unicode="&#x430;" horiz-adv-x="449" d="M305 435q43 0 78 -13l-61 -316q-14 -57 6 -57q5 0 12.5 4t14.5 10t15 14t13.5 14t10.5 11l4 5q2 0 6 -7.5t4 -11.5q-12 -21 -56 -57.5t-75 -36.5q-16 0 -25 14.5t-9 37.5q0 16 7 53q4 24 5 31q-23 -42 -66 -88.5t-81 -46.5q-40 0 -64.5 32.5t-24.5 85.5q0 63 27.5 123.5 t69.5 103t93 69t96 26.5zM259 395q-58 0 -112 -79t-54 -165q0 -98 51 -98q36 0 80.5 73t59.5 148l21 106q-13 15 -46 15z" />
<glyph unicode="&#x431;" horiz-adv-x="435" d="M46 172q0 91 55.5 219.5t142.5 217.5q18 18 97 41.5t102 39.5q4 2 10.5 2t8.5 -2q-5 -24 -21.5 -51.5t-44.5 -42.5q-23 -13 -97 -26q-50 -9 -73 -38q-57 -68 -87 -162q73 65 128 65q59 0 90 -38t31 -110q0 -111 -74 -201.5t-152 -90.5q-57 0 -86.5 51t-29.5 126zM256 403 q-44 0 -82 -56q-21 -31 -37 -87.5t-16 -97.5q0 -62 15 -98.5t44 -36.5q51 0 90.5 77t39.5 168q0 131 -54 131z" />
<glyph unicode="&#x432;" horiz-adv-x="398" d="M106 218q38 0 99.5 43t61.5 93q0 19 -13 29.5t-29 10.5q-46 0 -80 -62.5t-39 -113.5zM341 373q0 -22 -12.5 -44.5t-29.5 -39t-35 -29.5t-30 -20l-11 -7q47 -1 78.5 -24t31.5 -65q0 -59 -59 -104t-123 -45q-127 0 -127 144q0 109 81.5 202.5t169.5 93.5q35 0 50.5 -18 t15.5 -44zM104 182q-2 -14 -2 -20q0 -57 23 -92.5t60 -35.5q35 0 56.5 25.5t21.5 70.5q0 27 -20.5 51t-69.5 24q-10 0 -32.5 -7t-36.5 -16z" />
<glyph unicode="&#x433;" horiz-adv-x="328" d="M215 435q94 0 94 -70q0 -71 -120 -135q-24 -13 -39 -22.5t-36 -25.5t-32 -33.5t-11 -35.5q0 -61 62 -61q23 0 51.5 14.5t41 25t18.5 16.5q2 0 7 -8t5 -12q-72 -94 -152 -94q-46 0 -75.5 24.5t-29.5 67.5q0 20 9.5 40t20.5 33t33 29.5t34.5 24t37.5 21t30 16.5 q71 41 71 89q0 45 -48 45q-58 0 -109 -46q-5 0 -11 5.5t-6 9.5q27 35 71.5 58.5t82.5 23.5z" />
<glyph unicode="&#x434;" horiz-adv-x="422" d="M246 435q43 0 65 -39q2 12 2 60q0 185 -123 185q-33 0 -55 -10q-7 5 -7 13q40 40 104 40q41 0 72 -24.5t47 -66t23.5 -86.5t7.5 -94q0 -81 -14.5 -154t-42.5 -133t-75.5 -95.5t-108.5 -35.5q-58 0 -87 38t-29 105q0 68 32.5 138t84.5 114.5t104 44.5zM160 27 q39 0 71 45.5t47.5 105t15.5 113.5q0 11 -1.5 25.5t-6.5 36t-17.5 36t-30.5 14.5q-58 0 -96.5 -80t-38.5 -165q0 -60 15 -95.5t42 -35.5z" />
<glyph unicode="&#x435;" d="M274 435q35 0 50.5 -18t15.5 -44q0 -44 -47 -88t-102 -68t-88 -24q-2 -6 -2 -32q0 -108 69 -108q8 0 17 3t17.5 7.5t17 10.5t15.5 12t14 12.5t11 11t8 8.5l3 4q2 0 7 -8t5 -12q-16 -27 -63.5 -67.5t-88.5 -40.5q-53 0 -81.5 37.5t-28.5 107.5q0 109 81.5 202.5 t169.5 93.5zM105 218q38 0 99.5 43t61.5 93q0 19 -13 29.5t-29 10.5q-46 0 -80 -62.5t-39 -113.5z" />
<glyph unicode="&#x436;" horiz-adv-x="683" d="M403 440l-44 -190q65 98 179 164q34 21 63 21q32 0 62 -25q9 -12 9 -27q0 -19 -9 -32t-25 -13q-24 0 -36 20l-6 12t-7 12t-10 8t-17 4q-29 0 -62.5 -69.5t-33.5 -162.5q0 -109 52 -109q17 0 44 28.5t35 42.5q2 0 7 -8t5 -12q-11 -18 -25 -38.5t-44.5 -46t-57.5 -25.5 q-39 1 -65 41t-26 108q0 75 45 157q-27 -31 -44 -56.5t-40.5 -89.5t-41.5 -154h-34l36 190q-72 -111 -187 -175q-39 -21 -63 -21q-32 0 -62 25q-9 12 -9 27q0 19 9 32t25 13q24 0 36 -20l6 -12t7 -12t10 -8t17 -4q29 0 62.5 69.5t33.5 162.5q0 109 -52 109q-17 0 -44 -28.5 t-35 -42.5q-2 0 -7 8t-5 12q11 18 25 38.5t44.5 46t57.5 25.5q39 -1 65 -41t26 -108q0 -78 -46 -159q25 27 35.5 41t30.5 48.5t35 84t29 118.5q7 8 23 14.5t24 6.5z" />
<glyph unicode="&#x437;" d="M205 435q49 0 74.5 -24.5t25.5 -56.5q0 -37 -27.5 -68.5t-76.5 -48.5q78 -28 78 -99q0 -65 -50.5 -103.5t-132.5 -38.5q-62 0 -95 25q-7 16 -4 95q4 11 20 6q11 -50 34 -74t62 -23t64 29t25 71q0 39 -29.5 64t-71.5 25q-2 3 -2 13t4 13q8 -1 22 -1q43 0 74.5 30.5 t31.5 60.5q0 22 -15 38.5t-39 16.5q-51 0 -103 -47q-5 0 -11 5.5t-6 9.5q27 35 69 58.5t79 23.5z" />
<glyph unicode="&#x438;" horiz-adv-x="510" d="M301 99q3 15 5.5 28.5t6.5 30t6 28.5q-24 -52 -90 -122t-111 -70q-50 0 -50 72q0 35 14 103l33 154q4 24 4 32q0 25 -10 25q-5 0 -12.5 -4t-14.5 -10t-15 -14t-13.5 -14t-9.5 -11l-5 -5q-2 0 -6 7.5t-4 11.5q13 22 54 58t72 36q16 0 27.5 -15t11.5 -37q0 -16 -7 -53 l-35 -165q-7 -32 -7 -54q0 -43 19 -43t56.5 35.5t74.5 96.5t48 119q3 18 10.5 52.5t11.5 57.5q13 4 31 4q23 0 39 -4l-62 -323q-4 -20 -4 -32q0 -25 10 -25q5 0 12.5 4t14.5 10t15 14t13.5 14t9.5 11l5 5q2 0 6 -7.5t4 -11.5q-12 -21 -56 -57.5t-75 -36.5q-16 0 -25 14.5 t-9 37.5q0 16 7 53z" />
<glyph unicode="&#x439;" horiz-adv-x="510" d="M232 614q1 -32 21 -52.5t50 -20.5q28 0 50.5 20.5t33.5 51.5q3 0 9 -7t5 -10q-15 -43 -46 -71.5t-71 -28.5q-38 0 -63.5 28.5t-25.5 64.5q2 8 16.5 17.5t20.5 7.5zM301 99q3 15 5.5 28.5t6.5 30t6 28.5q-24 -52 -90 -122t-111 -70q-50 0 -50 72q0 35 14 103l33 154 q4 24 4 32q0 25 -10 25q-5 0 -12.5 -4t-14.5 -10t-15 -14t-13.5 -14t-9.5 -11l-5 -5q-2 0 -6 7.5t-4 11.5q13 22 54 58t72 36q16 0 27.5 -15t11.5 -37q0 -16 -7 -53l-35 -165q-7 -32 -7 -54q0 -43 19 -43t56.5 35.5t74.5 96.5t48 119q3 18 10.5 52.5t11.5 57.5q13 4 31 4 q23 0 39 -4l-62 -323q-4 -20 -4 -32q0 -25 10 -25q5 0 12.5 4t14.5 10t15 14t13.5 14t9.5 11l5 5q2 0 6 -7.5t4 -11.5q-12 -21 -56 -57.5t-75 -36.5q-16 0 -25 14.5t-9 37.5q0 16 7 53z" />
<glyph unicode="&#x43a;" horiz-adv-x="433" d="M326 52q22 0 77 55q2 0 6 -7.5t4 -11.5q-12 -21 -56 -57.5t-75 -36.5q-42 0 -68 49t-44 142q-16 -36 -21 -63q-4 -20 -25 -122q-28 -4 -36 -4q-7 0 -35 4l66 323q4 24 4 32q0 25 -10 25q-5 0 -12.5 -4t-14.5 -10t-15 -14t-13.5 -14t-9.5 -11l-5 -5q-2 0 -6 7.5t-4 11.5 q13 22 54 58t72 36q16 0 27.5 -15t11.5 -37q0 -19 -8 -53l-18 -84q21 40 87 114.5t113 74.5q20 0 36 -7q9 -13 9 -28q0 -24 -10 -39.5t-27 -15.5q-6 0 -21 8t-25 8q-16 0 -49 -26t-64 -65q8 -51 14.5 -80.5t18.5 -66t30 -54t42 -17.5z" />
<glyph unicode="&#x43b;" horiz-adv-x="435" d="M291 -6q-16 0 -27.5 25t-13.5 61q-2 33 -3.5 119t-3.5 124q-52 -148 -129 -275q-30 -50 -65 -50q-22 0 -35.5 12.5t-13.5 31.5q0 32 15 39q15 -15 40 -15q22 0 40 24q34 46 75 136t63 168q2 14 3 20q7 6 24 14t27 8q16 0 16 -7q3 -45 8.5 -176t6.5 -152q4 -52 24 -52 q5 0 12.5 4t14.5 10t15 14t13.5 14t10.5 11l4 5q2 0 6 -7.5t4 -11.5q-12 -21 -56 -57.5t-75 -36.5z" />
<glyph unicode="&#x43c;" horiz-adv-x="560" d="M345 46q0 36 9 89.5t23.5 117.5t16.5 76q-18 -27 -75 -127.5t-96 -181.5q-11 -18 -22 -18q-3 0 -5 2q-11 78 -33.5 187t-25.5 144q-4 -15 -24 -126t-26 -137q-7 -30 -22.5 -52t-36.5 -22q-22 0 -35.5 12.5t-13.5 31.5q0 32 15 39q15 -15 40 -15q19 0 30 44 q11 46 24 112.5t22 117.5t11 57q4 8 25.5 23t29.5 15q15 0 15 -8q4 -55 55 -288q17 28 46 77.5t54.5 91.5t52.5 81q9 11 33.5 28.5t36.5 17.5q6 0 10 -4.5t3 -12.5q-16 -41 -40.5 -169.5t-24.5 -170.5q0 -29 13 -29q5 0 12.5 4t14.5 10t15 14t13.5 14t10.5 11l4 5 q2 0 6 -7.5t4 -11.5q-12 -21 -56 -57.5t-75 -36.5q-16 0 -25 14.5t-9 37.5z" />
<glyph unicode="&#x43d;" horiz-adv-x="491" d="M122 0q-28 -4 -36 -4q-7 0 -35 4l66 323q4 24 4 32q0 25 -10 25q-5 0 -12.5 -4t-14.5 -10t-15 -14t-13.5 -14t-9.5 -11l-5 -5q-2 0 -6 7.5t-4 11.5q13 22 54 58t72 36q16 0 27.5 -15t11.5 -37q0 -11 -8 -53l-19 -95h142l39 196q28 4 36 4q7 0 35 -4l-66 -323 q-4 -24 -4 -32q0 -25 10 -25q5 0 12.5 4t14.5 10t15 14t13.5 14t9.5 11l5 5q2 0 6 -7.5t4 -11.5q-13 -22 -54 -58t-72 -36q-16 0 -27.5 15t-11.5 37q0 11 8 53l20 100h-142z" />
<glyph unicode="&#x43e;" horiz-adv-x="414" d="M237 403q-58 0 -96.5 -80t-38.5 -165q0 -60 15 -95.5t42 -35.5q39 0 70 41.5t46 96.5t15 108q0 130 -53 130zM251 435q58 0 87.5 -40t29.5 -107q0 -106 -71.5 -199.5t-156.5 -93.5q-58 0 -87 38t-29 105q0 107 71 202t156 95z" />
<glyph unicode="&#x43f;" horiz-adv-x="517" d="M188 330l-18 -84q20 39 86.5 114t109.5 75q62 0 62 -66q0 -41 -14 -109l-33 -154q-4 -20 -4 -32q0 -25 10 -25q5 0 12.5 4t14.5 10t15 14t13.5 14t9.5 11l5 5q2 0 6 -7.5t4 -11.5q-12 -21 -56 -57.5t-75 -36.5q-16 0 -25 14.5t-9 37.5q0 16 7 53l35 165q7 32 7 54 q0 15 -1 23t-5 14t-13 6q-34 0 -101.5 -77t-83.5 -162q-4 -20 -25 -122q-16 -4 -36 -4q-19 0 -35 4l66 323q4 24 4 32q0 25 -10 25q-5 0 -12.5 -4t-14.5 -10t-15 -14t-13.5 -14t-9.5 -11l-5 -5q-2 0 -6 7.5t-4 11.5q13 22 54 58t72 36q16 0 27.5 -15t11.5 -37q0 -19 -8 -53z " />
<glyph unicode="&#x440;" horiz-adv-x="448" d="M281 380q-24 0 -60.5 -25.5t-57.5 -54.5l-33 -169q-8 -42 7.5 -71.5t39.5 -29.5q61 0 109 89.5t48 183.5q0 77 -53 77zM321 435q87 0 87 -121q0 -76 -37 -150.5t-96 -121.5t-119 -47q-38 0 -46 13l-33 -153q-3 -14 -3 -28q0 -19 14 -23q13 -3 47 -3q3 -1 2 -14t-5 -14 q-7 0 -18.5 0.5t-16.5 0.5q-73 0 -148 -9q-4 1 -3.5 14t4.5 15q27 0 40 16q9 12 16 43l79 397l-48 -48q-6 8 -6 20q0 4 3 7l59 63l26 141q15 4 38 4q18 0 32 -7q-12 -59 -16 -84q96 89 148 89z" />
<glyph unicode="&#x441;" horiz-adv-x="359" d="M275 435q32 0 62 -25q9 -12 9 -27q0 -19 -9 -32t-25 -13q-24 0 -36 20q-22 36 -52 36q-44 0 -83 -68t-39 -164q0 -109 69 -109q8 0 17 3t17.5 7.5t17 10.5t15.5 12t14 12.5t11 11t7 8.5l4 4q2 0 7 -8t5 -12q-15 -25 -62.5 -66.5t-88.5 -41.5q-53 0 -82 38t-29 108 q0 114 84 204.5t167 90.5z" />
<glyph unicode="&#x442;" horiz-adv-x="734" d="M526 99l35 165q7 32 7 54q0 15 -1 23t-5 14t-13 6q-33 0 -97 -79t-77 -150l-25 -132q-21 -3 -37 -3q-15 0 -35 3l56 284q4 21 4 38q0 39 -20 39q-34 0 -95 -84t-76 -155l-25 -122q-15 -4 -36 -4q-11 0 -35 4l66 323q4 24 4 32q0 25 -10 25q-5 0 -12.5 -4t-14.5 -10 t-15 -14t-13.5 -14t-9.5 -11l-5 -5q-2 0 -6 7.5t-4 11.5q13 22 54 58t72 36q16 0 27.5 -15t11.5 -37q0 -11 -8 -53q-5 -24 -20 -93q38 67 91 132.5t87 65.5q67 0 67 -95q0 -49 -14 -89q33 58 91 121t93 63q62 0 62 -66q0 -45 -14 -109l-33 -154q-4 -20 -4 -32q0 -25 10 -25 q5 0 12.5 4t14.5 10t15 14t13.5 14t10.5 11l4 5q2 0 6 -7.5t4 -11.5q-12 -21 -56 -57.5t-75 -36.5q-16 0 -25 14.5t-9 37.5q0 16 7 53z" />
<glyph unicode="&#x443;" horiz-adv-x="464" d="M148 435q30 0 50 -53.5t27.5 -137t9.5 -134.5t2 -95q40 49 77.5 123.5t37.5 146.5q0 59 -25 107q13 43 50 43q44 0 44 -79q0 -110 -86 -252.5t-194.5 -239.5t-175.5 -97q-26 0 -43 12t-17 29q0 32 23 44q11 -7 37 -13t43 -6q79 0 136 83q7 10 11 23t5.5 32t2 29.5t0 34.5 t-0.5 27q0 49 -2.5 99t-9 102t-19 84.5t-29.5 32.5q-5 0 -12.5 -4t-14.5 -10t-15 -14t-13.5 -14t-10.5 -11l-4 -5q-2 0 -6 7.5t-4 11.5q13 22 54 58t72 36z" />
<glyph unicode="&#x444;" horiz-adv-x="497" d="M252 429q23 109 84 182.5t120 73.5q41 0 54 -25v-9q-4 -47 -30 -47q-17 0 -38 23q-15 15 -29 15q-26 0 -46 -50.5t-40 -156.5q67 -5 115 -47t48 -104q0 -106 -69.5 -185t-174.5 -101q-29 -102 -85 -166.5t-111 -64.5q-41 0 -54 25q0 11 1 16q6 40 29 40q17 0 38 -23 q15 -15 29 -15q25 0 42 41t38 140q-66 2 -113 46t-47 107q0 105 68 184.5t171 100.5zM321 400q-9 -48 -30 -168t-34 -189q-1 -2 -2 -7t-1 -7q72 21 116 90t44 153q0 45 -26 81.5t-67 46.5zM180 24l3 15q37 214 63 359q-70 -20 -113.5 -89t-43.5 -147q0 -53 24.5 -91.5 t66.5 -46.5z" />
<glyph unicode="&#x445;" horiz-adv-x="454" d="M286 89q7 -37 35 -37q11 0 36.5 20.5t36.5 34.5q2 0 6 -7.5t4 -11.5q-11 -19 -52.5 -55.5t-69.5 -36.5q-23 0 -42 23t-27 63l-17 86q-7 -14 -19.5 -39.5t-18.5 -37.5t-16.5 -31t-18 -28t-17.5 -19t-20 -14t-22 -4q-28 0 -47 12q-11 15 -11 34t10 31.5t27 12.5 q10 0 23 -14t23 -15q16 -1 30 23q35 59 69 125l-28 138q-7 38 -32 38q-13 0 -39 -21t-37 -35q-2 0 -6 7.5t-4 11.5q11 19 52.5 55.5t69.5 36.5q23 0 42 -23t27 -63l14 -68q49 98 64 118q28 35 58 36q28 0 47 -12q11 -15 11 -34t-10 -31.5t-27 -12.5q-10 0 -23 14t-23 15 q-16 1 -30 -23q-47 -82 -60 -107z" />
<glyph unicode="&#x446;" horiz-adv-x="514" d="M415 -8q0 -23 1.5 -44.5t1.5 -24.5q0 -30 -35 -55.5t-69 -25.5q-9 4 -6 18q19 1 38.5 13t19.5 31q0 8 -2.5 22.5t-2.5 22t4 23.5q10 25 23 44q-32 -22 -57 -22q-16 0 -25 14.5t-9 37.5q0 16 7 53q3 15 5.5 28.5t6.5 30t6 28.5q-24 -52 -90 -122t-111 -70q-50 0 -50 72 q0 35 14 103l33 154q4 24 4 32q0 25 -10 25q-5 0 -12.5 -4t-14.5 -10t-15 -14t-13.5 -14t-10.5 -11l-4 -5q-2 0 -6 7.5t-4 11.5q13 22 54 58t72 36q16 0 27.5 -15t11.5 -37q0 -16 -7 -53l-35 -165q-7 -32 -7 -54q0 -43 19 -43t56.5 35.5t74.5 96.5t48 119q8 44 22 110 q13 4 31 4q23 0 39 -4l-62 -323q-4 -20 -4 -32q0 -25 10 -25q5 0 12.5 4t14.5 10t15 14t13.5 14t10.5 11l4 5q2 0 6 -7.5t4 -11.5q-47 -65 -47 -96z" />
<glyph unicode="&#x447;" horiz-adv-x="506" d="M167 247q0 -43 19 -43q33 0 96 70t79 155q17 4 31 4q23 0 39 -4l-62 -323q-4 -20 -4 -32q0 -25 10 -25q5 0 12.5 4t14.5 10t15 14t13.5 14t9.5 11l5 5q2 0 6 -7.5t4 -11.5q-12 -21 -56 -57.5t-75 -36.5q-16 0 -25 14.5t-9 37.5q0 16 7 53q9 53 39 197q-20 -43 -91 -104.5 t-105 -61.5q-50 0 -50 72q0 20 12 80q13 72 13 73q0 25 -10 25q-5 0 -12.5 -4t-14.5 -10t-15 -14t-13.5 -14t-9.5 -11l-5 -5q-2 0 -6 7.5t-4 11.5q13 22 54 58t72 36q16 0 27.5 -15t11.5 -37q0 -9 -11 -64q-12 -56 -12 -72z" />
<glyph unicode="&#x448;" horiz-adv-x="734" d="M188 330l-35 -165q-7 -32 -7 -54q0 -43 19 -43q32 0 95.5 80.5t76.5 152.5l24 128q4 0 16.5 1.5t20.5 1.5t19.5 -1.5t15.5 -1.5l-56 -284q-4 -21 -4 -38q0 -39 20 -39q35 0 96 84t76 159l24 118q28 4 36 4q7 0 35 -4l-66 -323q-4 -24 -4 -32q0 -25 10 -25q5 0 12.5 4 t14.5 10t15 14t13.5 14t10.5 11l4 5q2 0 6 -7.5t4 -11.5q-13 -22 -54 -58t-72 -36q-16 0 -27.5 15t-11.5 37q0 11 8 53q4 20 10.5 45.5t9.5 39.5q-29 -63 -94 -126.5t-103 -63.5q-15 0 -25 6.5t-14.5 13t-7 22t-2.5 22v24.5q0 17 6.5 52.5t11.5 49.5q-30 -64 -93.5 -127 t-103.5 -63q-23 0 -36 17.5t-13 48.5q0 45 14 109l33 154q4 20 4 32q0 25 -10 25q-5 0 -12.5 -4t-14.5 -10t-15 -14t-13.5 -14t-10.5 -11l-4 -5q-2 0 -6 7.5t-4 11.5q12 21 56 57.5t75 36.5q16 0 25 -14.5t9 -37.5q0 -16 -7 -53z" />
<glyph unicode="&#x449;" horiz-adv-x="732" d="M600 49q5 0 12.5 4t14.5 10t15 14t13.5 14t10.5 11l4 5q2 0 6 -7.5t4 -11.5q-47 -65 -47 -96q0 -23 1.5 -44.5t1.5 -24.5q0 -30 -35 -55.5t-69 -25.5q-9 4 -6 18q19 1 38.5 13t19.5 31q0 8 -2.5 22.5t-2.5 22t4 23.5q10 25 23 44q-32 -22 -57 -22q-16 0 -25 14.5t-9 37.5 q0 11 8 53q4 20 10.5 45.5t9.5 39.5q-29 -63 -94 -126.5t-103 -63.5q-15 0 -25 6.5t-14.5 13t-7 22t-2.5 22v24.5q0 17 6.5 52.5t11.5 49.5q-30 -64 -93.5 -127t-103.5 -63q-23 0 -36 17.5t-13 48.5q0 45 14 109l33 154q4 20 4 32q0 25 -10 25q-5 0 -12.5 -4t-14.5 -10 t-15 -14t-13.5 -14t-10.5 -11l-4 -5q-2 0 -6 7.5t-4 11.5q12 21 56 57.5t75 36.5q16 0 25 -14.5t9 -37.5q0 -16 -7 -53l-35 -165q-7 -32 -7 -54q0 -43 19 -43q32 0 95.5 80.5t76.5 152.5l24 128q4 0 16.5 1.5t20.5 1.5t19.5 -1.5t15.5 -1.5l-56 -284q-4 -21 -4 -38 q0 -39 20 -39q35 0 96 84t76 159l24 118q28 4 36 4q7 0 35 -4l-66 -323q-4 -24 -4 -32q0 -25 10 -25z" />
<glyph unicode="&#x44a;" horiz-adv-x="403" d="M298 290q59 0 59 -74q0 -82 -60.5 -150.5t-131.5 -68.5q-42 0 -72.5 24.5t-30.5 80.5q0 19 5 40t15.5 44t19.5 41t25.5 43t24.5 36.5t25 35t20 27.5q-30 3 -46 3q-42 0 -61 -7q-21 -8 -44 -42q-1 -3 -12 4q-2 2 -2 3q3 28 30 66t61 38q12 0 45.5 -4.5t43.5 -4.5 q34 0 50 10q5 -1 9.5 -6.5t4.5 -10.5q-34 -27 -69 -86t-48 -112q31 37 70 53.5t69 16.5zM248 248q-23 0 -56.5 -27t-45.5 -63q-12 -38 -12 -62q0 -73 42 -73q37 0 72 59.5t35 107.5q0 58 -35 58z" />
<glyph unicode="&#x44b;" horiz-adv-x="576" d="M367 99q48 246 64 330q13 4 31 4q23 0 39 -4l-62 -323q-4 -20 -4 -32q0 -25 10 -25q5 0 12.5 4t14.5 10t15 14t13.5 14t9.5 11l5 5q2 0 6 -7.5t4 -11.5q-12 -21 -56 -57.5t-75 -36.5q-16 0 -25 14.5t-9 37.5q0 16 7 53zM183 403q0 -40 -47 -183q31 37 70 53.5t69 16.5 q59 0 59 -74q0 -82 -60.5 -150.5t-131.5 -68.5q-98 0 -98 101q0 40 26 124q13 40 35 122q5 18 5 23q0 7 -5 7q-12 0 -64 -52q-2 0 -6 7.5t-4 11.5q12 21 53.5 57.5t67.5 36.5q31 0 31 -32zM225 248q-23 0 -56.5 -27t-45.5 -63q-12 -38 -12 -62q0 -73 42 -73q37 0 72 59.5 t35 107.5q0 58 -35 58z" />
<glyph unicode="&#x44c;" horiz-adv-x="379" d="M183 403q0 -40 -47 -183q31 37 70 53.5t69 16.5q59 0 59 -74q0 -82 -60.5 -150.5t-131.5 -68.5q-98 0 -98 101q0 40 26 124q13 40 35 122q5 18 5 23q0 7 -5 7q-12 0 -64 -52q-2 0 -6 7.5t-4 11.5q12 21 53.5 57.5t67.5 36.5q31 0 31 -32zM225 248q-23 0 -56.5 -27 t-45.5 -63q-12 -38 -12 -62q0 -73 42 -73q37 0 72 59.5t35 107.5q0 58 -35 58z" />
<glyph unicode="&#x44d;" horiz-adv-x="400" d="M274 203q-9 -1 -37.5 -4.5t-60 -7t-58.5 -5.5q-7 5 1.5 24.5t23.5 31.5q89 -7 133 -7q-3 147 -96 147q-9 0 -18 -1.5t-15.5 -3t-13.5 -5l-11 -5.5t-11 -7.5t-9 -7t-8.5 -7.5t-7.5 -7q-5 0 -11 5.5t-6 9.5q27 35 69 58.5t79 23.5q59 0 97.5 -43.5t38.5 -139.5 q0 -114 -77.5 -185t-167.5 -71q-62 0 -95 25q-7 16 -4 95q4 11 20 6q21 -97 96 -97q58 0 99.5 49.5t49.5 128.5z" />
<glyph unicode="&#x44e;" horiz-adv-x="610" d="M445 435q58 0 87.5 -40t29.5 -107q0 -106 -71.5 -199.5t-156.5 -93.5q-58 0 -87 38t-29 105q0 24 5 54l-65 -12l-36 -180q-28 -4 -36 -4q-7 0 -35 4l66 323q4 24 4 32q0 25 -10 25q-5 0 -12.5 -4t-14.5 -10t-15 -14t-13.5 -14t-9.5 -11l-5 -5q-2 0 -6 7.5t-4 11.5 q13 22 54 58t72 36q16 0 27.5 -15t11.5 -37q0 -11 -8 -53l-24 -120l66 10q25 88 86 151.5t129 63.5zM431 403q-58 0 -96.5 -80t-38.5 -165q0 -60 15 -95.5t42 -35.5q39 0 70 41.5t46 96.5t15 108q0 130 -53 130z" />
<glyph unicode="&#x44f;" horiz-adv-x="418" d="M254 435q59 0 96 -14q-18 -40 -25 -80l-45 -235q-4 -20 -4 -32q0 -25 10 -25q5 0 12.5 4t14.5 10t15 14t13.5 14t10.5 11l4 5q2 0 6 -7.5t4 -11.5q-12 -21 -56 -57.5t-75 -36.5q-16 0 -25 14.5t-9 37.5q0 16 7 53q5 26 19 96q-29 -55 -91 -126t-101 -71q-20 0 -33 12 t-13 31q0 27 20 40q17 -19 40 -19q30 0 48 12q46 32 90 108q-56 0 -93 32t-38 75q-1 69 57.5 107.5t140.5 38.5zM123 305q0 -44 35.5 -69t71.5 -25l35 183q-26 10 -51 10q-39 0 -65 -28t-26 -71z" />
<glyph unicode="&#x450;" d="M274 435q35 0 50.5 -18t15.5 -44q0 -44 -47 -88t-102 -68t-88 -24q-2 -6 -2 -32q0 -108 69 -108q8 0 17 3t17.5 7.5t17 10.5t15.5 12t14 12.5t11 11t8 8.5l3 4q2 0 7 -8t5 -12q-16 -27 -63.5 -67.5t-88.5 -40.5q-53 0 -81.5 37.5t-28.5 107.5q0 109 81.5 202.5 t169.5 93.5zM105 218q38 0 99.5 43t61.5 93q0 19 -13 29.5t-29 10.5q-46 0 -80 -62.5t-39 -113.5zM299 502q-13 0 -88 44t-75 57q0 15 13 22.5t26 7.5q23 0 37 -10q10 -7 52.5 -56t42.5 -55q0 -2 -3 -6t-5 -4z" />
<glyph unicode="&#x451;" d="M274 435q35 0 50.5 -18t15.5 -44q0 -44 -47 -88t-102 -68t-88 -24q-2 -6 -2 -32q0 -108 69 -108q8 0 17 3t17.5 7.5t17 10.5t15.5 12t14 12.5t11 11t8 8.5l3 4q2 0 7 -8t5 -12q-16 -27 -63.5 -67.5t-88.5 -40.5q-53 0 -81.5 37.5t-28.5 107.5q0 109 81.5 202.5 t169.5 93.5zM105 218q38 0 99.5 43t61.5 93q0 19 -13 29.5t-29 10.5q-46 0 -80 -62.5t-39 -113.5zM337 603q17 0 27 -14t6 -33t-19.5 -32t-32.5 -13t-28 13.5t-7 32.5t20.5 32.5t33.5 13.5zM166 603q17 0 27.5 -14t6.5 -33t-19.5 -32t-32.5 -13t-28 13.5t-7 32.5t20 32.5 t33 13.5z" />
<glyph unicode="&#x452;" horiz-adv-x="446" d="M337 435q55 0 55 -66q0 -35 -14 -109q-3 -16 -7 -34.5t-8 -40.5q-18 -91 -54 -163.5t-76 -111.5t-74 -59t-55 -20q-28 0 -43 12t-15 28q0 22 17 32q28 -15 64 -15q25 0 43.5 8.5t40 34.5t40.5 82t36 142q2 9 7 36.5t9.5 49.5t4.5 23q7 32 7 54q0 43 -19 43t-56.5 -35 t-74.5 -94t-48 -113q-7 -36 -25 -119q-13 -4 -36 -4q-18 0 -34 4l103 531h-45q-2 0 -2.5 4t0.5 7q3 14 11 23h42q8 43 8 47q0 19 -61 19q-2 3 -0.5 10.5t4.5 10.5q55 5 132 33q6 -4 6 -19q0 -10 -13 -75l-5 -26h116q5 0 3 -8q-2 -12 -11 -26h-115l-39 -201l-18 -92 q21 40 89 118.5t110 78.5z" />
<glyph unicode="&#x453;" horiz-adv-x="328" d="M215 435q94 0 94 -70q0 -71 -120 -135q-24 -13 -39 -22.5t-36 -25.5t-32 -33.5t-11 -35.5q0 -61 62 -61q23 0 51.5 14.5t41 25t18.5 16.5q2 0 7 -8t5 -12q-72 -94 -152 -94q-46 0 -75.5 24.5t-29.5 67.5q0 20 9.5 40t20.5 33t33 29.5t34.5 24t37.5 21t30 16.5 q71 41 71 89q0 45 -48 45q-58 0 -109 -46q-5 0 -11 5.5t-6 9.5q27 35 71.5 58.5t82.5 23.5zM182 506q-2 0 -5 4t-3 6q0 6 42.5 55t52.5 56q14 10 37 10q13 0 26 -7.5t13 -22.5q0 -13 -75 -57t-88 -44z" />
<glyph unicode="&#x454;" horiz-adv-x="350" d="M276 435q32 0 62 -25q9 -12 9 -27q0 -19 -9 -32t-25 -13q-24 0 -36 20q-22 36 -52 36q-35 0 -69 -46t-47 -117q104 15 127 17q3 0 7.5 -4t3.5 -7q-11 -27 -32 -37q-31 -2 -110 2q-2 -26 -2 -40q0 -109 69 -109q8 0 17 3t17.5 7.5t17 10.5t15.5 12t14 12.5t11 11t8 8.5 l3 4q2 0 7 -8t5 -12q-15 -25 -62.5 -66.5t-88.5 -41.5q-53 0 -82 38t-29 108q0 114 84 204.5t167 90.5z" />
<glyph unicode="&#x455;" horiz-adv-x="322" d="M199 438q55 0 86 -27q10 -14 10 -32q0 -17 -9.5 -29t-24.5 -12q-22 0 -47 35q-1 1 -3.5 5t-3.5 5.5t-3.5 4.5t-4 4.5t-4.5 4t-5.5 3.5t-6 2t-7.5 1.5t-9 0.5q-24 0 -36.5 -18.5t-12.5 -37.5q0 -11 3 -22t12 -23.5t13.5 -18.5t19.5 -22t18 -20q61 -71 61 -125 q0 -55 -40.5 -89t-104.5 -34q-53 0 -88 30q-10 17 -10 30q0 21 10.5 33.5t26.5 12.5q9 0 15 -5t16 -21t12 -19q21 -29 53 -29q27 0 38 18.5t11 39.5q0 16 -9.5 34.5t-16 26.5t-26.5 31q-24 27 -35.5 41.5t-24 41t-12.5 53.5q0 46 40 86t99 40z" />
<glyph unicode="&#x456;" horiz-adv-x="275" d="M117 323q4 24 4 32q0 25 -10 25q-5 0 -12.5 -4t-14.5 -10t-15 -14t-13.5 -14t-9.5 -11l-5 -5q-2 0 -6 7.5t-4 11.5q13 22 54 58t72 36q16 0 27.5 -15t11.5 -37q0 -16 -7 -53l-51 -224q-4 -20 -4 -32q0 -25 10 -25q5 0 12.5 4t14.5 10t15 14t13.5 14t10.5 11l4 5 q2 0 6 -7.5t4 -11.5q-12 -21 -56 -57.5t-75 -36.5q-16 0 -25 14.5t-9 37.5q0 16 7 53zM174 646q15 0 25.5 -12t10.5 -28q0 -24 -15.5 -42t-38.5 -18q-16 0 -25 12.5t-9 30.5q0 23 15 40t37 17z" />
<glyph unicode="&#x457;" horiz-adv-x="275" d="M117 323q4 24 4 32q0 25 -10 25q-5 0 -12.5 -4t-14.5 -10t-15 -14t-13.5 -14t-9.5 -11l-5 -5q-2 0 -6 7.5t-4 11.5q13 22 54 58t72 36q16 0 27.5 -15t11.5 -37q0 -16 -7 -53l-51 -224q-4 -20 -4 -32q0 -25 10 -25q5 0 12.5 4t14.5 10t15 14t13.5 14t10.5 11l4 5 q2 0 6 -7.5t4 -11.5q-12 -21 -56 -57.5t-75 -36.5q-16 0 -25 14.5t-9 37.5q0 16 7 53zM251 607q15 0 26 -12t11 -28q0 -24 -15.5 -42t-38.5 -18q-16 0 -25 13t-9 31q0 23 14.5 39.5t36.5 16.5zM118 607q15 0 26 -12t11 -28q0 -24 -15.5 -42t-38.5 -18q-16 0 -25 13t-9 31 q0 23 14.5 39.5t36.5 16.5z" />
<glyph unicode="&#x458;" horiz-adv-x="249" d="M117 323q4 24 4 32q0 25 -10 25q-5 0 -12.5 -4t-14.5 -10t-15 -14t-13.5 -14t-9.5 -11l-5 -5q-2 0 -6 7.5t-4 11.5q13 22 54 58t72 36q16 0 27.5 -15t11.5 -37q0 -16 -7 -53l-55 -285q-20 -101 -71 -169q-29 -38 -69 -68.5t-70 -42.5q-9 7 -9 20q50 29 88 91.5t54 145.5z M185 646q15 0 25.5 -12t10.5 -28q0 -24 -15.5 -42t-38.5 -18q-16 0 -25 12.5t-9 30.5q0 23 15 40t37 17z" />
<glyph unicode="&#x459;" horiz-adv-x="529" d="M425 290q59 0 59 -74q0 -82 -60.5 -150.5t-131.5 -68.5q-40 0 -68 19.5t-28 60.5q0 76 27 235q-46 -123 -141 -264q-33 -50 -65 -50q-22 0 -35.5 12.5t-13.5 31.5q0 32 15 39q15 -15 40 -15q22 0 40 24q41 54 91 147t70 164q2 6 6 15q23 20 45 20q20 0 20 -7 q-10 -138 -17 -214q32 38 75 56.5t72 18.5zM375 248q-23 0 -56.5 -27t-45.5 -63q-12 -38 -12 -62q0 -73 42 -73q37 0 72 59.5t35 107.5q0 58 -35 58z" />
<glyph unicode="&#x45a;" horiz-adv-x="601" d="M447 231q-15 0 -84 -19q-5 -15 -13.5 -59t-8.5 -61q0 -69 39 -69q38 0 70 48t32 95q0 65 -35 65zM406 430l-38 -189q93 27 128 27q32 0 46 -24.5t14 -55.5q0 -81 -59 -136t-137 -55q-41 0 -63.5 25t-22.5 73q0 18 19 107l-133 -22l-36 -180q-28 -4 -36 -4q-7 0 -35 4 l66 323q4 24 4 32q0 25 -10 25q-5 0 -12.5 -4t-14.5 -10t-15 -14t-13.5 -14t-9.5 -11l-5 -5q-2 0 -6 7.5t-4 11.5q13 22 54 58t72 36q16 0 27.5 -15t11.5 -37q0 -11 -8 -53l-24 -120l133 20l39 199q13 4 31 4q25 0 37 -3z" />
<glyph unicode="&#x45b;" horiz-adv-x="481" d="M89 565h229q5 0 3 -8q-2 -12 -11 -26h-230q-2 0 -2.5 4t0.5 7q3 14 11 23zM207 591l-51 -261l-18 -92q21 40 89 118.5t110 78.5q55 0 55 -66q0 -43 -14 -109l-33 -154q-4 -16 -4 -32q0 -25 10 -25q5 0 12.5 4t14.5 10t15 14t13.5 14t9.5 11l5 5q2 0 6 -7.5t4 -11.5 q-12 -21 -56 -57.5t-75 -36.5q-16 0 -25 14.5t-9 37.5q0 24 7 53l35 165q7 32 7 54q0 43 -19 43t-56.5 -35t-74.5 -94t-48 -113q-7 -36 -25 -119q-13 -4 -36 -4q-18 0 -34 4l108 559q1 6 3.5 18t4 21t1.5 14q0 19 -61 19q-2 3 -0.5 10.5t4.5 10.5q55 5 132 33q6 -4 6 -19 q0 -10 -13 -75z" />
<glyph unicode="&#x45c;" horiz-adv-x="433" d="M326 52q22 0 77 55q2 0 6 -7.5t4 -11.5q-12 -21 -56 -57.5t-75 -36.5q-42 0 -68 49t-44 142q-16 -36 -21 -63q-4 -20 -25 -122q-28 -4 -36 -4q-7 0 -35 4l66 323q4 24 4 32q0 25 -10 25q-5 0 -12.5 -4t-14.5 -10t-15 -14t-13.5 -14t-9.5 -11l-5 -5q-2 0 -6 7.5t-4 11.5 q13 22 54 58t72 36q16 0 27.5 -15t11.5 -37q0 -19 -8 -53l-18 -84q21 40 87 114.5t113 74.5q20 0 36 -7q9 -13 9 -28q0 -24 -10 -39.5t-27 -15.5q-6 0 -21 8t-25 8q-16 0 -49 -26t-64 -65q8 -51 14.5 -80.5t18.5 -66t30 -54t42 -17.5zM242 496q-2 0 -5 4t-3 6q0 6 42.5 55 t52.5 56q14 10 37 10q13 0 26 -7.5t13 -22.5q0 -13 -75 -57t-88 -44z" />
<glyph unicode="&#x45d;" horiz-adv-x="510" d="M301 99q3 15 5.5 28.5t6.5 30t6 28.5q-24 -52 -90 -122t-111 -70q-50 0 -50 72q0 35 14 103l33 154q4 24 4 32q0 25 -10 25q-5 0 -12.5 -4t-14.5 -10t-15 -14t-13.5 -14t-9.5 -11l-5 -5q-2 0 -6 7.5t-4 11.5q13 22 54 58t72 36q16 0 27.5 -15t11.5 -37q0 -16 -7 -53 l-35 -165q-7 -32 -7 -54q0 -43 19 -43t56.5 35.5t74.5 96.5t48 119q3 18 10.5 52.5t11.5 57.5q13 4 31 4q23 0 39 -4l-62 -323q-4 -20 -4 -32q0 -25 10 -25q5 0 12.5 4t14.5 10t15 14t13.5 14t9.5 11l5 5q2 0 6 -7.5t4 -11.5q-12 -21 -56 -57.5t-75 -36.5q-16 0 -25 14.5 t-9 37.5q0 16 7 53zM327 463q-13 0 -88 44t-75 57q0 15 13 22.5t26 7.5q23 0 37 -10q10 -7 52.5 -56t42.5 -55q0 -2 -3 -6t-5 -4z" />
<glyph unicode="&#x45e;" horiz-adv-x="464" d="M213 614q1 -32 21 -52.5t50 -20.5q28 0 50.5 20.5t33.5 51.5q3 0 9 -7t5 -10q-15 -43 -46 -71.5t-71 -28.5q-38 0 -63.5 28.5t-25.5 64.5q2 8 16.5 17.5t20.5 7.5zM148 435q30 0 50 -53.5t27.5 -137t9.5 -134.5t2 -95q40 49 77.5 123.5t37.5 146.5q0 59 -25 107 q13 43 50 43q44 0 44 -79q0 -110 -86 -252.5t-194.5 -239.5t-175.5 -97q-26 0 -43 12t-17 29q0 32 23 44q11 -7 37 -13t43 -6q79 0 136 83q7 10 11 23t5.5 32t2 29.5t0 34.5t-0.5 27q0 49 -2.5 99t-9 102t-19 84.5t-29.5 32.5q-5 0 -12.5 -4t-14.5 -10t-15 -14t-13.5 -14 t-10.5 -11l-4 -5q-2 0 -6 7.5t-4 11.5q13 22 54 58t72 36z" />
<glyph unicode="&#x45f;" horiz-adv-x="510" d="M234 22q15 7 22 0q-22 -25 -22 -54q0 -7 5.5 -24.5t5.5 -23.5q0 -30 -33.5 -54t-67.5 -24q-9 4 -6 18q19 1 38.5 13t19.5 31q0 6 -1 22t-0.5 28.5t4.5 23.5q10 27 35 44zM301 99q3 15 5.5 28.5t6.5 30t6 28.5q-24 -52 -90 -122t-111 -70q-50 0 -50 72q0 35 14 103l33 154 q4 24 4 32q0 25 -10 25q-5 0 -12.5 -4t-14.5 -10t-15 -14t-13.5 -14t-9.5 -11l-5 -5q-2 0 -6 7.5t-4 11.5q13 22 54 58t72 36q16 0 27.5 -15t11.5 -37q0 -16 -7 -53l-35 -165q-7 -32 -7 -54q0 -43 19 -43t56.5 35.5t74.5 96.5t48 119q3 18 10.5 52.5t11.5 57.5q13 4 31 4 q23 0 39 -4l-62 -323q-4 -20 -4 -32q0 -25 10 -25q5 0 12.5 4t14.5 10t15 14t13.5 14t9.5 11l5 5q2 0 6 -7.5t4 -11.5q-12 -21 -56 -57.5t-75 -36.5q-16 0 -25 14.5t-9 37.5q0 16 7 53z" />
<glyph unicode="&#x2000;" horiz-adv-x="426" />
<glyph unicode="&#x2001;" horiz-adv-x="852" />
<glyph unicode="&#x2002;" horiz-adv-x="426" />
<glyph unicode="&#x2003;" horiz-adv-x="852" />
<glyph unicode="&#x2004;" horiz-adv-x="284" />
<glyph unicode="&#x2005;" horiz-adv-x="213" />
<glyph unicode="&#x2006;" horiz-adv-x="142" />
<glyph unicode="&#x2007;" horiz-adv-x="142" />
<glyph unicode="&#x2008;" horiz-adv-x="106" />
<glyph unicode="&#x2009;" horiz-adv-x="170" />
<glyph unicode="&#x200a;" horiz-adv-x="47" />
<glyph unicode="&#x202f;" horiz-adv-x="170" />
<glyph unicode="&#x205f;" horiz-adv-x="213" />
<glyph unicode="&#x25fc;" horiz-adv-x="435" d="M0 435h435v-435h-435v435z" />
</font>
</defs>
</svg>
