<?xml version="1.0" standalone="no"?>
<!DOCTYPE svg PUBLIC "-//W3C//DTD SVG 1.1//EN" "http://www.w3.org/Graphics/SVG/1.1/DTD/svg11.dtd" >
<svg xmlns="http://www.w3.org/2000/svg" xmlns:xlink="http://www.w3.org/1999/xlink" version="1.1">
<metadata></metadata>
<defs>
<font id="crimsonitalic" horiz-adv-x="392" >
<font-face units-per-em="1024" ascent="742" descent="-282" />
<missing-glyph horiz-adv-x="227" />
<glyph horiz-adv-x="0" />
<glyph horiz-adv-x="341" />
<glyph unicode=" "  horiz-adv-x="227" />
<glyph unicode="&#x09;" horiz-adv-x="227" />
<glyph unicode="&#xa0;" horiz-adv-x="227" />
<glyph unicode="&#x384;" horiz-adv-x="174" d="M252 704q24 0 20 -23q-7 -33 -63 -108.5t-66 -79.5h-3q-3 0 -6.5 3t-2.5 6q2 11 27.5 75.5t45.5 101.5q5 8 20.5 16.5t27.5 8.5z" />
<glyph unicode="&#x385;" horiz-adv-x="344" d="M380 597q17 0 27 -13.5t6 -32.5t-19 -31.5t-32 -12.5t-27.5 13t-6.5 32t19.5 32t32.5 13zM183 597q17 0 27 -13.5t6 -32.5t-19 -31.5t-32 -12.5t-27.5 13t-6.5 32t19.5 32t32.5 13zM336 702q21 0 17 -22q-6 -31 -54.5 -104t-56.5 -77h-3q-2 0 -5 3t-2 6q2 11 24 73t38 97 q5 8 18 16t24 8z" />
<glyph unicode="&#x386;" horiz-adv-x="497" d="M306 939q24 0 20 -23q-7 -33 -63 -108.5t-66 -79.5h-3q-3 0 -6.5 3t-2.5 6q2 11 27.5 75.5t45.5 101.5q5 8 20.5 16.5t27.5 8.5zM-143 26q24 22 54.5 66.5t56 88t60.5 113.5t54 109t52.5 110.5t39.5 85.5q-14 24 -65 -2q-1 4 1 16q8 18 31.5 35.5t42.5 17.5q39 0 61 -40 q14 -24 23.5 -60.5t13 -64.5t9 -82.5t8.5 -79.5q33 -273 69 -335q-2 -4 -6 -8t-8 -6l-3 -2q-50 7 -66 29q-26 83 -43 272l-193 -41l-114 -248q-4 -10 -20 -10q-51 21 -58 36zM74 303l166 11q-1 9 -4.5 48t-4.5 51t-5 43t-7.5 47.5t-9 38.5t-12.5 40z" />
<glyph unicode="&#x387;" horiz-adv-x="222" d="M54 252q0 27 21 48.5t46 21.5q19 0 31 -13t12 -33q0 -28 -20.5 -49.5t-45.5 -21.5q-19 0 -31.5 13.5t-12.5 33.5z" />
<glyph unicode="&#x388;" horiz-adv-x="479" d="M490 939q24 0 20 -23q-7 -33 -63 -108.5t-66 -79.5h-3q-3 0 -6.5 3t-2.5 6q2 11 27.5 75.5t45.5 101.5q5 8 20.5 16.5t27.5 8.5zM169 43q40 0 88.5 17t77.5 34.5t34 24.5q5 -2 7 -10t1 -13q-4 -16 -34 -56t-59 -40h-257q-58 0 -71 34q12 14 27.5 55t23.5 82l79 432 q-7 29 -27 39q2 13 13 19q46 -3 96 -3q50 1 110.5 3t108.5 3q20 -38 35 -80q-2 -3 -4.5 -7.5t-4.5 -6.5t-6 -4q-43 30 -75.5 39.5t-88.5 9.5q-27 0 -91 -8q-3 -13 -10 -53t-18 -99t-19 -100h23q75 0 150 29q7 -6 13.5 -17.5t10.5 -21.5t9.5 -24t6.5 -17q0 -5 -6 -11t-11 -8 q-44 24 -102 24q-70 0 -102 -2q-3 -14 -7 -38.5t-6 -32.5q-4 -21 -14 -68.5t-14 -74t-3 -35.5q37 -15 116 -15z" />
<glyph unicode="&#x389;" horiz-adv-x="480" d="M372 939q24 0 20 -23q-7 -33 -63 -108.5t-66 -79.5h-3q-3 0 -6.5 3t-2.5 6q2 11 27.5 75.5t45.5 101.5q5 8 20.5 16.5t27.5 8.5zM426 468q-8 -43 -25 -129.5t-23 -120.5q-10 -54 -18.5 -128t-6.5 -89q-14 -17 -27 -17q-7 0 -28.5 13t-19.5 23q35 154 63 292 q-15 -1 -61 -2.5t-77.5 -2.5t-72 -4t-67.5 -8q-3 -16 -7.5 -41.5t-6.5 -35.5q-10 -55 -19 -128.5t-7 -88.5q-14 -17 -26 -17q-7 0 -29 13t-20 23q43 187 72 334q23 120 41 293q2 5 11 11t13 6q18 0 36 -12.5t16 -24.5q0 -2 -7.5 -28.5t-17.5 -64.5t-15 -66q-17 -85 -24 -121 l275 1l1 6q23 120 41 293q2 5 11 11t13 6q18 0 36 -12.5t16 -24.5q0 -2 -7.5 -28.5t-17.5 -64.5t-15 -66z" />
<glyph unicode="&#x38a;" horiz-adv-x="151" d="M191 939q24 0 20 -23q-7 -33 -63 -108.5t-66 -79.5h-3q-3 0 -6.5 3t-2.5 6q2 11 27.5 75.5t45.5 101.5q5 8 20.5 16.5t27.5 8.5zM97 468q-8 -42 -25 -129t-23 -121q-10 -54 -18.5 -128t-6.5 -89q-14 -17 -27 -17q-7 0 -29 13t-20 23q43 187 72 334q23 120 41 293 q2 5 11 11t13 6q18 0 36 -12.5t16 -24.5q0 -2 -7.5 -28.5t-17.5 -64.5t-15 -66z" />
<glyph unicode="&#x38c;" horiz-adv-x="680" d="M391 939q24 0 20 -23q-7 -33 -63 -108.5t-66 -79.5h-3q-3 0 -6.5 3t-2.5 6q2 11 27.5 75.5t45.5 101.5q5 8 20.5 16.5t27.5 8.5zM390 627q-64 0 -123 -48.5t-96 -119.5t-53 -150q-11 -71 -3.5 -133.5t46 -104.5t99.5 -42q95 0 174.5 95t102.5 215q11 73 3 137 t-47.5 107.5t-102.5 43.5zM393 667q120 0 183.5 -96.5t33.5 -251.5q-27 -139 -129 -234t-220 -95q-121 0 -183 94t-31 253q27 139 127.5 234.5t218.5 95.5z" />
<glyph unicode="&#x38e;" horiz-adv-x="507" d="M287 939q24 0 20 -23q-7 -33 -63 -108.5t-66 -79.5h-3q-3 0 -6.5 3t-2.5 6q2 11 27.5 75.5t45.5 101.5q5 8 20.5 16.5t27.5 8.5zM503 624q-96 -55 -202.5 -213.5t-119.5 -226.5q-10 -50 -15.5 -108t-3.5 -75q-14 -17 -27 -17q-7 0 -30 13t-21 23q11 55 42 160q1 4 3 10.5 t3 9.5q-14 391 -92 391q-34 0 -57 -26q-3 0 -8 12q-2 6 0 11q16 33 44.5 56.5t52.5 23.5q42 0 65.5 -122.5t25.5 -268.5q52 114 131.5 223t148.5 163q5 3 31 -6.5t27 -11.5q7 -11 2 -21z" />
<glyph unicode="&#x38f;" horiz-adv-x="689" d="M516 939q24 0 20 -23q-7 -33 -63 -108.5t-66 -79.5h-3q-3 0 -6.5 3t-2.5 6q2 11 27.5 75.5t45.5 101.5q5 8 20.5 16.5t27.5 8.5zM417 667q120 0 179.5 -95.5t32.5 -236.5q-18 -89 -76.5 -161.5t-139.5 -113.5q12 -6 67 -6q57 0 123 43q5 0 6.5 -5.5t0.5 -9.5 q-7 -12 -21 -28.5t-43.5 -35t-58.5 -18.5h-120q-15 30 -11 51q3 12 15 24q149 92 184 274q24 126 -15 202t-122 76q-65 0 -122.5 -48.5t-90 -111t-44.5 -124.5q-21 -107 3.5 -175t73.5 -98q21 -41 19 -51q-3 -12 -26 -19h-163q-7 4 -28.5 30t-24.5 34q5 11 19 11 q6 -2 21 -8.5t28 -10t31 -4.5q14 -1 31.5 0.5t28.5 3.5l10 1q-61 31 -88.5 115t-8.5 181q26 131 122 222.5t208 91.5z" />
<glyph unicode="&#x390;" horiz-adv-x="232" d="M208 594q17 0 27 -13.5t6 -32.5t-19 -31.5t-32 -12.5t-27.5 13t-6.5 32t19.5 32t32.5 13zM11 594q17 0 27 -13.5t6 -32.5t-19 -31.5t-32 -12.5t-27.5 13t-6.5 32t19.5 32t32.5 13zM164 699q21 0 17 -22q-6 -31 -54.5 -104t-56.5 -77h-3q-1 0 -3 1.5t-3.5 3.5t-0.5 4 q2 11 24 73t38 97q5 8 18 16t24 8zM65 67q29 0 59 30q2 0 5 -5t3 -9t-1 -7q-16 -34 -42.5 -57t-53.5 -23q-30 1 -42.5 27.5t-4.5 65.5q7 41 63 327q14 17 26 17q6 0 27.5 -16.5t19.5 -26.5q-11 -38 -31 -97.5t-33 -103.5t-22 -89q-3 -13 2 -21t11.5 -10t13.5 -2z" />
<glyph unicode="&#x391;" horiz-adv-x="497" d="M-60 26q24 22 54.5 66.5t56 88t60.5 113.5t54 109t52.5 110.5t39.5 85.5q-14 24 -65 -2q-1 4 1 16q8 18 31.5 35.5t42.5 17.5q39 0 61 -40q14 -24 23.5 -60.5t13 -64.5t9 -82.5t8.5 -79.5q33 -273 69 -335q-2 -4 -6 -8t-7 -6l-4 -2q-50 7 -66 29q-26 83 -43 272l-193 -41 l-114 -248q-4 -10 -20 -10q-51 21 -58 36zM157 303l166 11q-1 9 -4.5 48t-4.5 51t-5 43t-7.5 47.5t-9 38.5t-12.5 40z" />
<glyph unicode="&#x392;" horiz-adv-x="480" d="M126 603q-7 29 -27 39q2 13 13 19q46 -3 101 -3q123 0 181.5 -39t43.5 -117q-8 -43 -35.5 -76.5t-49.5 -46t-42 -19.5q18 -5 36 -15.5t39.5 -30t31 -52.5t1.5 -74q-6 -30 -20.5 -58.5t-43 -60t-81.5 -51.5t-123 -21q-5 0 -13 -1t-74 -1h-8h-11.5t-11.5 0.5t-13 2.5 t-11 4.5t-10 7t-6 10.5q12 14 27.5 55t23.5 82zM218 327q-60 0 -78 -1q-15 -80 -17 -94q-30 -163 -27 -186q21 -10 50 -10q65 0 120.5 32t70.5 107q13 66 -18.5 109t-100.5 43zM265 618q-39 2 -63 -9q-15 -47 -52 -242q1 0 13.5 -1.5t17.5 -1.5q84 0 130 39t57 95 q24 120 -103 120z" />
<glyph unicode="&#x393;" horiz-adv-x="412" d="M168 610q-5 -26 -35 -191.5t-34 -188.5q-37 -197 -32 -229q-14 -17 -26 -17q-7 0 -28 13t-19 23l112 583q-8 28 -56 41q2 13 13 19q77 -5 121 -5q54 0 129.5 2.5t113.5 3.5q24 -81 27 -132q-8 -11 -20 -14q-28 58 -60.5 79t-90.5 21q-51 0 -115 -8z" />
<glyph unicode="&#x394;" horiz-adv-x="583" d="M430 63q-58 243 -96 466q-1 1 -30.5 -47t-70.5 -116.5l-82 -137t-70 -116.5l-29 -49h378zM370 655q29 -141 74.5 -334t66.5 -288q-13 -29 -53 -37q-12 7 -57 7l-423 -3q-2 0 -4 3.5t-1 6.5q203 326 332 538q12 21 32 70q13 23 29 36q4 3 4 1z" />
<glyph unicode="&#x395;" horiz-adv-x="479" d="M206 43q40 0 88.5 17t77.5 34.5t34 24.5q5 -2 7 -10t1 -13q-4 -16 -34 -56t-59 -40h-257q-58 0 -71 34q12 14 27.5 55t23.5 82l79 432q-7 29 -27 39q2 13 13 19q46 -3 96 -3q50 1 110.5 3t108.5 3q20 -38 35 -80q-2 -3 -4.5 -7.5t-4.5 -6.5t-6 -4q-43 30 -75.5 39.5 t-88.5 9.5q-27 0 -91 -8q-3 -13 -10 -53t-18 -99t-19 -100h23q75 0 150 29q7 -6 13.5 -17.5t10.5 -21.5t9.5 -24t6.5 -17q0 -5 -6 -11t-11 -8q-44 24 -102 24q-70 0 -102 -2q-3 -14 -7 -38.5t-6 -32.5q-4 -21 -14 -68.5t-14 -74t-3 -35.5q38 -15 116 -15z" />
<glyph unicode="&#x396;" horiz-adv-x="514" d="M108 550q-3 -1 -8 -0.5t-9.5 3t-4.5 4.5q39 76 76 106q14 -2 37 -2h158q88 0 169 11q11 -9 7 -24l-445 -598q59 -10 166 -10q60 0 109 25t74 54q5 -2 7 -10t1 -13q-4 -17 -33.5 -56.5t-58.5 -39.5h-299q-25 0 -45.5 10.5t-17.5 25.5q31 32 51.5 55.5t40.5 48.5t31.5 40.5 t38.5 53t47 64.5q99 133 239 323q-45 2 -203 -6q-52 -3 -128 -65z" />
<glyph unicode="&#x397;" horiz-adv-x="480" d="M471 468q-8 -43 -25 -129.5t-23 -120.5q-10 -54 -18.5 -128t-6.5 -89q-14 -17 -27 -17q-7 0 -28.5 13t-19.5 23q35 154 63 292q-15 -1 -61 -2.5t-77.5 -2.5t-72 -4t-67.5 -8q-3 -16 -7.5 -41.5t-6.5 -35.5q-10 -55 -19 -128.5t-7 -88.5q-14 -17 -26 -17q-7 0 -29 13 t-20 23q43 187 72 334q23 120 41 293q2 5 11 11t13 6q18 0 36 -12.5t16 -24.5q0 -2 -7.5 -28.5t-17.5 -64.5t-15 -66q-17 -85 -24 -121l275 1l1 6q23 120 41 293q2 5 11 11t13 6q18 0 36 -12.5t16 -24.5q0 -2 -7.5 -28.5t-17.5 -64.5t-15 -66z" />
<glyph unicode="&#x398;" horiz-adv-x="666" d="M321 353q49 0 77.5 8t52.5 31q3 3 8 -2q14 -35 22 -98q0 -11 -17 -17q-3 3 -11.5 9.5t-10.5 8t-8.5 6t-9.5 5.5t-10 3.5t-13 3t-15 1t-20 0.5q-49 0 -77.5 -8t-52.5 -31q-3 -3 -8 2q-14 35 -22 98q0 11 17 17q3 -3 11.5 -9.5t10.5 -8t8.5 -6t9.5 -5.5t10 -3.5t13 -3 t15 -1t20 -0.5zM407 630q-96 0 -169.5 -95.5t-101.5 -225.5q-12 -45 -7 -95t19.5 -92t48.5 -69t80 -27q95 0 172.5 93.5t104.5 219.5q12 47 6.5 98t-21 94t-50.5 71t-82 28zM410 667q120 0 183.5 -96.5t33.5 -251.5q-27 -139 -129 -234t-220 -95q-120 0 -182 94t-31 253 q27 140 127 235t218 95z" />
<glyph unicode="&#x399;" horiz-adv-x="151" d="M142 468q-8 -42 -25 -129t-23 -121q-10 -54 -18.5 -128t-6.5 -89q-14 -17 -27 -17q-7 0 -29 13t-20 23q43 187 72 334q23 120 41 293q2 5 11 11t13 6q18 0 36 -12.5t16 -24.5q0 -2 -7.5 -28.5t-17.5 -64.5t-15 -66z" />
<glyph unicode="&#x39a;" horiz-adv-x="441" d="M427 50q-45 -54 -101 -54q-44 0 -76.5 52.5t-47.5 123t-17 143.5q-93 -134 -107 -217q-11 -82 -8 -97q-14 -17 -26 -17q-7 0 -29 13t-20 23q43 187 72 334q23 120 41 293q2 5 11 11t13 6q18 0 36 -12.5t16 -24.5q0 -2 -7.5 -28.5t-17.5 -64.5t-15 -66q-40 -207 -41 -210 q61 117 158 234t163 168q5 3 35 -6.5t31 -11.5q7 -10 1 -21q-60 -34 -137 -109t-143 -163q6 -119 57.5 -205t104.5 -86q9 0 17.5 1.5t15 4.5t11 5.5t8.5 5.5l4 3q1 0 1.5 -5.5t-0.5 -12t-3 -10.5z" />
<glyph unicode="&#x39b;" horiz-adv-x="493" d="M327 626q14 -22 23.5 -61.5t13.5 -72.5t9.5 -83.5t7.5 -69.5q35 -275 69 -335q-2 -4 -6 -8t-7 -6l-3 -2q-51 7 -67 29l-8 28t-7.5 30.5t-5.5 28t-5 31t-4 29t-3.5 33.5t-3.5 32t-3.5 36.5t-3.5 36.5q-2 16 -5.5 59t-6 64t-7 53.5t-10.5 57t-15 46.5q-110 -257 -262 -582 q-4 -10 -20 -10q-51 21 -58 36q24 22 54.5 66.5t56 88t60.5 113.5t54 109t52.5 110.5t39.5 85.5q-9 12 -26.5 10.5t-37.5 -12.5q-2 6 0 16q8 18 32 35.5t43 17.5q17 0 30 -7.5t17.5 -14t12.5 -18.5z" />
<glyph unicode="&#x39c;" horiz-adv-x="603" d="M602 467q-24 -220 -27 -250q-6 -56 -8.5 -125.5t0.5 -88.5q-14 -19 -25 -20q-3 -1 -17 5t-26.5 14.5t-11.5 15.5q6 42 20.5 142.5t24.5 184.5q16 147 18 205q-83 -236 -222 -470q-2 -4 -6 -8t-7 -6l-3 -2q-53 2 -69 24q-20 42 -61 212q-25 104 -33 200q-62 -236 -65 -249 q-38 -165 -34 -257q-9 -14 -18 -16q-15 5 -33.5 17.5t-22.5 28.5q13 41 25.5 80.5t23.5 81.5t19 72.5t18 75t15 66t14.5 68.5t12 59t12 61.5t10.5 53.5q1 5 8 14.5t12 9.5q4 0 9 -4t8.5 -8.5t8.5 -11.5t6 -9q6 -28 27.5 -133.5t35.5 -165.5q33 -139 66 -213q138 223 243 514 q3 9 11 18.5t13 9.5q12 0 29.5 -14t19.5 -23q0 -3 -3.5 -28t-9 -65t-8.5 -66z" />
<glyph unicode="&#x39d;" horiz-adv-x="429" d="M363 7q-1 -4 -5.5 -8.5t-9.5 -6.5l-4 -2q-51 10 -65 25q-57 153 -92 287q-7 26 -19 69.5t-21 76.5t-15 60q-23 -96 -51 -258q-26 -161 -17 -255q-2 -4 -8 -10t-10 -7q-50 23 -59 51q70 269 119 611q6 23 13 23q9 0 22.5 -13t16.5 -20q9 -30 40.5 -134t48.5 -157 q65 -213 92 -282q44 230 59 329q32 203 29 258q6 15 17 17q16 -9 23 -58t7 -91q-46 -198 -111 -505z" />
<glyph unicode="&#x39e;" horiz-adv-x="441" d="M206 661q113 0 217 1q29 -42 42 -116q-3 -7 -13 -12.5t-16 -3.5q-38 87 -142 87h-56q-39 0 -71.5 -18t-41.5 -63q-3 -4 -12.5 -7t-13.5 0q-6 37 -6 103q42 29 113 29zM209 358q49 0 77.5 8t52.5 31q3 3 8 -2q14 -35 22 -98q0 -11 -17 -17q-3 3 -11.5 9.5t-10.5 8t-8.5 6 t-9.5 5.5t-10 3.5t-13 3t-15 1t-20 0.5q-49 0 -78 -8t-53 -31q-3 -2 -7 2q-14 35 -22 98q0 11 17 17q3 -3 11.5 -9.5t10.5 -8t8.5 -6t9.5 -5.5t10 -3.5t13 -3t15 -1t20 -0.5zM204 43q56 0 107.5 24.5t72.5 44.5t29 32q5 -2 6.5 -10t0.5 -13q-4 -17 -43 -69t-68 -52h-196 q-82 0 -123 18q-4 16 -5 57t5 69q3 3 14.5 -2t12.5 -9q16 -58 54 -74t133 -16z" />
<glyph unicode="&#x39f;" horiz-adv-x="680" d="M414 627q-64 0 -123 -48.5t-96 -119.5t-53 -150q-11 -71 -3.5 -133.5t46 -104.5t99.5 -42q95 0 174.5 95t102.5 215q11 73 3 137t-47.5 107.5t-102.5 43.5zM417 667q120 0 183.5 -96.5t33.5 -251.5q-27 -139 -129 -234t-220 -95q-121 0 -183 94t-31 253 q27 139 127.5 234.5t218.5 95.5z" />
<glyph unicode="&#x3a0;" horiz-adv-x="519" d="M168 610q-5 -26 -35 -191.5t-34 -188.5q-36 -194 -31 -229q-14 -17 -27 -17q-7 0 -27.5 13t-18.5 23l111 583q-7 26 -65 41q2 13 13 19q89 -6 130 -5q44 0 109.5 5t117.5 6q121 -27 138 -45q2 -5 -1 -11t-6 -7q-45 6 -77 9q-25 -84 -37 -147q-29 -154 -47 -250 q-10 -55 -19 -128.5t-7 -88.5q-14 -17 -26 -17q-7 0 -29.5 13t-20.5 23q47 186 71 334q26 159 38 264h-26q-130 0 -194 -8z" />
<glyph unicode="&#x3a1;" horiz-adv-x="433" d="M260 620q-57 0 -94 -10q-5 -26 -35 -191.5t-34 -188.5q-36 -194 -31 -229q-14 -17 -27 -17q-7 0 -27.5 13t-18.5 23l111 583q-7 26 -65 41q2 13 13 19q77 -5 130 -5q9 0 34 1t45.5 0.5t41.5 -3.5q83 -10 117.5 -63t20.5 -125q-16 -83 -81 -135.5t-145 -52.5 q-7 0 -21.5 7.5t-19.5 14.5q-3 4 -1 12t7 12q19 -10 42 -10q46 0 86.5 48t51.5 102q11 57 -17 105.5t-83 48.5z" />
<glyph unicode="&#x3a2;" horiz-adv-x="931" />
<glyph unicode="&#x3a3;" horiz-adv-x="509" d="M-23 29q10 7 27 18.5t28.5 19t15.5 11.5q53 44 146 119t120 97q-23 70 -98.5 185.5t-113.5 162.5q2 13 13 19q46 -3 101 -3q52 1 129.5 3t121.5 3q21 -38 36 -80q-11 -16 -16 -18q-49 34 -78 45.5t-82 11.5q-51 0 -115 -8q7 -12 74 -109.5t90 -151.5q12 -35 8 -47 q-266 -225 -300 -248q37 -15 134 -15q90 0 150 25q26 11 51 26t30 23q5 -2 7 -10t1 -13q-3 -13 -40.5 -55t-61.5 -42h-307q-59 0 -71 31z" />
<glyph unicode="&#x3a4;" horiz-adv-x="502" d="M374 621h-42q-26 -137 -71 -391q-36 -194 -31 -229q-14 -17 -27 -17q-7 0 -28.5 13t-19.5 23l121 601h-70q-38 0 -71 -20t-42 -65q-3 -4 -13 -7t-14 0q-6 37 -6 103q42 29 114 29h167q78 0 160 1q29 -42 42 -116q-3 -7 -13 -12.5t-16 -3.5q-40 91 -140 91z" />
<glyph unicode="&#x3a5;" horiz-adv-x="507" d="M585 624q-96 -55 -202.5 -213.5t-119.5 -226.5q-10 -50 -15.5 -108t-3.5 -75q-14 -17 -27 -17q-7 0 -30 13t-21 23q11 55 42 160q1 4 3 10.5t3 9.5q-14 391 -92 391q-34 0 -57 -26q-3 0 -8 12q-2 6 0 11q16 33 44.5 56.5t52.5 23.5q42 0 65.5 -122.5t25.5 -268.5 q52 114 131.5 223t148.5 163q5 3 31 -6.5t27 -11.5q7 -11 2 -21z" />
<glyph unicode="&#x3a6;" horiz-adv-x="578" d="M51 319q15 88 85.5 153t171.5 78q7 45 12 97q2 5 9.5 11t11.5 6q18 0 37 -12.5t17 -24.5q0 -1 -3.5 -11.5t-8.5 -28.5t-9 -35q94 -8 143 -68t35 -145q-14 -88 -87 -153.5t-175 -78.5q-11 -93 -9 -106q-14 -17 -23 -17q-7 0 -30 13t-21 23q9 35 20 86q-95 8 -142.5 67.5 t-33.5 145.5zM356 470q-10 -53 -26.5 -137t-22.5 -115q-3 -16 -12 -79q65 13 117 67t66 123q13 70 -18.5 124t-93.5 66q-1 -6 -10 -49zM305 518q-65 -14 -118 -67.5t-66 -121.5q-13 -70 19 -124t94 -66q34 154 45 215q12 63 26 164z" />
<glyph unicode="&#x3a7;" horiz-adv-x="501" d="M437 4q-2 -4 -6 -8t-7 -6l-4 -2q-58 8 -74 30q-58 80 -110 261q-55 -71 -133 -160.5t-109 -118.5q-8 -6 -18 -6q-9 0 -23.5 8.5t-11.5 21.5q41 25 123 112t158 187q-3 13 -10 45.5t-10.5 46.5t-10 42t-11.5 46t-12.5 41.5t-15.5 45.5q-9 24 -35 24q-22 0 -44 -17 q-1 4 1 16q8 17 34.5 35t45.5 18q38 0 57 -40q24 -50 63 -227q87 120 189 233q10 8 29.5 17t33.5 15l14 5q7 0 14 -4.5t6 -8.5q-40 -30 -118.5 -114t-156.5 -191q22 -97 64.5 -193t87.5 -154z" />
<glyph unicode="&#x3a8;" horiz-adv-x="653" d="M157 491q-11 83 -21 101q-13 21 -33 22q-22 0 -44 -17q-2 6 0 16q8 18 33.5 35.5t44.5 17.5q36 0 52 -40t27 -146q13 -132 110 -143q0 2 1 8.5t2 8.5q23 120 41 293q3 5 9 11t10 6q18 0 38.5 -12.5t18.5 -24.5q0 -2 -7.5 -28.5t-17.5 -64.5t-15 -66q-5 -27 -14.5 -76 t-10.5 -53q45 12 83.5 56.5t79.5 117.5q43 77 75 114.5t70 37.5q16 0 31.5 -11.5t18.5 -20.5q-5 -14 -9 -15q-9 3 -29 3q-10 0 -20 -7.5t-20 -22.5t-18 -28.5t-19.5 -34.5t-17.5 -32q-55 -93 -107.5 -141t-125.5 -58q-10 -48 -15 -79q-10 -54 -18.5 -128t-6.5 -89 q-14 -17 -27 -17q-7 0 -28.5 13t-19.5 23q33 144 60 278q-70 4 -108.5 50.5t-52.5 142.5z" />
<glyph unicode="&#x3a9;" horiz-adv-x="689" d="M414 667q120 0 179.5 -95.5t32.5 -236.5q-18 -89 -76.5 -161.5t-139.5 -113.5q12 -6 67 -6q57 0 123 43q5 0 6.5 -5.5t0.5 -9.5q-7 -12 -21 -28.5t-43.5 -35t-58.5 -18.5h-120q-15 30 -11 51q3 12 15 24q149 92 184 274q24 126 -15 202t-122 76q-65 0 -122.5 -48.5 t-90 -111t-44.5 -124.5q-21 -107 3.5 -175t73.5 -98q21 -41 19 -51q-3 -12 -26 -19h-163q-7 4 -28.5 30t-24.5 34q6 11 19 11q6 -2 21 -8.5t28 -10t31 -4.5q14 -1 31.5 0.5t27.5 3.5l11 1q-61 31 -88.5 115t-8.5 181q26 131 122 222.5t208 91.5z" />
<glyph unicode="&#x3aa;" horiz-adv-x="151" d="M216 778q4 21 20 35.5t36 14.5q19 0 30 -14.5t7 -35.5t-20 -35.5t-36 -14.5q-19 0 -30 14.5t-7 35.5zM48 778q4 21 20 35.5t36 14.5q19 0 30 -14.5t7 -35.5t-20.5 -35.5t-36.5 -14.5q-19 0 -29.5 14.5t-6.5 35.5zM142 468q-8 -42 -25 -129t-23 -121q-10 -54 -18.5 -128 t-6.5 -89q-14 -17 -27 -17q-7 0 -29 13t-20 23q43 187 72 334q23 120 41 293q2 5 11 11t13 6q18 0 36 -12.5t16 -24.5q0 -2 -7.5 -28.5t-17.5 -64.5t-15 -66z" />
<glyph unicode="&#x3ab;" horiz-adv-x="507" d="M349 778q4 21 20 35.5t36 14.5q19 0 30 -14.5t7 -35.5t-20 -35.5t-36 -14.5q-19 0 -30 14.5t-7 35.5zM181 778q4 21 20 35.5t36 14.5q19 0 30 -14.5t7 -35.5t-20.5 -35.5t-36.5 -14.5q-19 0 -29.5 14.5t-6.5 35.5zM585 624q-96 -55 -202.5 -213.5t-119.5 -226.5 q-10 -50 -15.5 -108t-3.5 -75q-14 -17 -27 -17q-7 0 -30 13t-21 23q11 55 42 160q1 4 3 10.5t3 9.5q-14 391 -92 391q-34 0 -57 -26q-3 0 -8 12q-2 6 0 11q16 33 44.5 56.5t52.5 23.5q42 0 65.5 -122.5t25.5 -268.5q52 114 131.5 223t148.5 163q5 3 31 -6.5t27 -11.5 q7 -11 2 -21z" />
<glyph unicode="&#x3ac;" horiz-adv-x="459" d="M315 709q24 0 20 -23q-7 -33 -63 -108.5t-66 -79.5h-3q-3 0 -6.5 3t-2.5 6q2 11 27.5 75.5t45.5 101.5q5 8 20.5 16.5t27.5 8.5zM232 437q30 0 45 -48.5t11 -118.5q0 -5 -1 -14.5t-1.5 -17t-0.5 -10.5l25 43q55 164 77 165q11 0 22 -16.5t10 -38.5q-1 -20 -18.5 -56.5 t-35.5 -59.5l-50 -78q-11 -40 -11 -68q0 -53 37 -53q25 0 50 25q3 -2 5 -10.5t1 -11.5q-8 -22 -32 -47.5t-52 -25.5q-45 0 -45 70q0 30 5 54q-102 -127 -168 -127q-88 0 -88 108q0 60 30.5 138.5t82.5 138t102 59.5zM64 78q0 -49 30 -49q54 0 137 120q23 53 25 133 q2 86 -31 86q-28 0 -67 -51t-66.5 -120.5t-27.5 -118.5z" />
<glyph unicode="&#x3ad;" horiz-adv-x="320" d="M305 707q24 0 20 -23q-7 -33 -63 -108.5t-66 -79.5h-3q-3 0 -6.5 3t-2.5 6q2 11 27.5 75.5t45.5 101.5q5 8 20.5 16.5t27.5 8.5zM282 361q-29 15 -50 15q-55 0 -92.5 -28t-37.5 -74q0 -17 9 -31.5t16 -16.5q43 27 74 27q10 0 16 -3q17 -21 17 -43q0 -2 -5 -6.5t-9 -5.5 q-55 0 -111 -29.5t-56 -69.5q0 -42 61 -42q21 0 43.5 5.5t40 13t31 15t22 13t9.5 5.5q7 -6 -3 -29q-20 -31 -59.5 -56.5t-78.5 -25.5q-44 0 -72 22t-28 61q0 83 79 131q-35 22 -35 66q0 66 45 113t98 47q34 0 55.5 -18.5t27.5 -34.5q2 -12 -7 -21z" />
<glyph unicode="&#x3ae;" horiz-adv-x="443" d="M366 708q24 0 20 -23q-7 -33 -63 -108.5t-66 -79.5h-3q-3 0 -6.5 3t-2.5 6q2 11 27.5 75.5t45.5 101.5q5 8 20.5 16.5t27.5 8.5zM40 333q-4 0 -7 7t-2 13q15 32 44.5 55t57.5 23q30 -1 35.5 -41t-0.5 -86q39 65 73.5 99t77.5 34q36 0 47.5 -29.5t11.5 -76.5 q0 -36 -36 -242.5t-35 -286.5q-13 -17 -27 -17q-8 0 -31 16t-20 27q2 10 34.5 130t56 218.5t23.5 129.5q0 56 -29 56q-36 0 -77 -50t-75 -121q-2 -13 -5 -28.5t-5 -24.5q-1 -4 -10.5 -52.5t-12.5 -69.5q-15 -20 -26 -20q-8 0 -26 13.5t-17 22.5q5 33 54 157l24 58 q22 115 -40 115q-32 0 -58 -29z" />
<glyph unicode="&#x3af;" horiz-adv-x="232" d="M230 707q24 0 20 -23q-7 -33 -63 -108.5t-66 -79.5h-3q-3 0 -6.5 3t-2.5 6q2 11 27.5 75.5t45.5 101.5q5 8 20.5 16.5t27.5 8.5zM109 67q29 0 59 30q2 0 5 -5t3 -9t-1 -7q-16 -34 -42.5 -57t-53.5 -23q-30 1 -42.5 27.5t-4.5 65.5q7 41 63 327q14 17 26 17 q6 0 27.5 -16.5t19.5 -26.5q-11 -38 -31 -97.5t-33 -103.5t-22 -89q-3 -13 2 -21t11.5 -10t13.5 -2z" />
<glyph unicode="&#x3b0;" d="M302 594q17 0 27 -13.5t6 -32.5t-19 -31.5t-32 -12.5t-27.5 13t-6.5 32t19.5 32t32.5 13zM105 594q17 0 27 -13.5t6 -32.5t-19 -31.5t-32 -12.5t-27.5 13t-6.5 32t19.5 32t32.5 13zM258 699q21 0 17 -22q-3 -17 -20 -48t-36.5 -59.5t-35.5 -50.5t-19 -23h-3q-1 0 -3 1.5 t-3.5 3.5t-0.5 4q2 11 24 73t38 97q5 8 18 16t24 8zM64 410q-2 2 0.5 12t5.5 10q20 0 47 -22.5t27 -64.5q0 -23 -46.5 -106t-46.5 -125q0 -56 62 -56q51 0 109 73t58 182q0 70 -24 111q2 7 8 10q7 0 26.5 -17.5t22.5 -25.5q12 -35 12 -82q0 -146 -65.5 -230.5t-143.5 -84.5 q-41 0 -72 35t-31 100q0 52 36.5 135.5t36.5 97.5q0 29 -22 48z" />
<glyph unicode="&#x3b1;" horiz-adv-x="459" d="M232 437q30 0 45 -48.5t11 -118.5q0 -5 -1 -14.5t-1.5 -17t-0.5 -10.5l25 43q55 164 77 165q11 0 22 -16.5t10 -38.5q-1 -20 -18.5 -56.5t-35.5 -59.5l-50 -78q-11 -40 -11 -68q0 -53 37 -53q25 0 50 25q3 -2 5 -10.5t1 -11.5q-8 -22 -32 -47.5t-52 -25.5q-45 0 -45 70 q0 30 5 54q-102 -127 -168 -127q-88 0 -88 108q0 60 30.5 138.5t82.5 138t102 59.5zM64 78q0 -49 30 -49q54 0 137 120q23 53 25 133q2 86 -31 86q-28 0 -67 -51t-66.5 -120.5t-27.5 -118.5z" />
<glyph unicode="&#x3b2;" horiz-adv-x="438" d="M118 74q-1 3 1.5 12t5.5 9q30 -38 88 -38q46 0 80.5 47.5t34.5 124.5q0 32 -17.5 65t-38.5 33q-4 0 -10 -3q-43 -37 -60 -37q-6 4 -14.5 17t-8.5 27q0 17 19 27q63 32 108.5 88.5t45.5 131.5q0 26 -12 42.5t-35 16.5q-115 0 -166 -257q-1 -3 -15 -71.5t-26 -127 t-22.5 -125t-10.5 -92.5q0 -115 25 -152q-5 -10 -18.5 -21.5t-28.5 -11.5q-11 0 -25 17t-14 45q0 78 93 561q30 155 84 222.5t121 67.5q35 0 55 -23.5t24 -45t4 -44.5q0 -65 -26.5 -125t-62.5 -99q71 -45 71 -148q0 -43 -15.5 -90.5t-52.5 -85t-85 -37.5q-37 0 -62 26.5 t-34 53.5z" />
<glyph unicode="&#x3b3;" horiz-adv-x="371" d="M174 0q-12 -14 -18 -42q-26 -113 -41 -154q-12 -31 -31 -31q-15 0 -28 21.5t-13 31.5q0 13 35.5 90t63.5 130q19 102 19 184q0 132 -72 132q-16 0 -35 -9.5t-26 -18.5q-8 0 -8 18q15 33 44 57t54 24q39 -1 57 -47.5t18 -121.5q0 -36 -4.5 -80t-8 -69t-5.5 -32 q101 153 129 207q41 78 53 132q1 4 6 9t7 5q9 0 16.5 -33t4.5 -48q-9 -47 -57 -129q-14 -24 -32.5 -51.5t-38.5 -55.5t-34.5 -47t-33.5 -44t-21 -28z" />
<glyph unicode="&#x3b4;" horiz-adv-x="376" d="M420 465q-25 44 -80 102t-94 58q-8 0 -12.5 -0.5t-9.5 -6t-5 -16.5q0 -21 49 -108q37 -64 52.5 -106t15.5 -90q0 -119 -71 -211t-144 -92q-37 0 -68 31.5t-31 84.5q0 84 45 182.5t132 132.5q12 4 18 4q13 0 51 -25q-9 21 -33.5 69t-35.5 79t-11 61q0 78 50 78 q45 0 105.5 -67.5t74.5 -104.5q13 -35 14 -53q-1 -1 -6 -2t-6 0zM293 310q0 40 -11 60q-11 6 -39 6q-32 0 -75.5 -45t-75 -109t-31.5 -114q0 -61 51 -61q35 0 78.5 45t73 107.5t29.5 110.5z" />
<glyph unicode="&#x3b5;" horiz-adv-x="320" d="M282 361q-29 15 -50 15q-55 0 -92.5 -28t-37.5 -74q0 -17 9 -31.5t16 -16.5q43 27 74 27q10 0 16 -3q17 -21 17 -43q0 -2 -5 -6.5t-9 -5.5q-55 0 -111 -29.5t-56 -69.5q0 -42 61 -42q21 0 43.5 5.5t40 13t31 15t22 13t9.5 5.5q7 -6 -3 -29q-20 -31 -59.5 -56.5 t-78.5 -25.5q-44 0 -72 22t-28 61q0 83 79 131q-35 22 -35 66q0 66 45 113t98 47q34 0 55.5 -18.5t27.5 -34.5q2 -12 -7 -21z" />
<glyph unicode="&#x3b6;" horiz-adv-x="347" d="M200 -106q-3 0 -10 4.5t-7 9.5q20 11 39.5 34t19.5 49q0 21 -28 21q-13 0 -57 -8q-35 -7 -63 -7q-37 0 -56.5 23t-19.5 55q0 163 213 461q-4 0 -10.5 1t-23 6t-28.5 11.5t-20 20.5t-5 31q10 53 91 80q5 0 9 -4t3 -8q-14 -8 -30 -29.5t-19 -36.5q-5 -27 12.5 -38t38.5 -11 q44 53 90 93.5t64 40.5q9 0 15 -19.5t6 -30.5q0 -21 -26 -40q-63 -47 -86 -62q-66 -52 -160 -192.5t-94 -228.5q0 -26 16.5 -39t40.5 -13q22 0 63 9q50 9 64 9q49 0 49 -52q0 -42 -30.5 -81.5t-60.5 -58.5z" />
<glyph unicode="&#x3b7;" horiz-adv-x="443" d="M40 333q-4 0 -7 7t-2 13q15 32 44.5 55t57.5 23q30 -1 35.5 -41t-0.5 -86q39 65 73.5 99t77.5 34q36 0 47.5 -29.5t11.5 -76.5q0 -36 -36 -242.5t-35 -286.5q-13 -17 -27 -17q-8 0 -31 16t-20 27q2 10 34.5 130t56 218.5t23.5 129.5q0 56 -29 56q-36 0 -77 -50t-75 -121 q-2 -13 -5 -28.5t-5 -24.5q-1 -4 -10.5 -52.5t-12.5 -69.5q-15 -20 -26 -20q-8 0 -26 13.5t-17 22.5q5 33 54 157l24 58q22 115 -40 115q-32 0 -58 -29z" />
<glyph unicode="&#x3b8;" horiz-adv-x="471" d="M319 636q-37 0 -74 -48t-37 -104q0 -21 8 -37.5t22 -26.5t29 -16.5t34.5 -10t32 -4.5t27.5 -1.5t17 -0.5q14 75 14 123q0 126 -73 126zM318 695q30 0 52.5 -21.5t34.5 -57.5t18 -76t6 -84q0 -36 -5 -73q4 0 11.5 -0.5t11.5 -1.5q5 -20 5 -53q0 -4 -3.5 -11.5t-6.5 -8.5 q-8 0 -32 3q-32 -135 -96.5 -225.5t-122.5 -90.5q-59 0 -61 90v16t-0.5 19.5t-1 19.5t-2.5 19.5t-4.5 15t-6.5 11.5t-10 4q-26 0 -48 -25q-3 0 -5.5 8t-1.5 13q15 33 43 56.5t53 23.5q22 0 22 -42q0 -15 -6 -69t-6 -56q0 -45 28 -45q41 0 98.5 76.5t81.5 189.5q-28 6 -56 17 t-62.5 32t-56 56.5t-21.5 79.5q0 75 44 132.5t106 57.5z" />
<glyph unicode="&#x3b9;" horiz-adv-x="232" d="M109 67q29 0 59 30q2 0 5 -5t3 -9t-1 -7q-16 -34 -42.5 -57t-53.5 -23q-30 1 -42.5 27.5t-4.5 65.5q7 41 63 327q14 17 26 17q6 0 27.5 -16.5t19.5 -26.5q-11 -38 -31 -97.5t-33 -103.5t-22 -89q-3 -13 2 -21t11.5 -10t13.5 -2z" />
<glyph unicode="&#x3ba;" horiz-adv-x="427" d="M173 221l73 72q31 49 71 96.5t55 47.5q10 0 27 -19t17 -30q0 -14 -5 -17q-21 -13 -60.5 -46.5t-64.5 -59.5q-11 -17 -21.5 -51.5t-10.5 -63.5q0 -84 47 -84q25 0 48 25q3 -4 5 -11.5t1 -10.5q-13 -31 -37 -52t-49 -21q-26 0 -37.5 29t-11.5 69q0 87 17 138 q-4 -4 -33 -32.5t-46 -50.5q-17 -38 -47 -79t-62 -66q-10 -8 -22 -8t-20 29t4 47q86 86 128 123q14 53 14 86q0 84 -47 84q-25 0 -48 -25q-3 4 -5 11.5t-1 10.5q13 31 37 52t49 21q26 0 37.5 -29t11.5 -69q0 -50 -14 -116z" />
<glyph unicode="&#x3bb;" horiz-adv-x="449" d="M401 68q-11 -26 -35 -49t-48 -23q-19 0 -33 13.5t-21 38.5t-11 52t-4.5 62.5t0.5 62t2 57.5q0 4 0.5 6.5t0.5 6.5v7q-16 -28 -53 -78t-70 -92t-69 -86t-40 -49q-10 -5 -17 -5q-11 0 -26.5 17.5t-15.5 26.5q55 30 173 190t125 198q3 42 1 78.5t-8 64.5t-22 44t-41 16 q-15 0 -34.5 -11.5t-27.5 -20.5q-4 0 -6.5 6.5t-1.5 11.5q15 33 44 57t54 24q96 0 70 -342q-11 -147 2 -220q7 -36 23.5 -51t33.5 -15q24 0 49 25q3 -3 5 -11.5t1 -11.5z" />
<glyph unicode="&#x3bc;" horiz-adv-x="444" d="M391 69q-10 -27 -34.5 -50t-47.5 -23q-26 0 -37.5 23t-11 55t2.5 66q-40 -70 -74 -109.5t-69 -39.5q-49 0 -49 97q-1 -4 -10.5 -39t-18.5 -77t-9 -71q0 -43 33 -95q-1 -10 -15.5 -18.5t-28.5 -8.5q-9 0 -17.5 4.5t-17 22.5t-8.5 48q0 45 30 163t52 187q3 13 19 108 t19 111q11 14 23 14q9 0 23 -11t20 -27q-5 -30 -59 -176q-8 -42 -8 -73q0 -35 8.5 -59.5t22.5 -24.5q17 0 34.5 12.5t36.5 40.5t30 46.5t32 56.5q12 43 26.5 107.5t22.5 93.5q11 14 23 14q9 0 23 -11t20 -27l-76 -189q-14 -62 -5.5 -103t39.5 -41q25 0 50 25q3 -2 5 -10.5 t1 -11.5z" />
<glyph unicode="&#x3bd;" horiz-adv-x="381" d="M24 346q-3 0 -3 11t2 15q21 34 46 51.5t49 8.5q27 -10 38.5 -51t9.5 -90.5t-12 -102.5q-4 -19 -8.5 -45.5t-5.5 -31.5q0 -1 1 -1.5t2 0.5q64 60 117 144.5t78 167.5q6 14 10 14q2 0 3.5 -8.5t1 -24t-3.5 -31.5q-10 -52 -56 -141.5t-102 -162t-89 -72.5q-3 0 -7.5 4.5 t-3.5 9.5q14 69 21 118t9.5 104t-9.5 88.5t-39 43.5q-23 8 -49 -18z" />
<glyph unicode="&#x3be;" horiz-adv-x="369" d="M12 75q0 61 43 128t92 98q-23 11 -38.5 39t-6.5 72q16 82 95 148q-3 0 -7 0.5t-15 3.5t-18.5 7.5t-13 15t-2.5 23.5q5 25 26.5 45.5t34.5 26.5t25 10q6 0 9.5 -3.5t2.5 -7.5q-11 -7 -24 -25t-15 -30q-4 -19 3.5 -29.5t21.5 -10.5q110 87 153 87q22 0 13 -52 q-3 -14 -38.5 -34t-69.5 -30q-42 -25 -86 -70t-54 -95q-5 -25 7.5 -44t33.5 -19q96 55 132 55q9 0 13.5 -4t3.5 -12q-7 -39 -31 -58q-40 -7 -96.5 -34.5t-105 -74t-48.5 -90.5q0 -43 57 -43q22 0 63 9q50 9 64 9q49 0 49 -52q0 -42 -30.5 -81.5t-60.5 -58.5q-3 0 -10 4.5 t-7 9.5q20 11 39.5 34t19.5 49q0 21 -28 21q-13 0 -57 -8q-35 -7 -63 -7q-38 0 -57 22.5t-19 55.5z" />
<glyph unicode="&#x3bf;" horiz-adv-x="383" d="M248 375q-35 1 -80 -44t-76.5 -110t-30.5 -118q0 -46 54 -47q35 -1 79.5 44t76 110.5t30.5 117.5q0 46 -53 47zM121 -4q-49 0 -74 36.5t-25 75.5q0 122 67.5 224.5t152.5 102.5q48 0 73 -36.5t25 -75.5q0 -122 -67.5 -224.5t-151.5 -102.5z" />
<glyph unicode="&#x3c0;" horiz-adv-x="432" d="M187 362q-50 0 -75.5 -13.5t-43.5 -42.5q-5 -5 -13 -1q-2 8 3 31q6 30 21 51t35 30.5t37 13t34 3.5q36 0 86.5 -6.5t93.5 -6.5q67 0 92 23q4 0 8.5 -3t4.5 -6q-1 -8 -10.5 -26t-34.5 -39.5t-57 -21.5q-21 0 -42 2q-23 -167 -25 -225q-1 -35 12.5 -50t30.5 -15q16 0 29 9 q2 -2 2.5 -7.5t-0.5 -9.5q-2 -10 -26 -32.5t-45 -22.5q-29 0 -40.5 25.5t-7.5 65.5q12 114 43 265q-19 2 -84 7q-23 -84 -63.5 -211.5t-56.5 -148.5q-9 -3 -19 -3q-14 0 -26.5 16t-10.5 24q52 78 84 144t64 181z" />
<glyph unicode="&#x3c1;" d="M312 328q0 47 -53 47q-49 0 -95 -67.5t-80 -198.5q-1 -4 -1 -12q0 -17 9.5 -30t26.5 -13q34 0 79.5 39t79.5 105t34 130zM351 323q0 -62 -26.5 -136.5t-79 -132.5t-113.5 -58q-25 0 -42 16.5t-20 37.5q-63 -247 -152 -247q-20 0 -36.5 22.5t-20.5 50.5q0 17 9 24 q17 -21 50 -21q49 0 76 61.5t50 189.5q30 164 85.5 234.5t121.5 70.5q48 0 73 -36.5t25 -75.5z" />
<glyph unicode="&#x3c2;" horiz-adv-x="361" d="M229 88q52 0 52 -54q0 -42 -30.5 -81.5t-60.5 -58.5q-3 0 -10 4.5t-7 9.5q20 11 39.5 34t19.5 49q0 10 -8.5 16.5t-20.5 6.5q-13 0 -53.5 -8.5t-63.5 -8.5q-72 0 -72 79q0 131 72.5 246.5t151.5 115.5q77 0 100 -58q1 -6 -2.5 -17.5t-7.5 -12.5q-33 20 -63 20 q-79 0 -140 -72q-32 -38 -52.5 -89.5t-20.5 -87.5q0 -27 16 -40.5t40 -13.5q17 0 58.5 10.5t62.5 10.5z" />
<glyph unicode="&#x3c3;" horiz-adv-x="422" d="M332 363q8 -11 8 -40q0 -122 -67.5 -224.5t-151.5 -102.5q-49 0 -74 36.5t-25 75.5q0 122 67.5 224.5t152.5 102.5q36 0 68 -7t76 -7q66 0 92 23q11 0 13 -8q-6 -27 -33 -53t-72 -26q-12 0 -54 6zM248 375q-35 1 -80 -44t-76.5 -110t-30.5 -118q0 -46 54 -47 q35 -1 79.5 44t76 110.5t30.5 117.5q0 46 -53 47z" />
<glyph unicode="&#x3c4;" horiz-adv-x="378" d="M166 362q-50 0 -76 -13.5t-44 -42.5q-5 -5 -13 -1q-2 8 3 31q6 30 21 51t35 30.5t37 13t34 3.5q28 0 76 -6.5t59 -6.5q59 0 84 23q4 0 9 -3t5 -6q-1 -8 -10.5 -26t-35 -39.5t-57.5 -21.5q-3 0 -68 9q-33 -79 -58 -209q-9 -47 2.5 -67.5t30.5 -20.5q16 0 29 9q4 -4 2 -15 q-3 -11 -29.5 -34t-54.5 -23q-26 0 -39 27t-6 64q12 62 93 272q-20 2 -29 2z" />
<glyph unicode="&#x3c5;" d="M86 410q-2 2 0.5 12t5.5 10q20 0 47 -22.5t27 -64.5q0 -23 -46.5 -106t-46.5 -125q0 -56 62 -56q51 0 109 73t58 182q0 70 -24 111q2 7 8 10q7 0 26.5 -17.5t22.5 -25.5q12 -35 12 -82q0 -146 -65.5 -230.5t-143.5 -84.5q-41 0 -72 35t-31 100q0 52 36.5 135.5t36.5 97.5 q0 29 -22 48z" />
<glyph unicode="&#x3c6;" horiz-adv-x="512" d="M464 280q0 -112 -69.5 -194t-171.5 -97q-20 -115 -20 -190v-10q-14 -17 -25 -17q-6 0 -27 13t-19 23l35 182q-69 8 -106 52.5t-37 112.5q0 65 36 132t78 106t67 39q22 0 43 -11t18 -28q-66 -11 -135 -87.5t-69 -158.5q0 -47 26.5 -69t84.5 -22h7l16 85q30 152 71 221.5 t103 69.5q40 0 67 -43t27 -109zM231 60q82 11 140 84t58 160q0 35 -15.5 54.5t-44.5 19.5q-79 0 -121 -216q-4 -21 -17 -102z" />
<glyph unicode="&#x3c7;" horiz-adv-x="402" d="M367 434q10 0 17 -24.5t4 -43.5q-6 -33 -63.5 -114.5t-127.5 -164.5q-3 -43 -3 -79q0 -89 15 -126.5t49 -37.5q12 0 27 9t20 15q5 -1 6.5 -10.5t-0.5 -13.5q-10 -24 -34 -46.5t-49 -23.5q-66 0 -66 179q0 20 3 101q-143 -175 -174 -279q-8 -2 -11 -2q-14 0 -26 20t-10 28 q39 115 223 317q4 34 4 61q0 67 -15.5 116t-51.5 49q-12 0 -26 -9t-19 -16q-3 0 -5.5 7.5t-1.5 12.5q14 29 42 52t53 23q57 0 57 -189q0 -26 -2 -74q94 122 155 257q6 6 10 6z" />
<glyph unicode="&#x3c8;" horiz-adv-x="577" d="M124 434q20 0 33 -27t13 -47q0 -18 -6.5 -79.5t-6.5 -86.5q0 -75 22.5 -103t60.5 -31l20 92q20 102 32 218.5t10 138.5q28 23 52 23q21 0 19 -14q-48 -217 -73 -356l-18 -101q44 8 81 53t53 81t44 114q5 14 8 21q38 105 108 105q10 0 20 -5.5t10 -12.5q-63 -16 -87 -66 q-14 -30 -32 -76t-30.5 -79t-32.5 -71.5t-39.5 -63.5t-49 -43.5t-64.5 -22.5q-34 -199 -31 -217q-14 -8 -26 -8q-11 0 -25 9t-13 17q13 43 49 200q-49 8 -78.5 45t-29.5 98q0 15 6 69.5t6 85.5q0 29 -14 49.5t-34 20.5q-12 0 -26 -9t-19 -16q-3 0 -5.5 7.5t-1.5 12.5 q14 29 42 52t53 23z" />
<glyph unicode="&#x3c9;" horiz-adv-x="539" d="M483 224q0 -84 -44.5 -156.5t-115.5 -72.5q-37 0 -58 31t-23 64q-51 -96 -123 -96q-44 0 -68 35t-24 90q0 78 42.5 171.5t104.5 144.5q10 0 23 -13q13 -15 11 -36q-32 -23 -89 -106t-57 -161q0 -66 49 -66q45 0 75 44.5t42 106.5q10 51 10 69q8 15 18 15q9 0 24.5 -13.5 t15.5 -20.5q0 -1 -14.5 -55.5t-14.5 -68.5q0 -25 14 -47t42 -22q31 0 55 23.5t36 58t18 64.5t6 50q0 59 -21 105t-41 63q2 9 6 9q24 -2 36 -12q22 -22 43.5 -79t21.5 -119z" />
<glyph unicode="&#x3ca;" horiz-adv-x="232" d="M111 67q29 0 59 30q2 0 5 -5t3 -9t-1 -7q-16 -34 -42.5 -57t-53.5 -23q-30 1 -42.5 27.5t-4.5 65.5q7 41 63 327q14 17 26 17q6 0 27.5 -16.5t19.5 -26.5q-11 -38 -31 -97.5t-33 -103.5t-22 -89q-3 -13 2 -21t11.5 -10t13.5 -2zM239 592q17 0 27 -14t6 -33t-19.5 -32 t-32.5 -13t-28 13.5t-7 32.5t20.5 32.5t33.5 13.5zM68 592q17 0 27.5 -14t6.5 -33t-19.5 -32t-32.5 -13t-28 13.5t-7 32.5t20 32.5t33 13.5z" />
<glyph unicode="&#x3cb;" d="M86 410q-2 2 0.5 12t5.5 10q20 0 47 -22.5t27 -64.5q0 -23 -46.5 -106t-46.5 -125q0 -56 62 -56q51 0 109 73t58 182q0 70 -24 111q2 7 8 10q7 0 26.5 -17.5t22.5 -25.5q12 -35 12 -82q0 -146 -65.5 -230.5t-143.5 -84.5q-41 0 -72 35t-31 100q0 52 36.5 135.5t36.5 97.5 q0 29 -22 48zM310 592q17 0 27 -14t6 -33t-19.5 -32t-32.5 -13t-28 13.5t-7 32.5t20.5 32.5t33.5 13.5zM139 592q17 0 27.5 -14t6.5 -33t-19.5 -32t-32.5 -13t-28 13.5t-7 32.5t20 32.5t33 13.5z" />
<glyph unicode="&#x3cc;" horiz-adv-x="383" d="M356 707q24 0 20 -23q-7 -33 -63 -108.5t-66 -79.5h-3q-3 0 -6.5 3t-2.5 6q2 11 27.5 75.5t45.5 101.5q5 8 20.5 16.5t27.5 8.5zM248 375q-35 1 -80 -44t-76.5 -110t-30.5 -118q0 -46 54 -47q35 -1 79.5 44t76 110.5t30.5 117.5q0 46 -53 47zM121 -4q-49 0 -74 36.5 t-25 75.5q0 122 67.5 224.5t152.5 102.5q48 0 73 -36.5t25 -75.5q0 -122 -67.5 -224.5t-151.5 -102.5z" />
<glyph unicode="&#x3cd;" d="M301 707q24 0 20 -23q-7 -33 -63 -108.5t-66 -79.5h-3q-3 0 -6.5 3t-2.5 6q2 11 27.5 75.5t45.5 101.5q5 8 20.5 16.5t27.5 8.5zM86 410q-2 2 0.5 12t5.5 10q20 0 47 -22.5t27 -64.5q0 -23 -46.5 -106t-46.5 -125q0 -56 62 -56q51 0 109 73t58 182q0 70 -24 111q2 7 8 10 q7 0 26.5 -17.5t22.5 -25.5q12 -35 12 -82q0 -146 -65.5 -230.5t-143.5 -84.5q-41 0 -72 35t-31 100q0 52 36.5 135.5t36.5 97.5q0 29 -22 48z" />
<glyph unicode="&#x3ce;" horiz-adv-x="539" d="M341 707q24 0 20 -23q-7 -33 -63 -108.5t-66 -79.5h-3q-3 0 -6.5 3t-2.5 6q2 11 27.5 75.5t45.5 101.5q5 8 20.5 16.5t27.5 8.5zM483 224q0 -84 -44.5 -156.5t-115.5 -72.5q-37 0 -58 31t-23 64q-51 -96 -123 -96q-44 0 -68 35t-24 90q0 78 42.5 171.5t104.5 144.5 q10 0 23 -13q13 -15 11 -36q-32 -23 -89 -106t-57 -161q0 -66 49 -66q45 0 75 44.5t42 106.5q10 51 10 69q8 15 18 15q9 0 24.5 -13.5t15.5 -20.5q0 -1 -14.5 -55.5t-14.5 -68.5q0 -25 14 -47t42 -22q31 0 55 23.5t36 58t18 64.5t6 50q0 59 -21 105t-41 63q2 9 6 9 q24 -2 36 -12q22 -22 43.5 -79t21.5 -119z" />
<glyph unicode="&#x3cf;" horiz-adv-x="483" d="M245 -193q-27 0 -41.5 29.5t-13.5 54.5q1 8 13 15q16 -36 50 -36t62.5 24.5t42.5 50.5t31 67q-27 -16 -57 -16q-44 0 -76.5 52.5t-47.5 123t-17 143.5q-93 -134 -107 -217q-11 -82 -8 -97q-14 -17 -26 -17q-8 0 -32 13t-22 23q43 187 72 334q23 120 41 293q2 5 11 11 t13 6q18 0 38.5 -12.5t18.5 -24.5q0 -2 -7.5 -28.5t-17.5 -64.5t-15 -66q-40 -207 -41 -210q61 117 158 234t163 168q5 3 35 -6.5t31 -11.5q7 -10 1 -21q-60 -34 -137 -109t-143 -163q6 -119 57.5 -205t104.5 -86q9 0 17.5 1.5t15 4.5t11 5.5t8.5 5.5l4 3q1 0 1.5 -5.5 t-0.5 -12.5t-3 -10q-90 -243 -188 -243z" />
<glyph unicode="&#x3d0;" horiz-adv-x="410" d="M197 448q-3 0 -18 5t-18 8q-2 2 1 6.5t6 4.5q82 0 128.5 47.5t46.5 95.5q0 31 -34 31q-62 0 -126.5 -113t-91.5 -250q22 32 54.5 51t60.5 19q43 0 71 -24.5t37 -55t9 -65.5q0 -86 -45.5 -150t-106.5 -64q-13 0 -26.5 4t-31.5 16.5t-32 32.5t-23.5 57t-9.5 84q0 91 31 205 t79 193q33 54 73.5 81.5t78.5 27.5q36 0 52 -21.5t16 -54.5q0 -67 -50 -115.5t-131 -55.5zM161 62q56 0 94.5 45.5t38.5 99.5q0 35 -21 56t-60 21q-35 0 -77 -29.5t-57 -67.5q0 -68 19.5 -96.5t62.5 -28.5z" />
<glyph unicode="&#x3d1;" horiz-adv-x="363" d="M181 369q53 0 103 6q18 104 18 164q0 117 -49 117q-41 0 -87.5 -83.5t-77.5 -199.5q23 -4 93 -4zM247 695q33 0 56 -23.5t33.5 -61.5t14.5 -69.5t4 -60.5q0 -109 -37 -223t-94.5 -188t-112.5 -74q-33 0 -56.5 22t-35 57t-16 67.5t-4.5 65.5q0 114 37.5 228.5t96 187 t114.5 72.5zM273 323q-38 6 -100 6q-67 0 -98 -7l-2 -11q-2 -11 -5.5 -29t-6.5 -40t-5 -48.5t-2 -50.5q0 -109 49 -109q46 0 93.5 83t76.5 206z" />
<glyph unicode="&#x3d2;" horiz-adv-x="523" d="M176 666q154 0 136 -251q15 51 44.5 105.5t77 100t93.5 45.5q30 0 45 -6t22 -23q-7 -35 -20.5 -51t-28.5 -16q-7 0 -12 2.5t-7 4t-6 7.5t-5 7q-11 13 -31 13q-43 0 -107.5 -139.5t-95.5 -302.5l-7 -33q-9 -48 -8 -83q1 -7 23 -14.5t30 -7.5q3 -1 1.5 -11t-4.5 -16 q-93 5 -104 5q-1 0 -111 -5q-3 4 -1 15.5t6 11.5q12 0 36 7t29 15q14 33 26 96l14 70q35 164 15.5 288.5t-89.5 124.5q-35 0 -64 -18q-12 3 -12 14q45 45 115 45z" />
<glyph unicode="&#x3d3;" horiz-adv-x="523" d="M176 666q154 0 136 -251q15 51 44.5 105.5t77 100t93.5 45.5q30 0 45 -6t22 -23q-7 -35 -20.5 -51t-28.5 -16q-7 0 -12 2.5t-7 4t-6 7.5t-5 7q-11 13 -31 13q-43 0 -107.5 -139.5t-95.5 -302.5l-7 -33q-9 -48 -8 -83q1 -7 23 -14.5t30 -7.5q3 -1 1.5 -11t-4.5 -16 q-93 5 -104 5q-1 0 -111 -5q-3 4 -1 15.5t6 11.5q12 0 36 7t29 15q14 33 26 96l14 70q35 164 15.5 288.5t-89.5 124.5q-35 0 -64 -18q-12 3 -12 14q45 45 115 45z" />
<glyph unicode="&#x3d4;" horiz-adv-x="523" d="M176 666q154 0 136 -251q15 51 44.5 105.5t77 100t93.5 45.5q30 0 45 -6t22 -23q-7 -35 -20.5 -51t-28.5 -16q-7 0 -12 2.5t-7 4t-6 7.5t-5 7q-11 13 -31 13q-43 0 -107.5 -139.5t-95.5 -302.5l-7 -33q-9 -48 -8 -83q1 -7 23 -14.5t30 -7.5q3 -1 1.5 -11t-4.5 -16 q-93 5 -104 5q-1 0 -111 -5q-3 4 -1 15.5t6 11.5q12 0 36 7t29 15q14 33 26 96l14 70q35 164 15.5 288.5t-89.5 124.5q-35 0 -64 -18q-12 3 -12 14q45 45 115 45zM338 727q-6 0 -10 7q-19 33 -78 108q2 10 15 10l89 -59q75 36 120 59q12 0 10 -10q-94 -73 -132 -108 q-9 -7 -14 -7z" />
<glyph unicode="&#x3d5;" horiz-adv-x="506" d="M225 -12q-9 -53 -15 -118.5t-4 -80.5q-14 -17 -25 -17q-6 0 -27 13t-19 23l35 180q-64 4 -102.5 54.5t-38.5 124.5q0 59 25 118t80 106.5t127 58.5q32 195 30 220q28 23 52 23q20 0 18 -14q-21 -101 -46 -226q148 -14 148 -159q0 -106 -63.5 -197.5t-174.5 -108.5z M249 382q-75 -14 -128.5 -85t-53.5 -145q0 -54 35 -77t83 -23q22 98 36 170q8 40 28 160zM236 57q28 3 60.5 20t63 45t51 72t20.5 93q0 100 -131 100q-25 -115 -33 -157q-13 -65 -31 -173z" />
<glyph unicode="&#x3d6;" horiz-adv-x="501" d="M144 489q-2 4 -2 11t20 29.5t29 27.5q42 21 97 21q97 0 154.5 -82.5t57.5 -205.5q0 -113 -48 -204t-121 -91q-37 0 -58 31t-23 64q-51 -96 -123 -96q-44 0 -68 35t-24 90q0 78 42.5 171.5t104.5 144.5q10 0 23 -13q13 -15 11 -36q-32 -23 -89 -106t-57 -161q0 -66 49 -66 q45 0 75 44.5t42 106.5q10 51 10 69q8 15 18 15q9 0 24.5 -13.5t15.5 -20.5q0 -1 -14.5 -55.5t-14.5 -68.5q0 -25 14 -47t42 -22q34 0 62 30.5t43 73t23 80t8 60.5q0 38 -9.5 73t-30 67t-58 51t-88.5 19q-95 0 -137 -26z" />
<glyph unicode="&#x3d7;" horiz-adv-x="419" d="M386 366q-46 -35 -116 -107q-16 -22 -24 -57t-8 -53q0 -38 13 -60.5t35 -22.5q29 0 59 37q3 0 6.5 -6.5t2.5 -9.5q-25 -80 -95.5 -160.5t-117.5 -80.5q-45 0 -45 64q0 19 3 34q1 5 5.5 9t7.5 4l2 -9q2 -8 5 -14.5t8 -14.5t13.5 -12.5t19.5 -4.5q65 0 129 98 q-20 -8 -30 -8q-27 0 -45 23t-18 73q0 21 9.5 72.5t21.5 71.5q-7 -7 -24.5 -25t-34 -36t-29.5 -34q-60 -92 -92 -123q-18 -18 -29 -18q-7 0 -12.5 14.5t-5.5 31.5q0 15 8 30q6 9 23.5 26t47.5 44.5t54 53.5q17 66 17 107q0 59 -33 59q-25 0 -55 -30q-2 0 -5 5.5t-2 9.5 q16 34 43 60t52 26q37 -2 37 -80q0 -56 -22 -131l89 90q19 32 59.5 78.5t55.5 46.5q11 0 19.5 -16t8.5 -33q0 -3 -4 -11t-7 -11z" />
<glyph unicode="&#x3d8;" horiz-adv-x="665" d="M461 667q121 0 186.5 -97t35.5 -251q-25 -129 -118.5 -222t-205.5 -105q-28 -168 -23 -202q-14 -17 -27 -17q-8 0 -31.5 13t-21.5 23q19 84 40 183q-107 13 -160.5 106t-25.5 239q27 139 130 234.5t221 95.5zM458 627q-64 0 -123 -48.5t-96 -119.5t-53 -150 q-11 -71 -3.5 -133.5t46 -104.5t99.5 -42q95 0 174.5 95t102.5 215q11 73 3 137t-47.5 107.5t-102.5 43.5z" />
<glyph unicode="&#x3d9;" horiz-adv-x="414" d="M78 221q19 98 74.5 157t128.5 59q74 0 109.5 -70.5t17.5 -165.5q-16 -83 -66.5 -141.5t-116.5 -65.5q-26 -172 -20 -205q-14 -17 -26 -17q-6 0 -26.5 13t-18.5 23l39 189q-62 14 -86.5 78.5t-8.5 145.5zM121 189q-14 -70 10 -103t65 -33q59 0 106.5 54t63.5 136 q12 61 -9.5 96.5t-67.5 35.5q-57 0 -105 -55.5t-63 -130.5z" />
<glyph unicode="&#x3da;" horiz-adv-x="565" d="M470 664q42 0 124.5 -8.5t110.5 -8.5q70 0 97 23q5 0 11 -3t6 -6q-1 -5 -19 -26.5t-46 -43.5t-50 -22t-101.5 10t-132.5 10q-35 0 -72 -10t-80 -37t-79.5 -67t-68 -106.5t-47.5 -150.5q-16 -81 16.5 -116t77.5 -35q36 0 116 25t109 25q41 0 57 -24t9 -59 q-15 -75 -81 -129.5t-141 -71.5q-9 0 -16.5 5.5t-5.5 14.5q50 7 108.5 49t67.5 88q10 50 -39 50q-20 0 -89 -23.5t-106 -23.5q-43 0 -71.5 20.5t-39.5 54.5t-12.5 77t8.5 87q20 102 56.5 181.5t76.5 125.5t87 75.5t85 39.5t74 10z" />
<glyph unicode="&#x3db;" horiz-adv-x="482" d="M282 438q39 0 90.5 -8.5t77.5 -8.5q68 0 93 23q4 0 8.5 -3t4.5 -6q-2 -11 -38 -49t-64 -38q-25 0 -80 10t-85 10q-62 0 -118 -59.5t-76 -161.5q-9 -45 12 -62.5t50 -17.5q26 0 72.5 21.5t65.5 21.5q29 0 36.5 -22t2.5 -50q-10 -50 -46 -86.5t-89 -55.5q-4 0 -10.5 4 t-5.5 9q39 14 68.5 42t35.5 57q2 12 -4 20t-20 8q-11 0 -54 -19.5t-74 -19.5q-53 0 -69 44.5t-1 117.5q23 121 90 200t127 79z" />
<glyph unicode="&#x3dc;" horiz-adv-x="420" d="M139 291q15 76 27.5 154t17.5 118l6 40q-7 29 -27 39q2 13 13 19q46 -3 101 -3q50 1 110.5 3t108.5 3q20 -38 35 -80q-2 -3 -4.5 -7.5t-4.5 -6.5t-6 -4q-43 30 -75.5 39.5t-88.5 9.5q-27 0 -91 -8q-3 -13 -10 -53t-18 -99t-19 -100h23q75 0 150 29q7 -6 13.5 -17.5 t10.5 -21.5t9.5 -24t6.5 -17q0 -5 -6 -11t-11 -8q-44 24 -102 24q-70 0 -102 -2q-9 -48 -18 -90q-10 -54 -18.5 -127.5t-6.5 -88.5q-14 -17 -27 -17q-8 0 -31.5 13t-21.5 23q27 124 56 271z" />
<glyph unicode="&#x3dd;" horiz-adv-x="337" d="M93 -211q-14 -17 -25 -17q-6 0 -27 13t-19 23l109 558q7 33 38 56q15 12 80 14q99 3 152 16q15 -4 16 -13q-1 -8 -28.5 -41.5t-38.5 -33.5t-79 5t-89 5q-16 0 -21 -29q-10 -48 -26 -159q56 0 136 20q17 -5 18 -9q-1 -8 -24.5 -34t-36.5 -26q-8 0 -24.5 1t-39.5 2.5 t-35 2.5q-11 -73 -24.5 -205.5t-11.5 -148.5z" />
<glyph unicode="&#x3de;" horiz-adv-x="480" d="M480 377q5 -3 15.5 -9t15.5 -11t9 -14q0 -10 -8 -22q-115 -95 -133 -193q-4 -42 -3 -59.5t8 -41t7 -26.5q-14 -17 -27 -17q-6 0 -29 12t-26 21q-4 10 -5 36.5t3 52.5q15 79 94 162q-75 -44 -152 -44q-66 0 -104.5 40.5t-26.5 106.5q18 95 97 167q93 85 206 125 q12 -4 26 -16.5t19 -25.5q-3 -13 -6 -17q-63 -24 -124.5 -56t-117.5 -80t-64 -92q-8 -40 14.5 -64.5t76.5 -24.5q22 0 44.5 4.5t37 8t41 16.5t34.5 17t40.5 22.5t37.5 21.5z" />
<glyph unicode="&#x3df;" horiz-adv-x="388" d="M104 591q-2 0 -4.5 7t-1.5 12q19 34 50 58t56 24q14 0 19.5 -10.5t3.5 -33.5t-7.5 -48t-16.5 -64l-94 -330l259 166q17 10 25 10t14 -8t3 -21q-2 -9 -22 -78.5t-44.5 -153t-32.5 -110.5q-1 -5 -12 -41.5t-14 -52.5q-12 -66 23 -66q28 0 51 23q4 0 5.5 -7.5t-0.5 -13.5 q-19 -33 -49.5 -56.5t-55.5 -23.5q-9 0 -15 5t-7.5 15.5t-1 23t4 31.5t8 37t11.5 44q4 13 24.5 85t43 149t33.5 118l-279 -183q-6 -2 -8 -2q-8 0 -12.5 12.5t-0.5 31.5q4 18 22.5 81t41 139.5l27.5 93.5q22 73 26 94q13 68 -25 68q-23 0 -48 -25z" />
<glyph unicode="&#x3e0;" horiz-adv-x="691" d="M473 464l-325 -238q-6 1 -14 7t-12 12q-2 5 4 11l326 237q-30 38 -70 66t-82 42t-79.5 23t-75 10.5t-54 1.5t-30.5 -1q-2 5 -1 9q7 22 16 23q25 3 58.5 3.5t97 -8t119 -28.5t112 -68t87.5 -117q32 -70 47.5 -149t15 -140.5t-7 -116t-13.5 -82t-10 -32.5q-6 -10 -17 -10 q-13 0 -27.5 9.5t-18.5 16.5l1 6q2 6 3.5 14.5t4 22t4.5 29t4 35t3.5 40t2 44.5t0 48t-3 51.5t-6.5 53.5l-310 -228q-6 1 -14 7t-12 12q-2 5 4 11l326 237q-7 36 -24 81q-11 27 -29 55z" />
<glyph unicode="&#x3e1;" horiz-adv-x="398" d="M282 112q2 60 -12 104l-242 -117q-11 2 -18 17q-4 8 4 11l246 119q-18 47 -51.5 82t-70 52.5t-57 25t-34.5 9.5v8q5 16 9 16q10 0 29.5 -4.5t51.5 -17t62 -34.5t61 -57.5t48.5 -85t24 -117.5t-12.5 -155q-19 -101 -45 -149q-6 -10 -17 -10q-13 0 -25.5 9.5t-14.5 19.5 q37 83 53 168q8 44 11 70l-244 -117q-11 2 -18 17q-4 8 4 11z" />
<glyph unicode="&#x3e2;" horiz-adv-x="832" d="M270 -227q-77 0 -135.5 22.5t-89.5 56.5q7 7 44 7q68 -41 164 -41q266 0 364 222q-40 -49 -107 -49q-48 0 -79.5 43t-33.5 105q-79 -145 -193 -145q-67 0 -100 48t-33 128q0 122 62.5 272t111.5 192q18 11 55.5 24.5t58.5 13.5q14 0 17 -7q-98 -85 -166.5 -223 t-68.5 -282q0 -132 73 -132q37 0 68 27.5t52 72.5t34.5 88t22.5 90q7 36 19 139t13 121q16 21 48 38.5t42 17.5q30 0 30 -31v-11q-3 -14 -42 -163t-44 -172q-8 -38 -8 -82q0 -57 16.5 -95t53.5 -38q62 0 122 112t60 264q0 33 -3 63.5t-10.5 59t-11 42t-13.5 39.5l-10 27 q36 28 73 28q12 0 20 -3q33 -30 33 -197q0 -99 -20 -196.5t-62 -187.5t-101 -158t-143.5 -109t-182.5 -41z" />
<glyph unicode="&#x3e3;" horiz-adv-x="552" d="M150 -178q-97 0 -142 52q5 5 28 5q40 -25 96 -25q66 0 131.5 42.5t99.5 119.5q-14 -15 -26.5 -19.5t-34.5 -4.5q-30 0 -48 28.5t-19 69.5q-51 -96 -126 -96q-46 0 -71.5 37t-25.5 94q0 65 34.5 150t82.5 134q11 7 37.5 15.5t41.5 8.5q10 0 12 -5q-59 -50 -102 -141 t-43 -184q0 -77 43 -77q23 0 40.5 16t29.5 47t18 54t13 59q5 25 13 86.5t8 70.5q11 14 36.5 27.5t32.5 13.5q24 0 24 -30q-2 -9 -26.5 -95.5t-27.5 -101.5q-6 -28 -6 -66q0 -79 36 -79q39 0 75.5 71t36.5 175q0 20 -1.5 38t-5.5 34t-6 24.5t-7.5 23.5t-5.5 16q25 21 61 21 q8 0 11 -1q22 -54 22 -120q0 -58 -14.5 -133t-39.5 -135q-41 -95 -116.5 -157.5t-168.5 -62.5z" />
<glyph unicode="&#x3e4;" horiz-adv-x="513" d="M368 543q11 56 9 74q-1 7 -24 11.5t-37 4.5q-2 4 0 14.5t6 14.5q95 -5 109 -5q12 0 110 5q3 -4 0.5 -14.5t-6.5 -14.5q-14 0 -39 -4.5t-28 -11.5q-7 -14 -19 -74l-83 -427q-12 -59 -10 -74q1 -7 24 -11.5t37 -4.5q2 -4 0 -14.5t-6 -14.5q-95 5 -107 5q-14 0 -111 -5 q-3 4 -1 14.5t6 14.5q14 0 39.5 4.5t28.5 11.5q7 14 19 74l32 165q-40 -27 -94 -27q-71 0 -118.5 41t-47.5 127q0 105 62 193q15 13 49 29.5t49 16.5q7 0 7 -7q-88 -102 -88 -234q0 -66 28.5 -100t71.5 -34q30 0 60 18.5t37 57.5z" />
<glyph unicode="&#x3e5;" horiz-adv-x="365" d="M271 74q0 -25 10 -25q5 0 12.5 4t14.5 10t15 14t13.5 14t9.5 11l5 5q2 0 6 -7.5t4 -11.5q-12 -21 -56 -57.5t-75 -36.5q-16 0 -25 14.5t-9 37.5q0 16 7 53l18 89q-35 -24 -77 -24q-56 0 -89 40t-18 116q7 44 27 76q12 11 48 26t41 6q-33 -36 -47 -107q-23 -122 62 -122 q20 0 40 10t23 26q23 118 37 194q13 4 31 4q23 0 39 -4l-62 -323q-5 -20 -5 -32z" />
<glyph unicode="&#x3e6;" horiz-adv-x="564" d="M522 230q0 -121 -71 -225t-198 -154q-103 -41 -225 -41q-12 0 15 19q28 17 52 24q83 -5 150.5 26.5t109 88t63.5 128t22 148.5q0 145 -116 145q-36 0 -77 -30t-53 -63l-35 -180q-12 -59 -10 -74q1 -7 24 -11.5t37 -4.5q2 -4 0 -14.5t-6 -14.5q-95 5 -107 5q-13 0 -111 -5 q-3 4 -1 14.5t6 14.5q14 0 39.5 4.5t28.5 11.5q7 14 19 74l83 427q11 56 9 74q-1 7 -24 11.5t-37 4.5q-2 4 0 14.5t6 14.5q95 -5 109 -5q12 0 110 5q3 -4 0.5 -14.5t-6.5 -14.5q-14 0 -39 -4.5t-28 -11.5q-7 -14 -19 -74l-38 -192q23 32 66 55t84 23q76 0 122 -55.5 t46 -143.5z" />
<glyph unicode="&#x3e7;" horiz-adv-x="519" d="M217 -9q-41 0 -78.5 11t-58.5 11t-49.5 -16.5t-33.5 -16.5q-11 0 13 26q41 43 74 43q24 0 61 -9t62 -9q34 0 60.5 26t40 63.5t20 70.5t6.5 55q0 41 -11 73q-84 -98 -170 -98q-20 0 -34 8t-21 21.5t-7 31.5q0 57 49 107t113 50q40 0 72 -18q10 22 18 43q27 20 69.5 40 t49.5 11q-15 -22 -45.5 -67t-45.5 -67q37 -49 37 -120q0 -103 -54 -186.5t-137 -83.5zM296 363q-25 25 -62 25q-42 0 -77 -33.5t-33 -66.5q3 -38 35 -38q71 0 137 113z" />
<glyph unicode="&#x3e8;" horiz-adv-x="493" d="M429 550q0 33 -21.5 49.5t-57.5 16.5q-48 0 -110.5 -45t-111.5 -101q-7 0 -12 5.5t-4 9.5q2 10 24 60t37 65q22 19 69.5 37.5t98.5 18.5q62 0 102.5 -46t40.5 -113q0 -55 -37.5 -105.5t-89.5 -84t-113.5 -60t-103.5 -39t-66 -16.5q-14 -70 17 -118t109 -48 q60 0 117.5 48.5t86.5 106.5q6 13 18 9q5 -2 4 -7q-17 -81 -54 -148q-61 -54 -170 -54q-88 0 -139.5 56.5t-34.5 146.5q5 25 17.5 48.5t19.5 29.5q1 1 41 15.5t92 38.5t105 56t89.5 77t36.5 91z" />
<glyph unicode="&#x3e9;" horiz-adv-x="326" d="M45 121q-8 -39 13 -62.5t56 -23.5q36 0 71 29.5t52 66.5q4 3 8 4t6 -1t2 -5q-10 -53 -36 -99q-15 -14 -23 -19.5t-27 -12t-45 -6.5q-55 0 -89.5 37t-22.5 95q3 17 13 36.5t18 27.5q1 0 24 9t53 23t60.5 33t51.5 45.5t21 54.5q0 19 -11.5 31t-31.5 12q-54 0 -133 -97 q-4 0 -7.5 4t-2.5 6q3 13 16.5 50t22.5 47q11 11 43 21.5t59 10.5q41 0 64.5 -29.5t23.5 -68.5q0 -48 -33 -90.5t-79 -69t-82 -41t-55 -18.5z" />
<glyph unicode="&#x3ea;" horiz-adv-x="534" d="M400 63l-104 323q-1 1 -24.5 -32t-56 -80.5t-65 -95.5t-55.5 -82l-23 -33h328zM282 428l-32 102q-29 92 -73 92q-21 0 -35 -10q-3 1 -6.5 5.5t-2.5 8.5q10 12 33.5 23.5t38.5 11.5q49 0 79.5 -37t55.5 -115q20 32 35 52t39 47t50 41t54 14q39 0 52 -23q2 -26 -12.5 -49.5 t-32.5 -23.5q-22 0 -31 21q0 1 -1.5 4l-2 4t-1.5 3.5t-2 3.5t-2.5 3t-3.5 2.5t-4 1.5t-5 1.5t-6 0.5q-16 0 -38.5 -30t-68.5 -102q-4 -7 -6 -10q133 -404 145 -456q-3 -14 -9 -14h-485q-2 0 -3.5 6.5t-0.5 9.5z" />
<glyph unicode="&#x3eb;" horiz-adv-x="399" d="M245 46l-72 205l-141 -205h213zM130 435q30 0 47.5 -18.5t33.5 -67.5q61 87 121 87q21 0 33 -18q3 -23 -11 -44.5t-27 -21.5q-3 0 -6 0.5t-5 1.5l-4 2t-3.5 2.5t-2 3t-1.5 3.5l-1.5 3l-1.5 3t-1 3q-5 14 -16 14q-7 0 -26.5 -21.5t-37.5 -48.5q20 -54 62 -172.5t46 -136.5 q-3 -9 -5 -9h-346q-1 0 -2 4.5t0 6.5q136 197 188 273l-24 68q-17 51 -35 51q-15 0 -32 -11q-3 1 -6 5.5t-2 9.5q31 28 65 28z" />
<glyph unicode="&#x3ec;" horiz-adv-x="716" d="M296 -6q-109 0 -175.5 64t-66.5 181q0 110 57 210t147 159.5t185 59.5q38 0 90 -3t89 -6t40 -3q53 0 88 19q13 -3 14 -10q-2 -13 -24 -44t-49 -31q-21 0 -68.5 20t-111.5 20q-155 0 -261.5 -116t-106.5 -276q0 -91 40.5 -150t119.5 -59q76 0 139 49.5t95.5 120 t32.5 141.5q0 60 -28 98.5t-80 38.5q-39 0 -48 -3q-6 2 -4 10q2 9 38.5 23t51.5 14q22 0 47.5 -10t50 -30.5t41 -57t16.5 -83.5q0 -94 -52.5 -175t-135 -126t-171.5 -45z" />
<glyph unicode="&#x3ed;" horiz-adv-x="454" d="M183 -6q-64 0 -108.5 41.5t-44.5 112.5q0 52 28 117.5t83.5 118.5t120.5 53q26 0 61 -6.5t64 -6.5q62 0 99 21q10 -3 12 -14q-2 -11 -26.5 -38.5t-48.5 -27.5q-28 0 -78.5 19t-74.5 19q-64 0 -114 -79t-50 -177q0 -55 23 -87t62 -32q40 0 70.5 30.5t44 69.5t13.5 75 q0 38 -15.5 64t-40.5 26q-30 0 -46 -8q-5 5 -4 10q1 7 29 20t42 13q48 0 79 -29t31 -86q0 -84 -59.5 -151.5t-151.5 -67.5z" />
<glyph unicode="&#x3ee;" horiz-adv-x="583" d="M373 657q11 0 109 5q3 -4 1 -14.5t-6 -14.5q-14 0 -39.5 -4.5t-28.5 -11.5q-7 -14 -19 -74l-7 -36h128q28 0 58 15q12 6 19 2q-10 -122 -10 -172q-8 -8 -19 -7q-10 0 -12 5q1 55 -15.5 88.5t-49.5 33.5h-105l-70 -356q-11 -56 -9 -74q1 -7 24 -11.5t37 -4.5q2 -4 0 -14.5 t-6 -14.5q-95 5 -108 5t-111 -5q-3 4 -0.5 14.5t6.5 14.5q14 0 39 4.5t28 11.5q7 14 19 74l70 356h-105q-33 0 -62.5 -33.5t-50.5 -88.5q-3 -5 -14 -5q-11 -1 -17 7q28 72 58 172q9 4 21 -3q23 -14 49 -14h127l7 36q12 59 10 74q-1 7 -24 11.5t-37 4.5q-2 4 0 14.5t6 14.5 q95 -5 109 -5z" />
<glyph unicode="&#x3ef;" horiz-adv-x="389" d="M268 429q-2 -12 -12.5 -59t-12.5 -58h49q28 0 48 10q11 5 15 2q-8 -85 -8 -149q-7 -7 -17 -6q-9 0 -10 4q2 106 -54 106h-29l-54 -279h-69l54 279h-29q-54 0 -94 -106q-3 -4 -13 -4q-9 -1 -14 6q22 56 50 149q9 5 18 -2q16 -10 41 -10h48q17 83 23 117q13 4 31 4 q23 0 39 -4z" />
<glyph unicode="&#x3f0;" horiz-adv-x="421" d="M348 50q-38 -54 -88 -54q-29 0 -53 39.5t-35.5 81t-16.5 78.5q0 -1 -2.5 -4.5t-4 -6.5t-1.5 -4q-5 -19 -7 -32q-12 -62 -34 -134q-15 -20 -26 -20q-8 0 -25 14t-15 23q4 21 59 149l24 61q13 61 7.5 91t-34.5 30q-28 0 -55 -30q-3 0 -5.5 8t-1.5 13q15 34 42.5 57t53.5 23 q27 -1 28.5 -54t-6.5 -101q32 58 87.5 108t97.5 50q14 0 42.5 -13t26.5 -24q0 -1 -1.5 -6.5t-2.5 -6.5q-66 0 -124 -46.5t-100 -111.5q9 -57 47 -111.5t78 -54.5q23 0 48 15q1 0 1 -5t-1 -11.5t-3 -10.5z" />
<glyph unicode="&#x3f1;" horiz-adv-x="380" d="M58 50q-5 -57 -5 -121q0 -71 71 -86q29 -7 44 -14q8 -5 16.5 -20.5t8.5 -30.5q0 -4 -3.5 -7.5t-5.5 -3.5q-8 2 -79 24q-86 27 -86 172q0 88 15 167q60 305 207 305q48 0 73 -36.5t25 -75.5q0 -62 -26.5 -136.5t-79 -132.5t-113.5 -58q-25 0 -42 16.5t-20 37.5zM300 328 q0 47 -53 47q-49 0 -95 -67.5t-80 -198.5q-1 -4 -1 -12q0 -17 9.5 -30t26.5 -13q34 0 79.5 39t79.5 105t34 130z" />
<glyph unicode="&#x3f2;" horiz-adv-x="373" d="M68 133q0 -40 24.5 -57.5t57.5 -17.5q37 0 64.5 15t62.5 46q6 0 4 -7q-5 -25 -12 -36q-22 -31 -59.5 -56t-72.5 -25q-109 0 -109 134q0 72 32.5 144t85 118t106.5 46q39 0 63.5 -18t33.5 -35q2 -8 -1 -19.5t-7 -14.5q-25 25 -71 25q-43 0 -91 -40t-79.5 -97t-31.5 -105z " />
<glyph unicode="&#x3f3;" horiz-adv-x="247" d="M117 323q4 24 4 32q0 25 -10 25q-5 0 -12.5 -4t-14.5 -10t-15 -14t-13.5 -14t-9.5 -11l-5 -5q-2 0 -6 7.5t-4 11.5q13 22 54 58t72 36q16 0 27.5 -15t11.5 -37q0 -16 -7 -53l-55 -285q-20 -101 -71 -169q-29 -38 -69 -68.5t-70 -42.5q-9 7 -9 20q50 29 88 91.5t54 145.5z M185 646q15 0 25.5 -12t10.5 -28q0 -24 -15.5 -42t-38.5 -18q-16 0 -25 12.5t-9 30.5q0 23 15 40t37 17z" />
<glyph unicode="&#x3f4;" horiz-adv-x="663" d="M409 667q120 0 183.5 -96.5t33.5 -251.5q-27 -139 -129 -234t-220 -95q-120 0 -182 94t-31 253q27 140 127 235t218 95zM134 306q-11 -45 -6 -94.5t20 -91t48.5 -68t79.5 -26.5q90 0 165 85.5t106 204.5q-170 -1 -413 -10zM143 345h411q11 46 5 96.5t-21.5 92.5t-50.5 69 t-81 27q-89 0 -159.5 -83t-103.5 -202z" />
<glyph unicode="&#x3f5;" horiz-adv-x="369" d="M65 133q0 -40 24.5 -57.5t57.5 -17.5q37 0 64.5 15t62.5 46q6 0 4 -7q-5 -25 -12 -36q-22 -31 -59.5 -56t-72.5 -25q-106 0 -106 134q0 112 69.5 210t151.5 98q39 0 63.5 -18t33.5 -35q2 -8 -1 -19.5t-7 -14.5q-25 25 -71 25q-44 0 -92 -41.5t-80 -99.5q103 4 163 20 q17 -5 18 -9q-1 -8 -24.5 -34t-36.5 -26q-8 0 -33.5 2.5t-57 6t-46.5 4.5q-13 -37 -13 -65z" />
<glyph unicode="&#x3f6;" horiz-adv-x="371" d="M286 299q0 40 -24.5 57.5t-57.5 17.5q-37 0 -64.5 -15t-62.5 -46q-6 0 -4 7q5 25 12 36q22 31 59.5 56t72.5 25q106 0 106 -134q0 -112 -69.5 -210t-151.5 -98q-39 0 -63.5 18t-33.5 35q-2 8 1 19.5t7 14.5q25 -25 71 -25q45 0 94.5 43.5t80.5 103.5q-117 -4 -182 -20 q-18 5 -19 9q1 8 26 34t39 26q10 0 71 -6.5t80 -7.5q12 36 12 60z" />
<glyph unicode="&#x3f7;" horiz-adv-x="508" d="M236 458l-66 -342q-12 -59 -10 -74q1 -7 24 -11.5t37 -4.5q2 -4 0 -14.5t-6 -14.5q-95 5 -107 5q-14 0 -111 -5q-3 4 -1 14.5t6 14.5q14 0 39.5 4.5t28.5 11.5q7 14 19 74l83 427q11 56 9 74q-1 7 -24 11.5t-37 4.5q-2 4 0 14.5t6 14.5q95 -5 109 -5q13 0 110 5 q3 -4 0.5 -14.5t-6.5 -14.5q-14 0 -39 -4.5t-28 -11.5q-7 -14 -19 -74l-9 -43q28 11 71 11q80 0 130.5 -41.5t50.5 -109.5q0 -94 -70 -160t-163 -66q-33 0 -45 10q-8 8 -8 16q0 2 4 4q8 -4 33 -4q59 0 109.5 53t50.5 133q0 136 -116 136q-51 0 -55 -24z" />
<glyph unicode="&#x3f8;" horiz-adv-x="417" d="M174 -6q-40 0 -68 23.5t-37 49.5q-14 -73 -22.5 -166t-5.5 -112q-14 -17 -25 -17q-6 0 -27 13t-19 23q82 417 87 444q17 91 33.5 190.5t25 160t7.5 67.5q28 23 51 23q21 0 19 -14l-61 -293q49 51 104 51q65 0 102.5 -48.5t37.5 -124.5q0 -39 -13.5 -84t-37.5 -87.5 t-64 -70.5t-87 -28zM163 56q66 0 117 73t51 157q0 50 -25 69.5t-59 19.5q-60 0 -102.5 -63t-58.5 -148q-5 -20 -5 -44t20 -44t62 -20z" />
<glyph unicode="&#x3f9;" horiz-adv-x="627" d="M148 258q0 -100 50 -165t150 -65q112 0 202 71q5 -3 4 -9q-1 -8 -21 -31t-28 -28q-85 -37 -197 -37q-117 0 -185.5 73t-68.5 186q0 66 27.5 137.5t76 133.5t123.5 102.5t161 40.5q107 0 194 -21q-4 -112 -4 -122q0 -9 -20 -9q-5 0 -9 1q0 14 -2 25t-11 30t-25 31.5 t-48 22t-76 9.5q-108 0 -200.5 -111.5t-92.5 -264.5z" />
<glyph unicode="&#x3fa;" horiz-adv-x="609" d="M613 467q-24 -220 -27 -250q-6 -56 -8.5 -125.5t0.5 -88.5q-14 -19 -25 -20q-3 -1 -17.5 5t-28 14.5t-12.5 15.5q6 42 20.5 142.5t24.5 184.5q16 147 18 205q-17 -39 -37.5 -81.5t-47.5 -92.5t-41 -76t-46 -81.5t-34 -59.5t-6 -8t-7 -6l-3 -2q-59 2 -75 24 q-14 40 -67 190q-11 30 -25.5 83.5t-16.5 59.5q-62 -236 -65 -249q-38 -165 -34 -257q-9 -14 -18 -16q-15 5 -33.5 17.5t-22.5 28.5q13 41 25.5 80.5t23.5 81.5t19 72.5t18 75t15 66t14.5 68.5t12 59t12 61.5t10.5 53.5q1 5 8 14.5t12 9.5q15 0 44 -37q23 -102 63 -221 q55 -164 75 -208q140 225 227 435q4 9 12 18.5t12 9.5q12 0 31 -14t21 -23q0 -3 -3.5 -28t-9 -65t-8.5 -66z" />
<glyph unicode="&#x3fb;" horiz-adv-x="536" d="M454 -2q-11 0 -18.5 43.5t-8.5 89.5q-1 84 7 167q-16 -50 -49.5 -113t-68.5 -100q-7 0 -19.5 10t-17.5 23q-23 55 -23 202q-26 -112 -84.5 -234.5t-122.5 -187.5q-6 -6 -17 -6q-7 0 -20 14t-12 23q134 136 202 352q10 33 19.5 68.5t15 56t7.5 25.5q4 11 25 -12 q14 -17 16 -29q0 -10 -2 -34q-6 -109 17 -200q30 38 68 119t64 153q3 4 12.5 -5.5t17.5 -23.5t7 -20q-6 -36 -8 -50q-11 -84 -4 -173q6 -69 29 -98q4 -5 -10.5 -32.5t-21.5 -27.5z" />
<glyph unicode="&#x3fc;" d="M-69 -50h229q5 0 3 -8q-2 -12 -11 -26h-230q-2 0 -2.5 4t0.5 7q3 14 11 23zM312 328q0 47 -53 47q-49 0 -95 -67.5t-80 -198.5q-1 -4 -1 -12q0 -17 9.5 -30t26.5 -13q34 0 79.5 39t79.5 105t34 130zM351 323q0 -62 -26.5 -136.5t-79 -132.5t-113.5 -58q-25 0 -42 16.5 t-20 37.5q-63 -247 -152 -247q-20 0 -36.5 22.5t-20.5 50.5q0 17 9 24q17 -21 50 -21q49 0 76 61.5t50 189.5q30 164 85.5 234.5t121.5 70.5q48 0 73 -36.5t25 -75.5z" />
<glyph unicode="&#x3fd;" horiz-adv-x="630" d="M602 407q0 -109 -58 -205.5t-146.5 -152t-180.5 -55.5q-111 0 -182 37q-6 5 -16.5 28t-9.5 31q1 6 7 9q63 -71 184 -71q124 0 215 110.5t91 262.5q0 101 -46.5 167t-129.5 66q-54 0 -94 -12.5t-62.5 -35.5t-31 -36.5t-17.5 -33.5q-4 -1 -9 -1t-11.5 2.5t-5.5 6.5l44 122 q95 21 201 21q119 0 188.5 -72.5t69.5 -187.5z" />
<glyph unicode="&#x3fe;" horiz-adv-x="625" d="M383 322q5 26 22 42t40 16q22 0 35 -16t8 -41q-5 -23 -23 -39t-40 -16q-23 0 -34.5 15.5t-7.5 38.5zM148 258q0 -100 50 -165t150 -65q112 0 202 71q5 -3 4 -9q-1 -8 -21 -31t-28 -28q-85 -37 -197 -37q-117 0 -185.5 73t-68.5 186q0 66 27.5 137.5t76 133.5t123.5 102.5 t161 40.5q107 0 194 -21q-4 -112 -4 -122q0 -9 -20 -9q-5 0 -9 1q0 14 -2 25t-11 30t-25 31.5t-48 22t-76 9.5q-108 0 -200.5 -111.5t-92.5 -264.5z" />
<glyph unicode="&#x3ff;" horiz-adv-x="628" d="M270 322q5 26 22 42t40 16q22 0 34.5 -16t7.5 -41q-5 -23 -22.5 -39t-39.5 -16q-23 0 -34.5 15.5t-7.5 38.5zM600 407q0 -109 -58 -205.5t-146.5 -152t-180.5 -55.5q-111 0 -182 37q-6 5 -16.5 28t-9.5 31q1 6 7 9q63 -71 184 -71q124 0 215 110.5t91 262.5 q0 101 -46.5 167t-129.5 66q-54 0 -94 -12.5t-62.5 -35.5t-31 -36.5t-17.5 -33.5q-4 -1 -9 -1t-11.5 2.5t-5.5 6.5l44 122q95 21 201 21q119 0 188.5 -72.5t69.5 -187.5z" />
<glyph unicode="&#x2000;" horiz-adv-x="469" />
<glyph unicode="&#x2001;" horiz-adv-x="939" />
<glyph unicode="&#x2002;" horiz-adv-x="469" />
<glyph unicode="&#x2003;" horiz-adv-x="939" />
<glyph unicode="&#x2004;" horiz-adv-x="313" />
<glyph unicode="&#x2005;" horiz-adv-x="234" />
<glyph unicode="&#x2006;" horiz-adv-x="156" />
<glyph unicode="&#x2007;" horiz-adv-x="156" />
<glyph unicode="&#x2008;" horiz-adv-x="117" />
<glyph unicode="&#x2009;" horiz-adv-x="187" />
<glyph unicode="&#x200a;" horiz-adv-x="52" />
<glyph unicode="&#x202f;" horiz-adv-x="187" />
<glyph unicode="&#x205f;" horiz-adv-x="234" />
<glyph unicode="&#x25fc;" horiz-adv-x="435" d="M0 435h435v-435h-435v435z" />
</font>
</defs>
</svg>
