<?xml version="1.0" standalone="no"?>
<!DOCTYPE svg PUBLIC "-//W3C//DTD SVG 1.1//EN" "http://www.w3.org/Graphics/SVG/1.1/DTD/svg11.dtd" >
<svg xmlns="http://www.w3.org/2000/svg" xmlns:xlink="http://www.w3.org/1999/xlink" version="1.1">
<metadata></metadata>
<defs>
<font id="crimsonitalic" horiz-adv-x="449" >
<font-face units-per-em="1024" ascent="742" descent="-282" />
<missing-glyph horiz-adv-x="227" />
<glyph horiz-adv-x="0" />
<glyph horiz-adv-x="341" />
<glyph unicode=" "  horiz-adv-x="227" />
<glyph unicode="&#x09;" horiz-adv-x="227" />
<glyph unicode="&#xa0;" horiz-adv-x="227" />
<glyph unicode="&#x102;" horiz-adv-x="586" d="M341 26q57 0 57 31q0 30 -3 49l-22 150h-199q-48 -87 -71 -131q-29 -56 -29 -75q0 -13 23 -18.5t39 -5.5q1 -2 -0.5 -13t-3.5 -16q-13 1 -28.5 2t-29 2t-31.5 1q-19 0 -33.5 -1t-31.5 -2t-33 -2q-1 2 1 13t5 16q11 0 30 5t27 14q25 27 62 94l276 495q6 11 19.5 20t20.5 9 q2 0 5 -3l86 -534q2 -14 5 -32t4.5 -26t1.5 -10q3 -13 18 -21t26 -9.5t19 -1.5q2 -6 0.5 -16t-3.5 -13q-92 5 -109 5q-19 0 -34.5 -1t-34.5 -2t-35 -2q-3 4 -1 14.5t7 14.5zM192 289h175l-38 246zM509 838q0 -6 -2 -10q-15 -41 -49 -70.5t-71 -29.5t-60 29t-21 72v5l1 3 q3 5 10 8.5t12 0.5q1 -32 19.5 -52t47.5 -20t55 20t40 52q3 3 9.5 0t8.5 -8z" />
<glyph unicode="&#x103;" d="M305 435q43 0 78 -13l-61 -316q-14 -57 6 -57q5 0 12.5 4t14.5 10t15 14t13.5 14t10.5 11l4 5q2 0 6 -7.5t4 -11.5q-12 -21 -56 -57.5t-75 -36.5q-16 0 -25 14.5t-9 37.5q0 16 7 53q4 24 5 31q-23 -42 -66 -88.5t-81 -46.5q-40 0 -64.5 32.5t-24.5 85.5q0 63 27.5 123.5 t69.5 103t93 69t96 26.5zM259 395q-58 0 -112 -79t-54 -165q0 -98 51 -98q36 0 80.5 73t59.5 148l21 106q-13 15 -46 15zM399 606q0 -6 -2 -10q-15 -41 -49 -70.5t-71 -29.5t-60 29t-21 72v5l1 3q3 5 10 8.5t12 0.5q1 -32 19.5 -52t47.5 -20t55 20t40 52q3 3 9.5 0t8.5 -8z " />
<glyph unicode="&#x1ea0;" horiz-adv-x="586" d="M178 -114q4 21 20 35.5t36 14.5q19 0 30 -14.5t7 -35.5t-20 -35.5t-36 -14.5q-19 0 -30 14.5t-7 35.5zM341 26q57 0 57 31q0 30 -3 49l-22 150h-199q-48 -87 -71 -131q-29 -56 -29 -75q0 -13 23 -18.5t39 -5.5q1 -2 -0.5 -13t-3.5 -16q-13 1 -28.5 2t-29 2t-31.5 1 q-19 0 -33.5 -1t-31.5 -2t-33 -2q-1 2 1 13t5 16q11 0 30 5t27 14q25 27 62 94l276 495q6 11 19.5 20t20.5 9q2 0 5 -3l86 -534q2 -14 5 -32t4.5 -26t1.5 -10q3 -13 18 -21t26 -9.5t19 -1.5q2 -6 0.5 -16t-3.5 -13q-92 5 -109 5q-19 0 -34.5 -1t-34.5 -2t-35 -2 q-3 4 -1 14.5t7 14.5zM192 289h175l-38 246z" />
<glyph unicode="&#x1ea1;" d="M124 -117q4 21 20 35.5t36 14.5q19 0 30 -14.5t7 -35.5t-20.5 -35.5t-36.5 -14.5q-19 0 -29.5 14.5t-6.5 35.5zM305 435q43 0 78 -13l-61 -316q-14 -57 6 -57q5 0 12.5 4t14.5 10t15 14t13.5 14t10.5 11l4 5q2 0 6 -7.5t4 -11.5q-12 -21 -56 -57.5t-75 -36.5 q-16 0 -25 14.5t-9 37.5q0 16 7 53q4 24 5 31q-23 -42 -66 -88.5t-81 -46.5q-40 0 -64.5 32.5t-24.5 85.5q0 63 27.5 123.5t69.5 103t93 69t96 26.5zM259 395q-58 0 -112 -79t-54 -165q0 -98 51 -98q36 0 80.5 73t59.5 148l21 106q-13 15 -46 15z" />
<glyph unicode="&#x1ea2;" horiz-adv-x="586" d="M394 811q-32 0 -45 -18q-7 2 -7 11q0 13 24.5 28t48.5 15q30 0 49 -15t19 -33q0 -38 -63 -60q-20 -7 -20 -15q0 -10 6 -19q-9 -9 -21 -9q-21 7 -21 30q0 16 38 32q34 13 34 28q0 25 -42 25zM341 26q57 0 57 31q0 30 -3 49l-22 150h-199q-48 -87 -71 -131q-29 -56 -29 -75 q0 -13 23 -18.5t39 -5.5q1 -2 -0.5 -13t-3.5 -16q-13 1 -28.5 2t-29 2t-31.5 1q-19 0 -33.5 -1t-31.5 -2t-33 -2q-1 2 1 13t5 16q11 0 30 5t27 14q25 27 62 94l276 495q6 11 19.5 20t20.5 9q2 0 5 -3l86 -534q2 -14 5 -32t4.5 -26t1.5 -10q3 -13 18 -21t26 -9.5t19 -1.5 q2 -6 0.5 -16t-3.5 -13q-92 5 -109 5q-19 0 -34.5 -1t-34.5 -2t-35 -2q-3 4 -1 14.5t7 14.5zM192 289h175l-38 246z" />
<glyph unicode="&#x1ea3;" d="M297 616q-13 0 -24.5 -6t-15.5 -11q-6 2 -6 11q0 12 22 26.5t43 14.5q28 0 45.5 -14.5t17.5 -37.5q0 -8 -2.5 -15t-8 -13t-9.5 -10t-13 -8.5t-12 -6.5t-13 -6l-10 -4q-14 -6 -14 -17q0 -7 5 -15q-8 -8 -19 -8q-18 7 -18 28q0 4 1.5 7.5t3.5 6t6.5 5.5t6.5 4t8.5 3.5 t7.5 3.5q18 8 26.5 15t8.5 19q0 13 -11.5 20.5t-25.5 7.5zM305 435q43 0 78 -13l-61 -316q-14 -57 6 -57q5 0 12.5 4t14.5 10t15 14t13.5 14t10.5 11l4 5q2 0 6 -7.5t4 -11.5q-12 -21 -56 -57.5t-75 -36.5q-16 0 -25 14.5t-9 37.5q0 16 7 53q4 24 5 31q-23 -42 -66 -88.5 t-81 -46.5q-40 0 -64.5 32.5t-24.5 85.5q0 63 27.5 123.5t69.5 103t93 69t96 26.5zM259 395q-58 0 -112 -79t-54 -165q0 -98 51 -98q36 0 80.5 73t59.5 148l21 106q-13 15 -46 15z" />
<glyph unicode="&#x1ea4;" horiz-adv-x="586" d="M482 763q-1 0 -3 4t-2 6q0 5 34 42t49 49q6 5 22 5t26.5 -6.5t10.5 -14.5q0 -17 -62 -51t-75 -34zM414 819q6 0 10 -7q34 -55 78 -108q-2 -10 -15 -10l-89 59q-72 -35 -120 -59q-12 0 -10 10q70 53 132 108q9 7 14 7zM342 26q57 0 57 31q0 30 -3 49l-22 150h-199 q-48 -87 -71 -131q-29 -56 -29 -75q0 -13 23 -18.5t39 -5.5q1 -2 -0.5 -13t-3.5 -16q-13 1 -28.5 2t-29 2t-31.5 1q-19 0 -33.5 -1t-31.5 -2t-33 -2q-1 2 1 13t5 16q11 0 30 5t27 14q25 27 62 94l276 495q6 11 19.5 20t20.5 9q2 0 5 -3l86 -534q2 -14 5 -32t4.5 -26t1.5 -10 q3 -13 18 -21t26 -9.5t19 -1.5q2 -6 0.5 -16t-3.5 -13q-93 5 -109 5q-19 0 -34.5 -1t-34.5 -2t-35 -2q-3 4 -1 14.5t7 14.5zM193 289h175l-38 246z" />
<glyph unicode="&#x1ea5;" d="M305 435q43 0 78 -13l-61 -316q-14 -57 6 -57q5 0 12.5 4t14.5 10t15 14t13.5 14t10.5 11l4 5q2 0 6 -7.5t4 -11.5q-12 -21 -56 -57.5t-75 -36.5q-16 0 -25 14.5t-9 37.5q0 16 7 53q4 24 5 31q-23 -42 -66 -88.5t-81 -46.5q-40 0 -64.5 32.5t-24.5 85.5q0 63 27.5 123.5 t69.5 103t93 69t96 26.5zM259 395q-58 0 -112 -79t-54 -165q0 -98 51 -98q36 0 80.5 73t59.5 148l21 106q-13 15 -46 15zM287 629q5 0 9 -8q32 -60 68 -116q-2 -11 -13 -11l-78 64q-66 -39 -105 -64q-4 0 -7 3.5t-2 7.5q71 68 116 116q8 8 12 8zM357 587q-2 0 -4.5 3.5 t-2.5 5.5q0 3 18.5 25.5t39 45t25.5 26.5q13 8 33 8q11 0 22.5 -6t11.5 -20q0 -7 -33 -29t-68 -40.5t-42 -18.5z" />
<glyph unicode="&#x1ea6;" horiz-adv-x="586" d="M305 743q-7 0 -40 16t-65 36.5t-32 32.5q0 8 10.5 14.5t27.5 6.5q15 0 21 -5q9 -7 29 -28t37 -40.5t17 -22.5q0 -1 -1 -3.5t-2.5 -4.5zM414 819q6 0 10 -7q34 -55 78 -108q-2 -10 -15 -10l-89 59q-72 -35 -120 -59q-12 0 -10 10q70 53 132 108q9 7 14 7zM342 26 q57 0 57 31q0 30 -3 49l-22 150h-199q-48 -87 -71 -131q-29 -56 -29 -75q0 -13 23 -18.5t39 -5.5q1 -2 -0.5 -13t-3.5 -16q-13 1 -28.5 2t-29 2t-31.5 1q-19 0 -33.5 -1t-31.5 -2t-33 -2q-1 2 1 13t5 16q11 0 30 5t27 14q25 27 62 94l276 495q6 11 19.5 20t20.5 9q2 0 5 -3 l86 -534q2 -14 5 -32t4.5 -26t1.5 -10q3 -13 18 -21t26 -9.5t19 -1.5q2 -6 0.5 -16t-3.5 -13q-93 5 -109 5q-19 0 -34.5 -1t-34.5 -2t-35 -2q-3 4 -1 14.5t7 14.5zM193 289h175l-38 246z" />
<glyph unicode="&#x1ea7;" d="M174 554q-11 0 -76.5 38.5t-65.5 49.5q0 14 11.5 20t22.5 6q20 0 33 -8q4 -3 17.5 -17.5t28 -31.5t25.5 -31t11 -17q0 -2 -2.5 -5.5t-4.5 -3.5zM305 435q43 0 78 -13l-61 -316q-14 -57 6 -57q5 0 12.5 4t14.5 10t15 14t13.5 14t10.5 11l4 5q2 0 6 -7.5t4 -11.5 q-12 -21 -56 -57.5t-75 -36.5q-16 0 -25 14.5t-9 37.5q0 16 7 53q4 24 5 31q-23 -42 -66 -88.5t-81 -46.5q-40 0 -64.5 32.5t-24.5 85.5q0 63 27.5 123.5t69.5 103t93 69t96 26.5zM259 395q-58 0 -112 -79t-54 -165q0 -98 51 -98q36 0 80.5 73t59.5 148l21 106 q-13 15 -46 15zM287 629q5 0 9 -8q32 -60 68 -116q-2 -11 -13 -11l-78 64q-66 -39 -105 -64q-4 0 -7 3.5t-2 7.5q71 68 116 116q8 8 12 8z" />
<glyph unicode="&#x1ea8;" horiz-adv-x="586" d="M519 830q-14 0 -26.5 -5.5t-16.5 -11.5q-7 3 -7 10q0 12 23.5 26t45.5 14q29 0 47 -13.5t18 -30.5q0 -35 -60 -55q-19 -6 -19 -13q0 -9 6 -18q-9 -8 -20 -8q-6 2 -13 9t-7 18q0 15 36 30q32 12 32 25q0 23 -39 23zM342 26q57 0 57 31q0 30 -3 49l-22 150h-199 q-48 -87 -71 -131q-29 -56 -29 -75q0 -13 23 -18.5t39 -5.5q1 -2 -0.5 -13t-3.5 -16q-13 1 -28.5 2t-29 2t-31.5 1q-19 0 -33.5 -1t-31.5 -2t-33 -2q-1 2 1 13t5 16q11 0 30 5t27 14q25 27 62 94l276 495q6 11 19.5 20t20.5 9q2 0 5 -3l86 -534q2 -14 5 -32t4.5 -26t1.5 -10 q3 -13 18 -21t26 -9.5t19 -1.5q2 -6 0.5 -16t-3.5 -13q-93 5 -109 5q-19 0 -34.5 -1t-34.5 -2t-35 -2q-3 4 -1 14.5t7 14.5zM193 289h175l-38 246zM414 819q6 0 10 -7q34 -55 78 -108q-2 -10 -15 -10l-89 59q-72 -35 -120 -59q-12 0 -10 10q70 53 132 108q9 7 14 7z" />
<glyph unicode="&#x1ea9;" d="M397 652q-13 0 -24.5 -6t-15.5 -11q-6 2 -6 11q0 12 22 26.5t43 14.5q28 0 45.5 -14.5t17.5 -37.5q0 -8 -2.5 -15t-8 -13t-9.5 -10t-13 -8.5t-12 -6.5t-13 -6l-10 -4q-14 -6 -14 -17q0 -7 5 -15q-8 -8 -19 -8q-18 7 -18 28q0 4 1.5 7.5t3.5 6t6.5 5.5t6.5 4t8.5 3.5 t7.5 3.5q18 8 26.5 15t8.5 19q0 13 -11.5 20.5t-25.5 7.5zM287 629q5 0 9 -8q32 -60 68 -116q-2 -11 -13 -11l-78 64q-66 -39 -105 -64q-4 0 -7 3.5t-2 7.5q71 68 116 116q8 8 12 8zM305 435q43 0 78 -13l-61 -316q-14 -57 6 -57q5 0 12.5 4t14.5 10t15 14t13.5 14t10.5 11 l4 5q2 0 6 -7.5t4 -11.5q-12 -21 -56 -57.5t-75 -36.5q-16 0 -25 14.5t-9 37.5q0 16 7 53q4 24 5 31q-23 -42 -66 -88.5t-81 -46.5q-40 0 -64.5 32.5t-24.5 85.5q0 63 27.5 123.5t69.5 103t93 69t96 26.5zM259 395q-58 0 -112 -79t-54 -165q0 -98 51 -98q36 0 80.5 73 t59.5 148l21 106q-13 15 -46 15z" />
<glyph unicode="&#x1eaa;" horiz-adv-x="586" d="M368 898q35 0 59 -12q41 -20 70 -20q32 0 63 32q6 -1 6 -8q0 -16 -17 -31q-34 -28 -76 -28q-36 0 -59 12q-41 20 -70 20q-32 0 -63 -32q-7 2 -7 9q0 15 18 31q34 27 76 27zM414 819q6 0 10 -7q34 -55 78 -108q-2 -10 -15 -10l-89 59q-72 -35 -120 -59q-12 0 -10 10 q70 53 132 108q9 7 14 7zM341 26q57 0 57 31q0 30 -3 49l-22 150h-199q-48 -87 -71 -131q-29 -56 -29 -75q0 -13 23 -18.5t39 -5.5q1 -2 -0.5 -13t-3.5 -16q-13 1 -28.5 2t-29 2t-31.5 1q-19 0 -33.5 -1t-31.5 -2t-33 -2q-1 2 1 13t5 16q11 0 30 5t27 14q25 27 62 94 l276 495q6 11 19.5 20t20.5 9q2 0 5 -3l86 -534q2 -14 5 -32t4.5 -26t1.5 -10q3 -13 18 -21t26 -9.5t19 -1.5q2 -6 0.5 -16t-3.5 -13q-92 5 -109 5q-19 0 -34.5 -1t-34.5 -2t-35 -2q-3 4 -1 14.5t7 14.5zM192 289h175l-38 246z" />
<glyph unicode="&#x1eab;" d="M266 739q28 0 52 -11q4 -1 17 -8t22.5 -9.5t21.5 -2.5q27 0 61 31q7 -2 6 -7q-3 -19 -20 -33q-32 -29 -73 -29q-24 0 -52 13q-1 1 -12 6t-16 7t-15 4t-19 2q-27 0 -61 -32q-6 2 -5 9q3 19 19 32q32 28 74 28zM295 637q5 0 9 -7q32 -54 68 -104q-1 -3 -3 -5t-5 -3.5 t-5 -1.5l-78 58q-65 -35 -104 -58q-4 0 -7 3t-2 7q71 61 115 104q8 7 12 7zM305 435q43 0 78 -13l-61 -316q-14 -57 6 -57q5 0 12.5 4t14.5 10t15 14t13.5 14t10.5 11l4 5q2 0 6 -7.5t4 -11.5q-12 -21 -56 -57.5t-75 -36.5q-16 0 -25 14.5t-9 37.5q0 16 7 53q4 24 5 31 q-23 -42 -66 -88.5t-81 -46.5q-40 0 -64.5 32.5t-24.5 85.5q0 63 27.5 123.5t69.5 103t93 69t96 26.5zM259 395q-58 0 -112 -79t-54 -165q0 -98 51 -98q36 0 80.5 73t59.5 148l21 106q-13 15 -46 15z" />
<glyph unicode="&#x1eac;" horiz-adv-x="586" d="M178 -114q4 21 20 35.5t36 14.5q19 0 30 -14.5t7 -35.5t-20 -35.5t-36 -14.5q-19 0 -30 14.5t-7 35.5zM423 836q7 0 10 -7q34 -55 78 -108q-2 -10 -15 -10l-89 59q-72 -35 -120 -59q-12 0 -10 10q70 53 132 108q9 7 14 7zM341 26q57 0 57 31q0 30 -3 49l-22 150h-199 q-48 -87 -71 -131q-29 -56 -29 -75q0 -13 23 -18.5t39 -5.5q1 -2 -0.5 -13t-3.5 -16q-13 1 -28.5 2t-29 2t-31.5 1q-19 0 -33.5 -1t-31.5 -2t-33 -2q-1 2 1 13t5 16q11 0 30 5t27 14q25 27 62 94l276 495q6 11 19.5 20t20.5 9q2 0 5 -3l86 -534q2 -14 5 -32t4.5 -26t1.5 -10 q3 -13 18 -21t26 -9.5t19 -1.5q2 -6 0.5 -16t-3.5 -13q-92 5 -109 5q-19 0 -34.5 -1t-34.5 -2t-35 -2q-3 4 -1 14.5t7 14.5zM192 289h175l-38 246z" />
<glyph unicode="&#x1ead;" d="M112 -117q4 21 20 35.5t36 14.5q19 0 30 -14.5t7 -35.5t-20.5 -35.5t-36.5 -14.5q-19 0 -29.5 14.5t-6.5 35.5zM296 629q5 0 9 -8q32 -60 68 -116q-2 -11 -13 -11l-78 64q-66 -39 -105 -64q-4 0 -7 3.5t-2 7.5q71 68 116 116q8 8 12 8zM305 435q43 0 78 -13l-61 -316 q-14 -57 6 -57q5 0 12.5 4t14.5 10t15 14t13.5 14t10.5 11l4 5q2 0 6 -7.5t4 -11.5q-12 -21 -56 -57.5t-75 -36.5q-16 0 -25 14.5t-9 37.5q0 16 7 53q4 24 5 31q-23 -42 -66 -88.5t-81 -46.5q-40 0 -64.5 32.5t-24.5 85.5q0 63 27.5 123.5t69.5 103t93 69t96 26.5zM259 395 q-58 0 -112 -79t-54 -165q0 -98 51 -98q36 0 80.5 73t59.5 148l21 106q-13 15 -46 15z" />
<glyph unicode="&#x1eae;" horiz-adv-x="586" d="M341 26q57 0 57 31q0 30 -3 49l-22 150h-199q-48 -87 -71 -131q-29 -56 -29 -75q0 -13 23 -18.5t39 -5.5q1 -2 -0.5 -13t-3.5 -16q-13 1 -28.5 2t-29 2t-31.5 1q-19 0 -33.5 -1t-31.5 -2t-33 -2q-1 2 1 13t5 16q11 0 30 5t27 14q25 27 62 94l276 495q6 11 19.5 20t20.5 9 q2 0 5 -3l86 -534q2 -14 5 -32t4.5 -26t1.5 -10q3 -13 18 -21t26 -9.5t19 -1.5q2 -6 0.5 -16t-3.5 -13q-92 5 -109 5q-19 0 -34.5 -1t-34.5 -2t-35 -2q-3 4 -1 14.5t7 14.5zM192 289h175l-38 246zM381 774l-1 2t-2 4.5t-1 3.5q0 5 34 42t49 49q6 5 21 5q16 0 27 -6.5 t11 -14.5q0 -12 -32 -32.5t-65.5 -36.5t-40.5 -16zM516 797q0 -5 -2 -8q-15 -36 -49 -62t-71 -26t-60 25.5t-21 62.5q0 1 0.5 4l0.5 3q3 5 10 8t12 0q1 -28 19.5 -45.5t47.5 -17.5q19 0 37.5 8t33.5 22.5t24 32.5q3 3 9.5 0t8.5 -7z" />
<glyph unicode="&#x1eaf;" d="M253 587q-2 0 -4.5 3.5t-2.5 5.5q0 3 18.5 25.5t39 45t25.5 26.5q13 8 33 8q11 0 22.5 -6t11.5 -20q0 -7 -33 -29t-68 -40.5t-42 -18.5zM392 596q0 -5 -2 -8q-14 -36 -47 -62t-69 -26q-35 0 -57.5 25.5t-20.5 62.5q0 1 0.5 4l0.5 3q3 5 10 8t12 0q0 -28 18 -45.5 t46 -17.5t53.5 17.5t38.5 45.5q2 3 8.5 0t8.5 -7zM305 435q43 0 78 -13l-61 -316q-14 -57 6 -57q5 0 12.5 4t14.5 10t15 14t13.5 14t10.5 11l4 5q2 0 6 -7.5t4 -11.5q-12 -21 -56 -57.5t-75 -36.5q-16 0 -25 14.5t-9 37.5q0 16 7 53q4 24 5 31q-23 -42 -66 -88.5t-81 -46.5 q-40 0 -64.5 32.5t-24.5 85.5q0 63 27.5 123.5t69.5 103t93 69t96 26.5zM259 395q-58 0 -112 -79t-54 -165q0 -98 51 -98q36 0 80.5 73t59.5 148l21 106q-13 15 -46 15z" />
<glyph unicode="&#x1eb0;" horiz-adv-x="586" d="M341 26q57 0 57 31q0 30 -3 49l-22 150h-199q-48 -87 -71 -131q-29 -56 -29 -75q0 -13 23 -18.5t39 -5.5q1 -2 -0.5 -13t-3.5 -16q-13 1 -28.5 2t-29 2t-31.5 1q-19 0 -33.5 -1t-31.5 -2t-33 -2q-1 2 1 13t5 16q11 0 30 5t27 14q25 27 62 94l276 495q6 11 19.5 20t20.5 9 q2 0 5 -3l86 -534q2 -14 5 -32t4.5 -26t1.5 -10q3 -13 18 -21t26 -9.5t19 -1.5q2 -6 0.5 -16t-3.5 -13q-92 5 -109 5q-19 0 -34.5 -1t-34.5 -2t-35 -2q-3 4 -1 14.5t7 14.5zM192 289h175l-38 246zM457 774q-13 0 -75 34t-62 50q0 9 10.5 15.5t26.5 6.5q15 0 21 -5 q7 -6 21.5 -20t28 -29t23.5 -27.5t10 -14.5t-2 -6zM516 797q0 -5 -2 -8q-15 -36 -49 -62t-71 -26t-60 25.5t-21 62.5q0 1 0.5 4l0.5 3q3 5 10 8t12 0q1 -28 19.5 -45.5t47.5 -17.5q19 0 37.5 8t33.5 22.5t24 32.5q3 3 9.5 0t8.5 -7z" />
<glyph unicode="&#x1eb1;" d="M342 594q-11 0 -76.5 38.5t-65.5 49.5q0 14 11.5 20t22.5 6q20 0 33 -8q9 -6 45.5 -49t36.5 -48q0 -2 -2.5 -5.5t-4.5 -3.5zM392 596q0 -5 -2 -8q-14 -36 -47 -62t-69 -26q-35 0 -57.5 25.5t-20.5 62.5q0 1 0.5 4l0.5 3q3 5 10 8t12 0q0 -28 18 -45.5t46 -17.5t53.5 17.5 t38.5 45.5q2 3 8.5 0t8.5 -7zM305 435q43 0 78 -13l-61 -316q-14 -57 6 -57q5 0 12.5 4t14.5 10t15 14t13.5 14t10.5 11l4 5q2 0 6 -7.5t4 -11.5q-12 -21 -56 -57.5t-75 -36.5q-16 0 -25 14.5t-9 37.5q0 16 7 53q4 24 5 31q-23 -42 -66 -88.5t-81 -46.5q-40 0 -64.5 32.5 t-24.5 85.5q0 63 27.5 123.5t69.5 103t93 69t96 26.5zM259 395q-58 0 -112 -79t-54 -165q0 -98 51 -98q36 0 80.5 73t59.5 148l21 106q-13 15 -46 15z" />
<glyph unicode="&#x1eb2;" horiz-adv-x="586" d="M341 26q57 0 57 31q0 30 -3 49l-22 150h-199q-48 -87 -71 -131q-29 -56 -29 -75q0 -13 23 -18.5t39 -5.5q1 -2 -0.5 -13t-3.5 -16q-13 1 -28.5 2t-29 2t-31.5 1q-19 0 -33.5 -1t-31.5 -2t-33 -2q-1 2 1 13t5 16q11 0 30 5t27 14q25 27 62 94l276 495q6 11 19.5 20t20.5 9 q2 0 5 -3l86 -534q2 -14 5 -32t4.5 -26t1.5 -10q3 -13 18 -21t26 -9.5t19 -1.5q2 -6 0.5 -16t-3.5 -13q-92 5 -109 5q-19 0 -34.5 -1t-34.5 -2t-35 -2q-3 4 -1 14.5t7 14.5zM192 289h175l-38 246zM409 860q-14 0 -26.5 -5.5t-16.5 -11.5q-7 3 -7 10q0 12 23.5 26t45.5 14 q29 0 47 -13.5t18 -30.5q0 -35 -60 -55q-19 -6 -19 -13q0 -9 6 -18q-9 -8 -20 -8q-6 2 -13 9t-7 18q0 15 36 30q32 12 32 25q0 23 -39 23zM516 797q0 -5 -2 -8q-15 -36 -49 -62t-71 -26t-60 25.5t-21 62.5q0 1 0.5 4l0.5 3q3 5 10 8t12 0q1 -28 19.5 -45.5t47.5 -17.5 q19 0 37.5 8t33.5 22.5t24 32.5q3 3 9.5 0t8.5 -7z" />
<glyph unicode="&#x1eb3;" d="M305 435q43 0 78 -13l-61 -316q-14 -57 6 -57q5 0 12.5 4t14.5 10t15 14t13.5 14t10.5 11l4 5q2 0 6 -7.5t4 -11.5q-12 -21 -56 -57.5t-75 -36.5q-16 0 -25 14.5t-9 37.5q0 16 7 53q4 24 5 31q-23 -42 -66 -88.5t-81 -46.5q-40 0 -64.5 32.5t-24.5 85.5q0 63 27.5 123.5 t69.5 103t93 69t96 26.5zM259 395q-58 0 -112 -79t-54 -165q0 -98 51 -98q36 0 80.5 73t59.5 148l21 106q-13 15 -46 15zM290 686q-13 0 -24.5 -6t-15.5 -11q-6 2 -6 11q0 12 22 26.5t43 14.5q28 0 45.5 -14.5t17.5 -37.5q0 -8 -2.5 -15t-8 -13t-9.5 -10t-13 -8.5t-12 -6.5 t-13 -6l-10 -4q-14 -6 -14 -17q0 -7 5 -15q-8 -8 -19 -8q-18 7 -18 28q0 4 1.5 7.5t3.5 6t6.5 5.5t6.5 4t8.5 3.5t7.5 3.5q18 8 26.5 15t8.5 19q0 13 -11.5 20.5t-25.5 7.5zM392 596q0 -5 -2 -8q-14 -36 -47 -62t-69 -26q-35 0 -57.5 25.5t-20.5 62.5q0 1 0.5 4l0.5 3 q3 5 10 8t12 0q0 -28 18 -45.5t46 -17.5t53.5 17.5t38.5 45.5q2 3 8.5 0t8.5 -7z" />
<glyph unicode="&#x1eb4;" horiz-adv-x="586" d="M341 26q57 0 57 31q0 30 -3 49l-22 150h-199q-48 -87 -71 -131q-29 -56 -29 -75q0 -13 23 -18.5t39 -5.5q1 -2 -0.5 -13t-3.5 -16q-13 1 -28.5 2t-29 2t-31.5 1q-19 0 -33.5 -1t-31.5 -2t-33 -2q-1 2 1 13t5 16q11 0 30 5t27 14q25 27 62 94l276 495q6 11 19.5 20t20.5 9 q2 0 5 -3l86 -534q2 -14 5 -32t4.5 -26t1.5 -10q3 -13 18 -21t26 -9.5t19 -1.5q2 -6 0.5 -16t-3.5 -13q-92 5 -109 5q-19 0 -34.5 -1t-34.5 -2t-35 -2q-3 4 -1 14.5t7 14.5zM192 289h175l-38 246zM372 897q35 0 59 -12q41 -20 70 -20q31 0 63 32q6 -2 6 -9q0 -16 -18 -31 q-33 -27 -75 -27q-36 0 -60 12q-40 20 -69 20q-32 0 -63 -32q-7 2 -7 8q0 15 18 31q34 28 76 28zM516 797q0 -5 -2 -8q-15 -36 -49 -62t-71 -26t-60 25.5t-21 62.5q0 1 0.5 4l0.5 3q3 5 10 8t12 0q1 -28 19.5 -45.5t47.5 -17.5q19 0 37.5 8t33.5 22.5t24 32.5q3 3 9.5 0 t8.5 -7z" />
<glyph unicode="&#x1eb5;" d="M305 435q43 0 78 -13l-61 -316q-14 -57 6 -57q5 0 12.5 4t14.5 10t15 14t13.5 14t10.5 11l4 5q2 0 6 -7.5t4 -11.5q-12 -21 -56 -57.5t-75 -36.5q-16 0 -25 14.5t-9 37.5q0 16 7 53q4 24 5 31q-23 -42 -66 -88.5t-81 -46.5q-40 0 -64.5 32.5t-24.5 85.5q0 63 27.5 123.5 t69.5 103t93 69t96 26.5zM259 395q-58 0 -112 -79t-54 -165q0 -98 51 -98q36 0 80.5 73t59.5 148l21 106q-13 15 -46 15zM392 596q0 -5 -2 -8q-14 -36 -47 -62t-69 -26q-35 0 -57.5 25.5t-20.5 62.5q0 1 0.5 4l0.5 3q3 5 10 8t12 0q0 -28 18 -45.5t46 -17.5t53.5 17.5 t38.5 45.5q2 3 8.5 0t8.5 -7zM257 740q28 0 52 -11q4 -1 17 -8t22.5 -9.5t21.5 -2.5q27 0 61 31q7 -2 6 -8q-3 -18 -20 -32q-32 -29 -73 -29q-24 0 -52 13q-1 1 -12 6t-16 7t-15 4t-19 2q-27 0 -61 -32q-6 2 -5 9q3 19 19 32q32 28 74 28z" />
<glyph unicode="&#x1eb6;" horiz-adv-x="586" d="M178 -114q4 21 20 35.5t36 14.5q19 0 30 -14.5t7 -35.5t-20 -35.5t-36 -14.5q-19 0 -30 14.5t-7 35.5zM341 26q57 0 57 31q0 30 -3 49l-22 150h-199q-48 -87 -71 -131q-29 -56 -29 -75q0 -13 23 -18.5t39 -5.5q1 -2 -0.5 -13t-3.5 -16q-13 1 -28.5 2t-29 2t-31.5 1 q-19 0 -33.5 -1t-31.5 -2t-33 -2q-1 2 1 13t5 16q11 0 30 5t27 14q25 27 62 94l276 495q6 11 19.5 20t20.5 9q2 0 5 -3l86 -534q2 -14 5 -32t4.5 -26t1.5 -10q3 -13 18 -21t26 -9.5t19 -1.5q2 -6 0.5 -16t-3.5 -13q-92 5 -109 5q-19 0 -34.5 -1t-34.5 -2t-35 -2 q-3 4 -1 14.5t7 14.5zM192 289h175l-38 246zM509 838q0 -6 -2 -10q-15 -41 -49 -70.5t-71 -29.5t-60 29t-21 72v5l1 3q3 5 10 8.5t12 0.5q1 -32 19.5 -52t47.5 -20t55 20t40 52q3 3 9.5 0t8.5 -8z" />
<glyph unicode="&#x1eb7;" d="M112 -117q4 21 20 35.5t36 14.5q19 0 30 -14.5t7 -35.5t-20.5 -35.5t-36.5 -14.5q-19 0 -29.5 14.5t-6.5 35.5zM305 435q43 0 78 -13l-61 -316q-14 -57 6 -57q5 0 12.5 4t14.5 10t15 14t13.5 14t10.5 11l4 5q2 0 6 -7.5t4 -11.5q-12 -21 -56 -57.5t-75 -36.5 q-16 0 -25 14.5t-9 37.5q0 16 7 53q4 24 5 31q-23 -42 -66 -88.5t-81 -46.5q-40 0 -64.5 32.5t-24.5 85.5q0 63 27.5 123.5t69.5 103t93 69t96 26.5zM259 395q-58 0 -112 -79t-54 -165q0 -98 51 -98q36 0 80.5 73t59.5 148l21 106q-13 15 -46 15zM399 606q0 -6 -2 -10 q-15 -41 -49 -70.5t-71 -29.5t-60 29t-21 72v5l1 3q3 5 10 8.5t12 0.5q1 -32 19.5 -52t47.5 -20t55 20t40 52q3 3 9.5 0t8.5 -8z" />
<glyph unicode="&#x1eb8;" horiz-adv-x="554" d="M185 -114q4 21 20 35.5t36 14.5q19 0 30 -14.5t7 -35.5t-20 -35.5t-36 -14.5q-19 0 -30 14.5t-7 35.5zM233 657q42 0 145 3.5t155 3.5q-2 -12 -0.5 -69.5t1.5 -66.5q-5 -5 -18 -5q-11 0 -11 7q-4 56 -26 78t-62 22h-80q-61 0 -66 -11q-11 -21 -20 -72l-37 -192q0 -2 3 -3 t9 -2t12.5 -1h14.5h49q66 0 83 13q11 9 32 56q0 2 1 3q3 7 16 7q11 0 14 -5l-36 -189q-4 -4 -16 -4q-11 0 -13 8q-3 62 -13 70t-97 8q-67 0 -69 -9l-39 -198q-13 -63 -7 -69q10 -10 64 -10h44q77 0 124 31q44 30 78 101q3 6 15 6q18 0 22 -6q-6 -12 -28 -52.5t-35 -67 t-20 -46.5q-48 0 -149.5 2t-166.5 2q-23 0 -58.5 -1.5t-52.5 -1.5q-3 4 -1 14.5t6 14.5q14 0 39.5 4.5t28.5 11.5q7 14 19 74l83 427q11 56 9 74q-1 7 -24 11.5t-37 4.5q-2 4 0 14.5t6 14.5q95 -5 109 -5z" />
<glyph unicode="&#x1eb9;" horiz-adv-x="363" d="M274 435q35 0 50.5 -18t15.5 -44q0 -44 -47 -88t-102 -68t-88 -24q-2 -6 -2 -32q0 -108 69 -108q8 0 17 3t17.5 7.5t17 10.5t15.5 12t14 12.5t11 11t8 8.5l3 4q2 0 7 -8t5 -12q-16 -27 -63.5 -67.5t-88.5 -40.5q-53 0 -81.5 37.5t-28.5 107.5q0 109 81.5 202.5 t169.5 93.5zM105 218q38 0 99.5 43t61.5 93q0 19 -13 29.5t-29 10.5q-46 0 -80 -62.5t-39 -113.5zM64 -117q4 21 20 35.5t36 14.5q19 0 30 -14.5t7 -35.5t-20.5 -35.5t-36.5 -14.5q-19 0 -29.5 14.5t-6.5 35.5z" />
<glyph unicode="&#x1eba;" horiz-adv-x="554" d="M362 841q-32 0 -45 -18q-7 2 -7 11q0 13 24.5 28t48.5 15q30 0 49 -15t19 -33q0 -38 -63 -60q-20 -7 -20 -15q0 -10 6 -19q-9 -9 -21 -9q-21 7 -21 30q0 16 38 32q34 13 34 28q0 25 -42 25zM233 657q42 0 145 3.5t155 3.5q-2 -12 -0.5 -69.5t1.5 -66.5q-5 -5 -18 -5 q-11 0 -11 7q-4 56 -26 78t-62 22h-80q-61 0 -66 -11q-11 -21 -20 -72l-37 -192q0 -2 3 -3t9 -2t12.5 -1h14.5h49q66 0 83 13q11 9 32 56q0 2 1 3q3 7 16 7q11 0 14 -5l-36 -189q-4 -4 -16 -4q-11 0 -13 8q-3 62 -13 70t-97 8q-67 0 -69 -9l-39 -198q-13 -63 -7 -69 q10 -10 64 -10h44q77 0 124 31q44 30 78 101q3 6 15 6q18 0 22 -6q-6 -12 -28 -52.5t-35 -67t-20 -46.5q-48 0 -149.5 2t-166.5 2q-23 0 -58.5 -1.5t-52.5 -1.5q-3 4 -1 14.5t6 14.5q14 0 39.5 4.5t28.5 11.5q7 14 19 74l83 427q11 56 9 74q-1 7 -24 11.5t-37 4.5 q-2 4 0 14.5t6 14.5q95 -5 109 -5z" />
<glyph unicode="&#x1ebb;" horiz-adv-x="363" d="M274 616q-13 0 -24.5 -6t-15.5 -11q-6 2 -6 11q0 12 22 26.5t43 14.5q28 0 45.5 -14.5t17.5 -37.5q0 -8 -2.5 -15t-8 -13t-9.5 -10t-13 -8.5t-12 -6.5t-13 -6l-10 -4q-14 -6 -14 -17q0 -7 5 -15q-8 -8 -19 -8q-18 7 -18 28q0 4 1.5 7.5t3.5 6t6.5 5.5t6.5 4t8.5 3.5 t7.5 3.5q18 8 26.5 15t8.5 19q0 13 -11.5 20.5t-25.5 7.5zM274 435q35 0 50.5 -18t15.5 -44q0 -44 -47 -88t-102 -68t-88 -24q-2 -6 -2 -32q0 -108 69 -108q8 0 17 3t17.5 7.5t17 10.5t15.5 12t14 12.5t11 11t8 8.5l3 4q2 0 7 -8t5 -12q-16 -27 -63.5 -67.5t-88.5 -40.5 q-53 0 -81.5 37.5t-28.5 107.5q0 109 81.5 202.5t169.5 93.5zM105 218q38 0 99.5 43t61.5 93q0 19 -13 29.5t-29 10.5q-46 0 -80 -62.5t-39 -113.5z" />
<glyph unicode="&#x1ebc;" horiz-adv-x="554" d="M304 806q36 0 61 -14q42 -24 72 -24q32 0 65 38q6 -2 6 -10q0 -19 -18 -37q-34 -33 -78 -33q-36 0 -61 14q-42 24 -72 24q-32 0 -65 -38q-7 2 -7 10q0 18 19 37q34 33 78 33zM233 657q42 0 145 3.5t155 3.5q-2 -12 -0.5 -69.5t1.5 -66.5q-5 -5 -18 -5q-11 0 -11 7 q-4 56 -26 78t-62 22h-80q-61 0 -66 -11q-11 -21 -20 -72l-37 -192q0 -2 3 -3t9 -2t12.5 -1h14.5h49q66 0 83 13q11 9 32 56q0 2 1 3q3 7 16 7q11 0 14 -5l-36 -189q-4 -4 -16 -4q-11 0 -13 8q-3 62 -13 70t-97 8q-67 0 -69 -9l-39 -198q-13 -63 -7 -69q10 -10 64 -10h44 q77 0 124 31q44 30 78 101q3 6 15 6q18 0 22 -6q-6 -12 -28 -52.5t-35 -67t-20 -46.5q-48 0 -149.5 2t-166.5 2q-23 0 -58.5 -1.5t-52.5 -1.5q-3 4 -1 14.5t6 14.5q14 0 39.5 4.5t28.5 11.5q7 14 19 74l83 427q11 56 9 74q-1 7 -24 11.5t-37 4.5q-2 4 0 14.5t6 14.5 q95 -5 109 -5z" />
<glyph unicode="&#x1ebd;" horiz-adv-x="363" d="M221 574q30 0 56 -13q4 -2 17.5 -9.5t24 -10.5t23.5 -3q29 0 65 36q7 -2 6 -9q-3 -21 -21 -37q-35 -32 -78 -32q-25 0 -55 14q-2 1 -13.5 7t-17 8t-16 4.5t-20.5 2.5q-29 0 -65 -36q-6 2 -5 10q3 21 20 36q35 32 79 32zM274 435q35 0 50.5 -18t15.5 -44q0 -44 -47 -88 t-102 -68t-88 -24q-2 -6 -2 -32q0 -108 69 -108q8 0 17 3t17.5 7.5t17 10.5t15.5 12t14 12.5t11 11t8 8.5l3 4q2 0 7 -8t5 -12q-16 -27 -63.5 -67.5t-88.5 -40.5q-53 0 -81.5 37.5t-28.5 107.5q0 109 81.5 202.5t169.5 93.5zM105 218q38 0 99.5 43t61.5 93q0 19 -13 29.5 t-29 10.5q-46 0 -80 -62.5t-39 -113.5z" />
<glyph unicode="&#x1ebe;" horiz-adv-x="554" d="M233 657q42 0 145 3.5t155 3.5q-2 -12 -0.5 -69.5t1.5 -66.5q-5 -5 -18 -5q-11 0 -11 7q-4 56 -26 78t-62 22h-80q-61 0 -66 -11q-11 -21 -20 -72l-37 -192q0 -2 3 -3t9 -2t12.5 -1h14.5h49q66 0 83 13q11 9 32 56q0 2 1 3q3 7 16 7q11 0 14 -5l-36 -189q-4 -4 -16 -4 q-11 0 -13 8q-3 62 -13 70t-97 8q-67 0 -69 -9l-39 -198q-13 -63 -7 -69q10 -10 64 -10h44q77 0 124 31q44 30 78 101q3 6 15 6q18 0 22 -6q-6 -12 -28 -52.5t-35 -67t-20 -46.5q-48 0 -149.5 2t-166.5 2q-23 0 -58.5 -1.5t-52.5 -1.5q-3 4 -1 14.5t6 14.5q14 0 39.5 4.5 t28.5 11.5q7 14 19 74l83 427q11 56 9 74q-1 7 -24 11.5t-37 4.5q-2 4 0 14.5t6 14.5q95 -5 109 -5zM446 763q-1 0 -3 4t-2 6q0 5 34 42t49 49q6 5 22 5t26.5 -6.5t10.5 -14.5q0 -17 -62 -51t-75 -34zM378 819q6 0 10 -7q34 -55 78 -108q-2 -10 -15 -10l-89 59 q-72 -35 -120 -59q-12 0 -10 10q70 53 132 108q9 7 14 7z" />
<glyph unicode="&#x1ebf;" horiz-adv-x="363" d="M274 435q35 0 50.5 -18t15.5 -44q0 -44 -47 -88t-102 -68t-88 -24q-2 -6 -2 -32q0 -108 69 -108q8 0 17 3t17.5 7.5t17 10.5t15.5 12t14 12.5t11 11t8 8.5l3 4q2 0 7 -8t5 -12q-16 -27 -63.5 -67.5t-88.5 -40.5q-53 0 -81.5 37.5t-28.5 107.5q0 109 81.5 202.5 t169.5 93.5zM105 218q38 0 99.5 43t61.5 93q0 19 -13 29.5t-29 10.5q-46 0 -80 -62.5t-39 -113.5zM264 629q5 0 9 -8q32 -60 68 -116q-2 -11 -13 -11l-78 64q-66 -39 -105 -64q-4 0 -7 3.5t-2 7.5q71 68 116 116q8 8 12 8zM334 587q-1 0 -2.5 2l-3 4t-1.5 3q0 3 18.5 25.5 t39 45t25.5 26.5q13 8 33 8q11 0 22.5 -6t11.5 -20q0 -7 -33 -29t-68 -40.5t-42 -18.5z" />
<glyph unicode="&#x1ec0;" horiz-adv-x="554" d="M269 743q-7 0 -40 16t-65 36.5t-32 32.5q0 8 10.5 14.5t27.5 6.5q15 0 21 -5q5 -4 15.5 -14.5t22 -22.5t21.5 -23.5t17 -20t7 -10.5q0 -1 -1 -3.5t-2.5 -4.5zM233 657q42 0 145 3.5t155 3.5q-2 -12 -0.5 -69.5t1.5 -66.5q-5 -5 -18 -5q-11 0 -11 7q-4 56 -26 78t-62 22 h-80q-61 0 -66 -11q-11 -21 -20 -72l-37 -192q0 -2 3 -3t9 -2t12.5 -1h14.5h49q66 0 83 13q11 9 32 56q0 2 1 3q3 7 16 7q11 0 14 -5l-36 -189q-4 -4 -16 -4q-11 0 -13 8q-3 62 -13 70t-97 8q-67 0 -69 -9l-39 -198q-13 -63 -7 -69q10 -10 64 -10h44q77 0 124 31 q44 30 78 101q3 6 15 6q18 0 22 -6q-6 -12 -28 -52.5t-35 -67t-20 -46.5q-48 0 -149.5 2t-166.5 2q-23 0 -58.5 -1.5t-52.5 -1.5q-3 4 -1 14.5t6 14.5q14 0 39.5 4.5t28.5 11.5q7 14 19 74l83 427q11 56 9 74q-1 7 -24 11.5t-37 4.5q-2 4 0 14.5t6 14.5q95 -5 109 -5z M378 819q6 0 10 -7q34 -55 78 -108q-2 -10 -15 -10l-89 59q-72 -35 -120 -59q-12 0 -10 10q70 53 132 108q9 7 14 7z" />
<glyph unicode="&#x1ec1;" horiz-adv-x="363" d="M151 554q-11 0 -76.5 38.5t-65.5 49.5q0 14 11.5 20t22.5 6q20 0 33 -8q9 -6 45.5 -49t36.5 -48q0 -2 -2.5 -5.5t-4.5 -3.5zM274 435q35 0 50.5 -18t15.5 -44q0 -44 -47 -88t-102 -68t-88 -24q-2 -6 -2 -32q0 -108 69 -108q8 0 17 3t17.5 7.5t17 10.5t15.5 12t14 12.5 t11 11t8 8.5l3 4q2 0 7 -8t5 -12q-16 -27 -63.5 -67.5t-88.5 -40.5q-53 0 -81.5 37.5t-28.5 107.5q0 109 81.5 202.5t169.5 93.5zM105 218q38 0 99.5 43t61.5 93q0 19 -13 29.5t-29 10.5q-46 0 -80 -62.5t-39 -113.5zM264 629q5 0 9 -8q32 -60 68 -116q-2 -11 -13 -11 l-78 64q-66 -39 -105 -64q-4 0 -7 3.5t-2 7.5q71 68 116 116q8 8 12 8z" />
<glyph unicode="&#x1ec2;" horiz-adv-x="554" d="M233 657q42 0 145 3.5t155 3.5q-2 -12 -0.5 -69.5t1.5 -66.5q-5 -5 -18 -5q-11 0 -11 7q-4 56 -26 78t-62 22h-80q-61 0 -66 -11q-11 -21 -20 -72l-37 -192q0 -2 3 -3t9 -2t12.5 -1h14.5h49q66 0 83 13q11 9 32 56q0 2 1 3q3 7 16 7q11 0 14 -5l-36 -189q-4 -4 -16 -4 q-11 0 -13 8q-3 62 -13 70t-97 8q-67 0 -69 -9l-39 -198q-13 -63 -7 -69q10 -10 64 -10h44q77 0 124 31q44 30 78 101q3 6 15 6q18 0 22 -6q-6 -12 -28 -52.5t-35 -67t-20 -46.5q-48 0 -149.5 2t-166.5 2q-23 0 -58.5 -1.5t-52.5 -1.5q-3 4 -1 14.5t6 14.5q14 0 39.5 4.5 t28.5 11.5q7 14 19 74l83 427q11 56 9 74q-1 7 -24 11.5t-37 4.5q-2 4 0 14.5t6 14.5q95 -5 109 -5zM486 857q-32 0 -45 -18q-7 2 -7 11q0 13 24.5 28t48.5 15q30 0 49 -15t19 -33q0 -38 -63 -60q-20 -7 -20 -15q0 -10 6 -19q-9 -9 -21 -9q-21 7 -21 30q0 16 38 32 q34 13 34 28q0 25 -42 25zM378 819q6 0 10 -7q34 -55 78 -108q-2 -10 -15 -10l-89 59q-72 -35 -120 -59q-12 0 -10 10q70 53 132 108q9 7 14 7z" />
<glyph unicode="&#x1ec3;" horiz-adv-x="363" d="M374 652q-13 0 -24.5 -6t-15.5 -11q-6 2 -6 11q0 12 22 26.5t43 14.5q28 0 45.5 -14.5t17.5 -37.5q0 -8 -2.5 -15t-8 -13t-9.5 -10t-13 -8.5t-12 -6.5t-13 -6l-10 -4q-14 -6 -14 -17q0 -7 5 -15q-8 -8 -19 -8q-18 7 -18 28q0 4 1.5 7.5t3.5 6t6.5 5.5t6.5 4t8.5 3.5 t7.5 3.5q18 8 26.5 15t8.5 19q0 13 -11.5 20.5t-25.5 7.5zM264 629q5 0 9 -8q32 -60 68 -116q-2 -11 -13 -11l-78 64q-66 -39 -105 -64q-4 0 -7 3.5t-2 7.5q71 68 116 116q8 8 12 8zM274 435q35 0 50.5 -18t15.5 -44q0 -44 -47 -88t-102 -68t-88 -24q-2 -6 -2 -32 q0 -108 69 -108q8 0 17 3t17.5 7.5t17 10.5t15.5 12t14 12.5t11 11t8 8.5l3 4q2 0 7 -8t5 -12q-16 -27 -63.5 -67.5t-88.5 -40.5q-53 0 -81.5 37.5t-28.5 107.5q0 109 81.5 202.5t169.5 93.5zM105 218q38 0 99.5 43t61.5 93q0 19 -13 29.5t-29 10.5q-46 0 -80 -62.5 t-39 -113.5z" />
<glyph unicode="&#x1ec4;" horiz-adv-x="554" d="M233 657q42 0 145 3.5t155 3.5q-2 -12 -0.5 -69.5t1.5 -66.5q-5 -5 -18 -5q-11 0 -11 7q-4 56 -26 78t-62 22h-80q-61 0 -66 -11q-11 -21 -20 -72l-37 -192q0 -2 3 -3t9 -2t12.5 -1h14.5h49q66 0 83 13q11 9 32 56q0 2 1 3q3 7 16 7q11 0 14 -5l-36 -189q-4 -4 -16 -4 q-11 0 -13 8q-3 62 -13 70t-97 8q-67 0 -69 -9l-39 -198q-13 -63 -7 -69q10 -10 64 -10h44q77 0 124 31q44 30 78 101q3 6 15 6q18 0 22 -6q-6 -12 -28 -52.5t-35 -67t-20 -46.5q-48 0 -149.5 2t-166.5 2q-23 0 -58.5 -1.5t-52.5 -1.5q-3 4 -1 14.5t6 14.5q14 0 39.5 4.5 t28.5 11.5q7 14 19 74l83 427q11 56 9 74q-1 7 -24 11.5t-37 4.5q-2 4 0 14.5t6 14.5q95 -5 109 -5zM347 898q35 0 59 -12q41 -20 70 -20q32 0 63 32q6 -1 6 -8q0 -16 -17 -31q-34 -28 -76 -28q-36 0 -59 12q-41 20 -70 20q-32 0 -63 -32q-7 2 -7 9q0 15 18 31q34 27 76 27z M393 819q7 0 10 -7q34 -55 78 -108q-2 -10 -15 -10l-89 59q-72 -35 -120 -59q-12 0 -10 10q70 53 132 108q9 7 14 7z" />
<glyph unicode="&#x1ec5;" horiz-adv-x="363" d="M241 739q28 0 52 -11q4 -1 17 -8t22.5 -9.5t21.5 -2.5q27 0 61 31q7 -2 6 -7q-3 -19 -20 -33q-32 -29 -73 -29q-24 0 -52 13q-1 1 -12 6t-16 7t-15 4t-19 2q-27 0 -61 -32q-6 2 -5 9q3 19 19 32q32 28 74 28zM270 637q5 0 9 -7q32 -54 68 -104q-1 -3 -3 -5t-5 -3.5 t-5 -1.5l-78 58q-65 -35 -104 -58q-4 0 -7 3t-2 7q71 61 115 104q8 7 12 7zM274 435q35 0 50.5 -18t15.5 -44q0 -44 -47 -88t-102 -68t-88 -24q-2 -6 -2 -32q0 -108 69 -108q8 0 17 3t17.5 7.5t17 10.5t15.5 12t14 12.5t11 11t8 8.5l3 4q2 0 7 -8t5 -12q-16 -27 -63.5 -67.5 t-88.5 -40.5q-53 0 -81.5 37.5t-28.5 107.5q0 109 81.5 202.5t169.5 93.5zM105 218q38 0 99.5 43t61.5 93q0 19 -13 29.5t-29 10.5q-46 0 -80 -62.5t-39 -113.5z" />
<glyph unicode="&#x1ec6;" horiz-adv-x="554" d="M185 -114q4 21 20 35.5t36 14.5q19 0 30 -14.5t7 -35.5t-20 -35.5t-36 -14.5q-19 0 -30 14.5t-7 35.5zM393 836q7 0 10 -7q34 -55 78 -108q-2 -10 -15 -10l-89 59q-72 -35 -120 -59q-12 0 -10 10q70 53 132 108q9 7 14 7zM233 657q42 0 145 3.5t155 3.5 q-2 -12 -0.5 -69.5t1.5 -66.5q-5 -5 -18 -5q-11 0 -11 7q-4 56 -26 78t-62 22h-80q-61 0 -66 -11q-11 -21 -20 -72l-37 -192q0 -2 3 -3t9 -2t12.5 -1h14.5h49q66 0 83 13q11 9 32 56q0 2 1 3q3 7 16 7q11 0 14 -5l-36 -189q-4 -4 -16 -4q-11 0 -13 8q-3 62 -13 70t-97 8 q-67 0 -69 -9l-39 -198q-13 -63 -7 -69q10 -10 64 -10h44q77 0 124 31q44 30 78 101q3 6 15 6q18 0 22 -6q-6 -12 -28 -52.5t-35 -67t-20 -46.5q-48 0 -149.5 2t-166.5 2q-23 0 -58.5 -1.5t-52.5 -1.5q-3 4 -1 14.5t6 14.5q14 0 39.5 4.5t28.5 11.5q7 14 19 74l83 427 q11 56 9 74q-1 7 -24 11.5t-37 4.5q-2 4 0 14.5t6 14.5q95 -5 109 -5z" />
<glyph unicode="&#x1ec7;" horiz-adv-x="363" d="M64 -117q4 21 20 35.5t36 14.5q19 0 30 -14.5t7 -35.5t-20.5 -35.5t-36.5 -14.5q-19 0 -29.5 14.5t-6.5 35.5zM271 629q5 0 9 -8q32 -60 68 -116q-2 -11 -13 -11l-78 64q-66 -39 -105 -64q-4 0 -7 3.5t-2 7.5q71 68 116 116q8 8 12 8zM274 435q35 0 50.5 -18t15.5 -44 q0 -44 -47 -88t-102 -68t-88 -24q-2 -6 -2 -32q0 -108 69 -108q8 0 17 3t17.5 7.5t17 10.5t15.5 12t14 12.5t11 11t8 8.5l3 4q2 0 7 -8t5 -12q-16 -27 -63.5 -67.5t-88.5 -40.5q-53 0 -81.5 37.5t-28.5 107.5q0 109 81.5 202.5t169.5 93.5zM105 218q38 0 99.5 43t61.5 93 q0 19 -13 29.5t-29 10.5q-46 0 -80 -62.5t-39 -113.5z" />
<glyph unicode="&#x1ec8;" horiz-adv-x="313" d="M255 841q-32 0 -45 -18q-7 2 -7 11q0 13 24.5 28t48.5 15q30 0 49 -15t19 -33q0 -38 -63 -60q-20 -7 -20 -15q0 -10 6 -19q-9 -9 -21 -9q-21 7 -21 30q0 16 38 32q34 13 34 28q0 25 -42 25zM233 657q12 0 110 5q3 -4 0.5 -14.5t-6.5 -14.5q-14 0 -39 -4.5t-28 -11.5 q-7 -14 -19 -74l-83 -427q-12 -59 -10 -74q1 -7 24 -11.5t37 -4.5q2 -4 0 -14.5t-6 -14.5q-95 5 -107 5q-14 0 -111 -5q-3 4 -1 14.5t6 14.5q14 0 39.5 4.5t28.5 11.5q7 14 19 74l83 427q11 56 9 74q-1 7 -24 11.5t-37 4.5q-2 4 0 14.5t6 14.5q95 -5 109 -5z" />
<glyph unicode="&#x1ec9;" horiz-adv-x="262" d="M178 616q-13 0 -24.5 -6t-15.5 -11q-6 2 -6 11q0 12 22 26.5t43 14.5q28 0 45.5 -14.5t17.5 -37.5q0 -8 -2.5 -15t-8 -13t-9.5 -10t-13 -8.5t-12 -6.5t-13 -6l-10 -4q-14 -6 -14 -17q0 -7 5 -15q-8 -8 -19 -8q-18 7 -18 28q0 4 1.5 7.5t3.5 6t6.5 5.5t6.5 4t8.5 3.5 t7.5 3.5q18 8 26.5 15t8.5 19q0 13 -11.5 20.5t-25.5 7.5zM111 323q4 24 4 32q0 25 -10 25q-5 0 -12.5 -4t-14.5 -10t-15 -14t-13.5 -14t-9.5 -11l-5 -5q-2 0 -6 7.5t-4 11.5q13 22 54 58t72 36q16 0 27.5 -15t11.5 -37q0 -16 -7 -53l-51 -224q-4 -20 -4 -32q0 -25 10 -25 q5 0 12.5 4t14.5 10t15 14t13.5 14t10.5 11l4 5q2 0 6 -7.5t4 -11.5q-12 -21 -56 -57.5t-75 -36.5q-16 0 -25 14.5t-9 37.5q0 16 7 53z" />
<glyph unicode="&#x1eca;" horiz-adv-x="313" d="M36 -114q4 21 20 35.5t36 14.5q19 0 30 -14.5t7 -35.5t-20 -35.5t-36 -14.5q-19 0 -30 14.5t-7 35.5zM233 657q12 0 110 5q3 -4 0.5 -14.5t-6.5 -14.5q-14 0 -39 -4.5t-28 -11.5q-7 -14 -19 -74l-83 -427q-12 -59 -10 -74q1 -7 24 -11.5t37 -4.5q2 -4 0 -14.5t-6 -14.5 q-95 5 -107 5q-14 0 -111 -5q-3 4 -1 14.5t6 14.5q14 0 39.5 4.5t28.5 11.5q7 14 19 74l83 427q11 56 9 74q-1 7 -24 11.5t-37 4.5q-2 4 0 14.5t6 14.5q95 -5 109 -5z" />
<glyph unicode="&#x1ecb;" horiz-adv-x="262" d="M19 -117q4 21 20 35.5t36 14.5q19 0 30 -14.5t7 -35.5t-20.5 -35.5t-36.5 -14.5q-19 0 -29.5 14.5t-6.5 35.5zM111 323q4 24 4 32q0 25 -10 25q-5 0 -12.5 -4t-14.5 -10t-15 -14t-13.5 -14t-9.5 -11l-5 -5q-2 0 -6 7.5t-4 11.5q13 22 54 58t72 36q16 0 27.5 -15t11.5 -37 q0 -16 -7 -53l-51 -224q-4 -20 -4 -32q0 -25 10 -25q5 0 12.5 4t14.5 10t15 14t13.5 14t10.5 11l4 5q2 0 6 -7.5t4 -11.5q-12 -21 -56 -57.5t-75 -36.5q-16 0 -25 14.5t-9 37.5q0 16 7 53zM168 646q15 0 25.5 -12t10.5 -28q0 -24 -15.5 -42t-38.5 -18q-16 0 -25 12.5 t-9 30.5q0 23 15 40t37 17z" />
<glyph unicode="&#x1ecc;" horiz-adv-x="710" d="M251 -122q4 21 20 35.5t36 14.5q19 0 30 -14.5t7 -35.5t-20 -35.5t-36 -14.5q-19 0 -30 14.5t-7 35.5zM406 635q-98 0 -174.5 -107t-76.5 -260q0 -47 8 -88t26.5 -79.5t54 -60.5t84.5 -22q73 0 131.5 57t88.5 142t30 176q0 41 -7.5 79t-25 77t-53.5 62.5t-86 23.5z M415 665q116 0 186.5 -80t70.5 -203q0 -172 -103 -282.5t-250 -110.5q-118 0 -188 81t-70 203q0 168 106.5 280t247.5 112z" />
<glyph unicode="&#x1ecd;" horiz-adv-x="414" d="M72 -116q4 21 20 35.5t36 14.5q19 0 30 -14.5t7 -35.5t-20.5 -35.5t-36.5 -14.5q-19 0 -29.5 14.5t-6.5 35.5zM237 403q-58 0 -96.5 -80t-38.5 -165q0 -60 15 -95.5t42 -35.5q39 0 70 41.5t46 96.5t15 108q0 130 -53 130zM251 435q58 0 87.5 -40t29.5 -107 q0 -106 -71.5 -199.5t-156.5 -93.5q-58 0 -87 38t-29 105q0 107 71 202t156 95z" />
<glyph unicode="&#x1ece;" horiz-adv-x="710" d="M436 841q-32 0 -45 -18q-7 2 -7 11q0 13 24.5 28t48.5 15q30 0 49 -15t19 -33q0 -38 -63 -60q-20 -7 -20 -15q0 -10 6 -19q-9 -9 -21 -9q-21 7 -21 30q0 16 38 32q34 13 34 28q0 25 -42 25zM406 635q-98 0 -174.5 -107t-76.5 -260q0 -47 8 -88t26.5 -79.5t54 -60.5 t84.5 -22q73 0 131.5 57t88.5 142t30 176q0 41 -7.5 79t-25 77t-53.5 62.5t-86 23.5zM415 665q116 0 186.5 -80t70.5 -203q0 -172 -103 -282.5t-250 -110.5q-118 0 -188 81t-70 203q0 168 106.5 280t247.5 112z" />
<glyph unicode="&#x1ecf;" horiz-adv-x="414" d="M277 616q-13 0 -24.5 -6t-15.5 -11q-6 2 -6 11q0 12 22 26.5t43 14.5q28 0 45.5 -14.5t17.5 -37.5q0 -8 -2.5 -15t-8 -13t-9.5 -10t-13 -8.5t-12 -6.5t-13 -6l-10 -4q-14 -6 -14 -17q0 -7 5 -15q-8 -8 -19 -8q-18 7 -18 28q0 4 1.5 7.5t3.5 6t6.5 5.5t6.5 4t8.5 3.5 t7.5 3.5q18 8 26.5 15t8.5 19q0 13 -11.5 20.5t-25.5 7.5zM237 403q-58 0 -96.5 -80t-38.5 -165q0 -60 15 -95.5t42 -35.5q39 0 70 41.5t46 96.5t15 108q0 130 -53 130zM251 435q58 0 87.5 -40t29.5 -107q0 -106 -71.5 -199.5t-156.5 -93.5q-58 0 -87 38t-29 105 q0 107 71 202t156 95z" />
<glyph unicode="&#x1ed0;" horiz-adv-x="710" d="M511 763q-1 0 -3 4t-2 6q0 5 34 42t49 49q6 5 22 5t26.5 -6.5t10.5 -14.5q0 -17 -62 -51t-75 -34zM443 819q7 0 10 -7q34 -55 78 -108q-2 -10 -15 -10l-89 59q-72 -35 -120 -59q-12 0 -10 10q70 53 132 108q9 7 14 7zM406 635q-98 0 -174.5 -107t-76.5 -260q0 -47 8 -88 t26.5 -79.5t54 -60.5t84.5 -22q73 0 131.5 57t88.5 142t30 176q0 41 -7.5 79t-25 77t-53.5 62.5t-86 23.5zM415 665q116 0 186.5 -80t70.5 -203q0 -172 -103 -282.5t-250 -110.5q-118 0 -188 81t-70 203q0 168 106.5 280t247.5 112z" />
<glyph unicode="&#x1ed1;" horiz-adv-x="414" d="M237 403q-58 0 -96.5 -80t-38.5 -165q0 -60 15 -95.5t42 -35.5q39 0 70 41.5t46 96.5t15 108q0 130 -53 130zM251 435q58 0 87.5 -40t29.5 -107q0 -106 -71.5 -199.5t-156.5 -93.5q-58 0 -87 38t-29 105q0 107 71 202t156 95zM270 629q5 0 9 -8q32 -60 68 -116 q-2 -11 -13 -11l-78 64q-66 -39 -105 -64q-4 0 -7 3.5t-2 7.5q71 68 116 116q8 8 12 8zM340 587q-1 0 -2.5 2l-3 4t-1.5 3q0 3 18.5 25.5t39 45t25.5 26.5q13 8 33 8q11 0 22.5 -6t11.5 -20q0 -7 -33 -29t-68 -40.5t-42 -18.5z" />
<glyph unicode="&#x1ed2;" horiz-adv-x="710" d="M335 743q-7 0 -40 16t-65 36.5t-32 32.5q0 8 10.5 14.5t27.5 6.5q15 0 21 -5q9 -7 29 -28t37 -40.5t17 -22.5q0 -1 -1 -3.5t-2.5 -4.5zM443 819q7 0 10 -7q34 -55 78 -108q-2 -10 -15 -10l-89 59q-72 -35 -120 -59q-12 0 -10 10q70 53 132 108q9 7 14 7zM406 635 q-98 0 -174.5 -107t-76.5 -260q0 -47 8 -88t26.5 -79.5t54 -60.5t84.5 -22q73 0 131.5 57t88.5 142t30 176q0 41 -7.5 79t-25 77t-53.5 62.5t-86 23.5zM415 665q116 0 186.5 -80t70.5 -203q0 -172 -103 -282.5t-250 -110.5q-118 0 -188 81t-70 203q0 168 106.5 280 t247.5 112z" />
<glyph unicode="&#x1ed3;" horiz-adv-x="414" d="M237 403q-58 0 -96.5 -80t-38.5 -165q0 -60 15 -95.5t42 -35.5q39 0 70 41.5t46 96.5t15 108q0 130 -53 130zM251 435q58 0 87.5 -40t29.5 -107q0 -106 -71.5 -199.5t-156.5 -93.5q-58 0 -87 38t-29 105q0 107 71 202t156 95zM270 629q5 0 9 -8q32 -60 68 -116 q-2 -11 -13 -11l-78 64q-66 -39 -105 -64q-4 0 -7 3.5t-2 7.5q71 68 116 116q8 8 12 8zM157 554q-11 0 -76.5 38.5t-65.5 49.5q0 14 11.5 20t22.5 6q20 0 33 -8q9 -6 45.5 -49t36.5 -48q0 -2 -2.5 -5.5t-4.5 -3.5z" />
<glyph unicode="&#x1ed4;" horiz-adv-x="710" d="M551 857q-32 0 -45 -18q-7 2 -7 11q0 13 24.5 28t48.5 15q30 0 49 -15t19 -33q0 -38 -63 -60q-20 -7 -20 -15q0 -10 6 -19q-9 -9 -21 -9q-21 7 -21 30q0 16 38 32q34 13 34 28q0 25 -42 25zM443 819q7 0 10 -7q34 -55 78 -108q-2 -10 -15 -10l-89 59q-72 -35 -120 -59 q-12 0 -10 10q70 53 132 108q9 7 14 7zM405 635q-98 0 -174.5 -107t-76.5 -260q0 -47 8 -88t26.5 -79.5t54 -60.5t84.5 -22q73 0 131.5 57t88.5 142t30 176q0 41 -7.5 79t-25 77t-53.5 62.5t-86 23.5zM414 665q116 0 186.5 -80t70.5 -203q0 -172 -103 -282.5t-250 -110.5 q-118 0 -188 81t-70 203q0 168 106.5 280t247.5 112z" />
<glyph unicode="&#x1ed5;" horiz-adv-x="414" d="M380 652q-13 0 -24.5 -6t-15.5 -11q-6 2 -6 11q0 12 22 26.5t43 14.5q28 0 45.5 -14.5t17.5 -37.5q0 -8 -2.5 -15t-8 -13t-9.5 -10t-13 -8.5t-12 -6.5t-13 -6l-10 -4q-14 -6 -14 -17q0 -7 5 -15q-8 -8 -19 -8q-18 7 -18 28q0 4 1.5 7.5t3.5 6t6.5 5.5t6.5 4t8.5 3.5 t7.5 3.5q18 8 26.5 15t8.5 19q0 13 -11.5 20.5t-25.5 7.5zM270 629q5 0 9 -8q32 -60 68 -116q-2 -11 -13 -11l-78 64q-66 -39 -105 -64q-4 0 -7 3.5t-2 7.5q71 68 116 116q8 8 12 8zM237 403q-58 0 -96.5 -80t-38.5 -165q0 -60 15 -95.5t42 -35.5q39 0 70 41.5t46 96.5 t15 108q0 130 -53 130zM251 435q58 0 87.5 -40t29.5 -107q0 -106 -71.5 -199.5t-156.5 -93.5q-58 0 -87 38t-29 105q0 107 71 202t156 95z" />
<glyph unicode="&#x1ed6;" horiz-adv-x="710" d="M368 898q35 0 59 -12q41 -20 70 -20q32 0 63 32q6 -1 6 -8q0 -16 -17 -31q-34 -28 -76 -28q-36 0 -59 12q-41 20 -70 20q-32 0 -63 -32q-7 2 -7 9q0 15 18 31q34 27 76 27zM414 819q6 0 10 -7q34 -55 78 -108q-2 -10 -15 -10l-89 59q-72 -35 -120 -59q-12 0 -10 10 q70 53 132 108q9 7 14 7zM406 635q-98 0 -174.5 -107t-76.5 -260q0 -47 8 -88t26.5 -79.5t54 -60.5t84.5 -22q73 0 131.5 57t88.5 142t30 176q0 41 -7.5 79t-25 77t-53.5 62.5t-86 23.5zM415 665q116 0 186.5 -80t70.5 -203q0 -172 -103 -282.5t-250 -110.5q-118 0 -188 81 t-70 203q0 168 106.5 280t247.5 112z" />
<glyph unicode="&#x1ed7;" horiz-adv-x="414" d="M245 739q28 0 52 -11q4 -1 17 -8t22.5 -9.5t21.5 -2.5q27 0 61 31q7 -2 6 -7q-3 -19 -20 -33q-32 -29 -73 -29q-24 0 -52 13q-1 1 -12 6t-16 7t-15 4t-19 2q-27 0 -61 -32q-6 2 -5 9q3 19 19 32q32 28 74 28zM274 637q5 0 9 -7q32 -54 68 -104q-1 -3 -3 -5t-5 -3.5 t-5 -1.5l-78 58q-65 -35 -104 -58q-4 0 -7 3t-2 7q71 61 115 104q8 7 12 7zM237 403q-58 0 -96.5 -80t-38.5 -165q0 -60 15 -95.5t42 -35.5q39 0 70 41.5t46 96.5t15 108q0 130 -53 130zM251 435q58 0 87.5 -40t29.5 -107q0 -106 -71.5 -199.5t-156.5 -93.5q-58 0 -87 38 t-29 105q0 107 71 202t156 95z" />
<glyph unicode="&#x1ed8;" horiz-adv-x="710" d="M458 851q6 0 10 -7q34 -55 78 -108q-2 -10 -15 -10l-89 59q-72 -35 -120 -59q-12 0 -10 10q70 53 132 108q9 7 14 7zM251 -122q4 21 20 35.5t36 14.5q19 0 30 -14.5t7 -35.5t-20 -35.5t-36 -14.5q-19 0 -30 14.5t-7 35.5zM406 635q-98 0 -174.5 -107t-76.5 -260 q0 -47 8 -88t26.5 -79.5t54 -60.5t84.5 -22q73 0 131.5 57t88.5 142t30 176q0 41 -7.5 79t-25 77t-53.5 62.5t-86 23.5zM415 665q116 0 186.5 -80t70.5 -203q0 -172 -103 -282.5t-250 -110.5q-118 0 -188 81t-70 203q0 168 106.5 280t247.5 112z" />
<glyph unicode="&#x1ed9;" horiz-adv-x="414" d="M291 631q5 0 9 -8q32 -60 68 -116q-2 -11 -13 -11l-78 64q-66 -39 -105 -64q-4 0 -7 3.5t-2 7.5q71 68 116 116q8 8 12 8zM72 -116q4 21 20 35.5t36 14.5q19 0 30 -14.5t7 -35.5t-20.5 -35.5t-36.5 -14.5q-19 0 -29.5 14.5t-6.5 35.5zM237 403q-58 0 -96.5 -80 t-38.5 -165q0 -60 15 -95.5t42 -35.5q39 0 70 41.5t46 96.5t15 108q0 130 -53 130zM251 435q58 0 87.5 -40t29.5 -107q0 -106 -71.5 -199.5t-156.5 -93.5q-58 0 -87 38t-29 105q0 107 71 202t156 95z" />
<glyph unicode="&#x1eda;" horiz-adv-x="710" d="M359 711q-1 0 -3.5 4t-2.5 6q0 5 43.5 43t62.5 50q7 5 27 5q21 0 34.5 -6.5t13.5 -15.5q0 -16 -79.5 -51t-95.5 -35zM406 635q-98 0 -174.5 -107t-76.5 -260q0 -47 8 -88t26.5 -79.5t54 -60.5t84.5 -22q73 0 131.5 57t88.5 142t30 176q0 41 -7.5 79t-25 77t-53.5 62.5 t-86 23.5zM645 592q17 0 29.5 10t12.5 25q0 3 -9 21q-7 16 -7 22q0 17 16.5 27.5t32.5 10.5q12 0 22 -4q10 -17 10 -34q0 -44 -40.5 -76.5t-78.5 -32.5q-9 0 -14 1q53 -75 53 -180q0 -172 -103 -282.5t-250 -110.5q-118 0 -188 81t-70 203q0 168 106.5 280t247.5 112 q72 0 129 -33q2 -1 15 -8.5t15.5 -9t13 -7t15 -7t13 -4t15.5 -3.5t14 -1z" />
<glyph unicode="&#x1edb;" horiz-adv-x="414" d="M237 403q-58 0 -96.5 -80t-38.5 -165q0 -60 15 -95.5t42 -35.5q39 0 70 41.5t46 96.5t15 108q0 130 -53 130zM374 381q30 0 30 26q0 7 -3 19.5t-3 17.5q0 15 11.5 26t27.5 11q17 0 31 -8q4 -12 4 -24q0 -39 -29 -67.5t-67 -28.5q-7 0 -17 2q9 -30 9 -67 q0 -106 -71.5 -199.5t-156.5 -93.5q-58 0 -87 38t-29 105q0 107 71 202t156 95q39 0 69 -21q6 -4 16.5 -14t19 -14.5t18.5 -4.5zM209 502q-2 0 -5 4t-3 6q0 6 42.5 55t52.5 56q14 10 37 10q13 0 26 -7.5t13 -22.5q0 -13 -75 -57t-88 -44z" />
<glyph unicode="&#x1edc;" horiz-adv-x="710" d="M458 710q-16 0 -95.5 35t-79.5 51q0 9 13.5 15.5t34.5 6.5q19 0 27 -5q19 -12 62.5 -50t43.5 -43q0 -2 -2.5 -6t-3.5 -4zM406 635q-98 0 -174.5 -107t-76.5 -260q0 -47 8 -88t26.5 -79.5t54 -60.5t84.5 -22q73 0 131.5 57t88.5 142t30 176q0 41 -7.5 79t-25 77 t-53.5 62.5t-86 23.5zM645 592q17 0 29.5 10t12.5 25q0 3 -9 21q-7 16 -7 22q0 17 16.5 27.5t32.5 10.5q12 0 22 -4q10 -17 10 -34q0 -44 -40.5 -76.5t-78.5 -32.5q-9 0 -14 1q53 -75 53 -180q0 -172 -103 -282.5t-250 -110.5q-118 0 -188 81t-70 203q0 168 106.5 280 t247.5 112q72 0 129 -33q2 -1 15 -8.5t15.5 -9t13 -7t15 -7t13 -4t15.5 -3.5t14 -1z" />
<glyph unicode="&#x1edd;" horiz-adv-x="414" d="M237 403q-58 0 -96.5 -80t-38.5 -165q0 -60 15 -95.5t42 -35.5q39 0 70 41.5t46 96.5t15 108q0 130 -53 130zM374 381q30 0 30 26q0 7 -3 19.5t-3 17.5q0 15 11.5 26t27.5 11q17 0 31 -8q4 -12 4 -24q0 -39 -29 -67.5t-67 -28.5q-7 0 -17 2q9 -30 9 -67 q0 -106 -71.5 -199.5t-156.5 -93.5q-58 0 -87 38t-29 105q0 107 71 202t156 95q39 0 69 -21q6 -4 16.5 -14t19 -14.5t18.5 -4.5zM305 469q-13 0 -88 44t-75 57q0 15 13 22.5t26 7.5q23 0 37 -10q10 -7 52.5 -56t42.5 -55q0 -2 -3 -6t-5 -4z" />
<glyph unicode="&#x1ede;" horiz-adv-x="710" d="M436 841q-32 0 -45 -18q-7 2 -7 11q0 13 24.5 28t48.5 15q30 0 49 -15t19 -33q0 -38 -63 -60q-20 -7 -20 -15q0 -10 6 -19q-9 -9 -21 -9q-21 7 -21 30q0 16 38 32q34 13 34 28q0 25 -42 25zM406 635q-98 0 -174.5 -107t-76.5 -260q0 -47 8 -88t26.5 -79.5t54 -60.5 t84.5 -22q73 0 131.5 57t88.5 142t30 176q0 41 -7.5 79t-25 77t-53.5 62.5t-86 23.5zM645 592q17 0 29.5 10t12.5 25q0 3 -9 21q-7 16 -7 22q0 17 16.5 27.5t32.5 10.5q12 0 22 -4q10 -17 10 -34q0 -44 -40.5 -76.5t-78.5 -32.5q-9 0 -14 1q53 -75 53 -180 q0 -172 -103 -282.5t-250 -110.5q-118 0 -188 81t-70 203q0 168 106.5 280t247.5 112q72 0 129 -33q2 -1 15 -8.5t15.5 -9t13 -7t15 -7t13 -4t15.5 -3.5t14 -1z" />
<glyph unicode="&#x1edf;" horiz-adv-x="414" d="M277 616q-13 0 -24.5 -6t-15.5 -11q-6 2 -6 11q0 12 22 26.5t43 14.5q28 0 45.5 -14.5t17.5 -37.5q0 -8 -2.5 -15t-8 -13t-9.5 -10t-13 -8.5t-12 -6.5t-13 -6l-10 -4q-14 -6 -14 -17q0 -7 5 -15q-8 -8 -19 -8q-18 7 -18 28q0 4 1.5 7.5t3.5 6t6.5 5.5t6.5 4t8.5 3.5 t7.5 3.5q18 8 26.5 15t8.5 19q0 13 -11.5 20.5t-25.5 7.5zM237 403q-58 0 -96.5 -80t-38.5 -165q0 -60 15 -95.5t42 -35.5q39 0 70 41.5t46 96.5t15 108q0 130 -53 130zM374 381q30 0 30 26q0 7 -3 19.5t-3 17.5q0 15 11.5 26t27.5 11q17 0 31 -8q4 -12 4 -24 q0 -39 -29 -67.5t-67 -28.5q-7 0 -17 2q9 -30 9 -67q0 -106 -71.5 -199.5t-156.5 -93.5q-58 0 -87 38t-29 105q0 107 71 202t156 95q39 0 69 -21q6 -4 16.5 -14t19 -14.5t18.5 -4.5z" />
<glyph unicode="&#x1ee0;" horiz-adv-x="710" d="M372 819q36 0 61 -14q42 -24 72 -24q32 0 65 38q6 -2 6 -10q0 -19 -18 -37q-34 -33 -78 -33q-36 0 -61 14q-42 24 -72 24q-32 0 -65 -38q-7 2 -7 10q0 18 19 37q34 33 78 33zM406 635q-98 0 -174.5 -107t-76.5 -260q0 -47 8 -88t26.5 -79.5t54 -60.5t84.5 -22 q73 0 131.5 57t88.5 142t30 176q0 41 -7.5 79t-25 77t-53.5 62.5t-86 23.5zM645 592q17 0 29.5 10t12.5 25q0 3 -9 21q-7 16 -7 22q0 17 16.5 27.5t32.5 10.5q12 0 22 -4q10 -17 10 -34q0 -44 -40.5 -76.5t-78.5 -32.5q-9 0 -14 1q53 -75 53 -180q0 -172 -103 -282.5 t-250 -110.5q-118 0 -188 81t-70 203q0 168 106.5 280t247.5 112q72 0 129 -33q2 -1 15 -8.5t15.5 -9t13 -7t15 -7t13 -4t15.5 -3.5t14 -1z" />
<glyph unicode="&#x1ee1;" horiz-adv-x="414" d="M213 584q30 0 56 -13q4 -2 17.5 -9.5t24 -10.5t23.5 -3q29 0 65 36q7 -2 6 -9q-3 -21 -21 -37q-35 -32 -78 -32q-25 0 -55 14q-2 1 -13.5 7t-17 8t-16 4.5t-20.5 2.5q-29 0 -65 -36q-6 2 -5 10q3 21 20 36q35 32 79 32zM237 403q-58 0 -96.5 -80t-38.5 -165 q0 -60 15 -95.5t42 -35.5q39 0 70 41.5t46 96.5t15 108q0 130 -53 130zM374 381q30 0 30 26q0 7 -3 19.5t-3 17.5q0 15 11.5 26t27.5 11q17 0 31 -8q4 -12 4 -24q0 -39 -29 -67.5t-67 -28.5q-7 0 -17 2q9 -30 9 -67q0 -106 -71.5 -199.5t-156.5 -93.5q-58 0 -87 38t-29 105 q0 107 71 202t156 95q39 0 69 -21q6 -4 16.5 -14t19 -14.5t18.5 -4.5z" />
<glyph unicode="&#x1ee2;" horiz-adv-x="710" d="M251 -122q4 21 20 35.5t36 14.5q19 0 30 -14.5t7 -35.5t-20 -35.5t-36 -14.5q-19 0 -30 14.5t-7 35.5zM406 635q-98 0 -174.5 -107t-76.5 -260q0 -47 8 -88t26.5 -79.5t54 -60.5t84.5 -22q73 0 131.5 57t88.5 142t30 176q0 41 -7.5 79t-25 77t-53.5 62.5t-86 23.5z M645 592q17 0 29.5 10t12.5 25q0 3 -9 21q-7 16 -7 22q0 17 16.5 27.5t32.5 10.5q12 0 22 -4q10 -17 10 -34q0 -44 -40.5 -76.5t-78.5 -32.5q-9 0 -14 1q53 -75 53 -180q0 -172 -103 -282.5t-250 -110.5q-118 0 -188 81t-70 203q0 168 106.5 280t247.5 112q72 0 129 -33 q2 -1 15 -8.5t15.5 -9t13 -7t15 -7t13 -4t15.5 -3.5t14 -1z" />
<glyph unicode="&#x1ee3;" horiz-adv-x="414" d="M72 -116q4 21 20 35.5t36 14.5q19 0 30 -14.5t7 -35.5t-20.5 -35.5t-36.5 -14.5q-19 0 -29.5 14.5t-6.5 35.5zM237 403q-58 0 -96.5 -80t-38.5 -165q0 -60 15 -95.5t42 -35.5q39 0 70 41.5t46 96.5t15 108q0 130 -53 130zM374 381q30 0 30 26q0 7 -3 19.5t-3 17.5 q0 15 11.5 26t27.5 11q17 0 31 -8q4 -12 4 -24q0 -39 -29 -67.5t-67 -28.5q-7 0 -17 2q9 -30 9 -67q0 -106 -71.5 -199.5t-156.5 -93.5q-58 0 -87 38t-29 105q0 107 71 202t156 95q39 0 69 -21q6 -4 16.5 -14t19 -14.5t18.5 -4.5z" />
<glyph unicode="&#x1ee4;" horiz-adv-x="661" d="M215 -115q4 21 20 35.5t36 14.5q19 0 30 -14.5t7 -35.5t-20 -35.5t-36 -14.5q-19 0 -30 14.5t-7 35.5zM218 657q13 0 110 5q3 -4 0.5 -14.5t-6.5 -14.5q-14 0 -39 -4.5t-28 -11.5q-7 -14 -19 -74l-48 -247q-23 -119 5 -176q33 -66 121 -66q78 0 128.5 49t76.5 171l53 271 q10 52 4 69q-3 7 -26.5 13.5t-36.5 6.5q-5 11 4 29q92 -5 100 -5q19 0 34 1t33.5 2t34.5 2q5 -13 -5 -29q-13 0 -42 -6t-35 -14q-13 -17 -22 -68l-53 -270q-29 -146 -98 -213t-181 -67q-106 0 -158 72q-49 70 -27 183l57 292q12 59 10 74q-1 7 -24 11.5t-37 4.5q-2 4 0 14.5 t6 14.5q95 -5 108 -5z" />
<glyph unicode="&#x1ee5;" horiz-adv-x="491" d="M146 -117q4 21 20 35.5t36 14.5q19 0 30 -14.5t7 -35.5t-20.5 -35.5t-36.5 -14.5q-19 0 -29.5 14.5t-6.5 35.5zM292 99q3 15 5.5 28.5t6.5 30t6 28.5q-24 -52 -90 -122t-111 -70q-50 0 -50 72q0 35 14 103l33 154q4 24 4 32q0 25 -10 25q-5 0 -12.5 -4t-14.5 -10t-15 -14 t-13.5 -14t-10.5 -11l-4 -5q-2 0 -6 7.5t-4 11.5q13 22 54 58t72 36q16 0 27.5 -15t11.5 -37q0 -16 -7 -53l-35 -165q-7 -32 -7 -54q0 -43 19 -43t56.5 35.5t74.5 96.5t48 119q3 18 10.5 52.5t11.5 57.5q13 4 31 4q23 0 39 -4l-62 -323q-4 -20 -4 -32q0 -25 10 -25 q5 0 12.5 4t14.5 10t15 14t13.5 14t10.5 11l4 5q2 0 6 -7.5t4 -11.5q-12 -21 -56 -57.5t-75 -36.5q-16 0 -25 14.5t-9 37.5q0 16 7 53z" />
<glyph unicode="&#x1ee6;" horiz-adv-x="661" d="M421 841q-32 0 -45 -18q-7 2 -7 11q0 13 24.5 28t48.5 15q30 0 49 -15t19 -33q0 -38 -63 -60q-20 -7 -20 -15q0 -10 6 -19q-9 -9 -21 -9q-21 7 -21 30q0 16 38 32q34 13 34 28q0 25 -42 25zM218 657q13 0 110 5q3 -4 0.5 -14.5t-6.5 -14.5q-14 0 -39 -4.5t-28 -11.5 q-7 -14 -19 -74l-48 -247q-23 -119 5 -176q33 -66 121 -66q78 0 128.5 49t76.5 171l53 271q10 52 4 69q-3 7 -26.5 13.5t-36.5 6.5q-5 11 4 29q92 -5 100 -5q19 0 34 1t33.5 2t34.5 2q5 -13 -5 -29q-13 0 -42 -6t-35 -14q-13 -17 -22 -68l-53 -270q-29 -146 -98 -213 t-181 -67q-106 0 -158 72q-49 70 -27 183l57 292q12 59 10 74q-1 7 -24 11.5t-37 4.5q-2 4 0 14.5t6 14.5q95 -5 108 -5z" />
<glyph unicode="&#x1ee7;" horiz-adv-x="491" d="M278 616q-13 0 -24.5 -6t-15.5 -11q-6 2 -6 11q0 12 22 26.5t43 14.5q28 0 45.5 -14.5t17.5 -37.5q0 -8 -2.5 -15t-8 -13t-9.5 -10t-13 -8.5t-12 -6.5t-13 -6l-10 -4q-14 -6 -14 -17q0 -7 5 -15q-8 -8 -19 -8q-18 7 -18 28q0 4 1.5 7.5t3.5 6t6.5 5.5t6.5 4t8.5 3.5 t7.5 3.5q18 8 26.5 15t8.5 19q0 13 -11.5 20.5t-25.5 7.5zM292 99q3 15 5.5 28.5t6.5 30t6 28.5q-24 -52 -90 -122t-111 -70q-50 0 -50 72q0 35 14 103l33 154q4 24 4 32q0 25 -10 25q-5 0 -12.5 -4t-14.5 -10t-15 -14t-13.5 -14t-10.5 -11l-4 -5q-2 0 -6 7.5t-4 11.5 q13 22 54 58t72 36q16 0 27.5 -15t11.5 -37q0 -16 -7 -53l-35 -165q-7 -32 -7 -54q0 -43 19 -43t56.5 35.5t74.5 96.5t48 119q3 18 10.5 52.5t11.5 57.5q13 4 31 4q23 0 39 -4l-62 -323q-4 -20 -4 -32q0 -25 10 -25q5 0 12.5 4t14.5 10t15 14t13.5 14t10.5 11l4 5 q2 0 6 -7.5t4 -11.5q-12 -21 -56 -57.5t-75 -36.5q-16 0 -25 14.5t-9 37.5q0 16 7 53z" />
<glyph unicode="&#x1ee8;" horiz-adv-x="661" d="M410 711q-1 0 -3.5 4t-2.5 6q0 5 43.5 43t62.5 50q8 5 27 5q21 0 34.5 -6.5t13.5 -15.5q0 -16 -79.5 -51t-95.5 -35zM641 613q-17 -18 -26 -67l-53 -270q-29 -146 -98 -213t-181 -67q-106 0 -158 72q-49 70 -27 183l57 292q12 59 10 74q-1 7 -24 11.5t-37 4.5 q-2 4 0 14.5t6 14.5q95 -5 108 -5t110 5q3 -4 0.5 -14.5t-6.5 -14.5q-14 0 -39 -4.5t-28 -11.5q-7 -14 -19 -74l-48 -247q-23 -119 5 -176q33 -66 121 -66q78 0 128.5 49t76.5 171l53 271q10 52 4 69q-3 7 -26.5 13.5t-36.5 6.5q-5 11 4 29q92 -5 100 -5q90 0 90 26 q0 3 -9 21q-7 16 -7 22q0 17 16.5 27.5t32.5 10.5q12 0 22 -4q10 -17 10 -34q0 -36 -31.5 -63.5t-68.5 -36.5q-23 -5 -31 -14z" />
<glyph unicode="&#x1ee9;" horiz-adv-x="491" d="M422 435q15 0 28.5 8t13.5 20q0 7 -3 19.5t-3 17.5q0 15 11.5 26t27.5 11q17 0 31 -8q4 -12 4 -24q0 -39 -29 -67.5t-67 -28.5q-15 0 -16 -10l-56 -293q-4 -20 -4 -32q0 -25 10 -25q5 0 12.5 4t14.5 10t15 14t13.5 14t10.5 11l4 5q2 0 6 -7.5t4 -11.5q-12 -21 -56 -57.5 t-75 -36.5q-16 0 -25 14.5t-9 37.5q0 16 7 53q3 15 5.5 28.5t6.5 30t6 28.5q-24 -52 -90 -122t-111 -70q-50 0 -50 72q0 35 14 103l33 154q4 24 4 32q0 25 -10 25q-5 0 -12.5 -4t-14.5 -10t-15 -14t-13.5 -14t-10.5 -11l-4 -5q-2 0 -6 7.5t-4 11.5q13 22 54 58t72 36 q16 0 27.5 -15t11.5 -37q0 -16 -7 -53l-35 -165q-7 -32 -7 -54q0 -43 19 -43t56.5 35.5t74.5 96.5t48 119q3 18 10.5 52.5t11.5 57.5q20 6 66 6zM224 502q-2 0 -5 4t-3 6q0 6 42.5 55t52.5 56q14 10 37 10q13 0 26 -7.5t13 -22.5q0 -13 -75 -57t-88 -44z" />
<glyph unicode="&#x1eea;" horiz-adv-x="661" d="M478 710q-16 0 -95.5 35t-79.5 51q0 9 13.5 15.5t34.5 6.5q19 0 27 -5q19 -12 62.5 -50t43.5 -43q0 -2 -2.5 -6t-3.5 -4zM641 613q-17 -18 -26 -67l-53 -270q-29 -146 -98 -213t-181 -67q-106 0 -158 72q-49 70 -27 183l57 292q12 59 10 74q-1 7 -24 11.5t-37 4.5 q-2 4 0 14.5t6 14.5q95 -5 108 -5t110 5q3 -4 0.5 -14.5t-6.5 -14.5q-14 0 -39 -4.5t-28 -11.5q-7 -14 -19 -74l-48 -247q-23 -119 5 -176q33 -66 121 -66q78 0 128.5 49t76.5 171l53 271q10 52 4 69q-3 7 -26.5 13.5t-36.5 6.5q-5 11 4 29q92 -5 100 -5q90 0 90 26 q0 3 -9 21q-7 16 -7 22q0 17 16.5 27.5t32.5 10.5q12 0 22 -4q10 -17 10 -34q0 -36 -31.5 -63.5t-68.5 -36.5q-23 -5 -31 -14z" />
<glyph unicode="&#x1eeb;" horiz-adv-x="491" d="M422 435q15 0 28.5 8t13.5 20q0 7 -3 19.5t-3 17.5q0 15 11.5 26t27.5 11q17 0 31 -8q4 -12 4 -24q0 -39 -29 -67.5t-67 -28.5q-15 0 -16 -10l-56 -293q-4 -20 -4 -32q0 -25 10 -25q5 0 12.5 4t14.5 10t15 14t13.5 14t10.5 11l4 5q2 0 6 -7.5t4 -11.5q-12 -21 -56 -57.5 t-75 -36.5q-16 0 -25 14.5t-9 37.5q0 16 7 53q3 15 5.5 28.5t6.5 30t6 28.5q-24 -52 -90 -122t-111 -70q-50 0 -50 72q0 35 14 103l33 154q4 24 4 32q0 25 -10 25q-5 0 -12.5 -4t-14.5 -10t-15 -14t-13.5 -14t-10.5 -11l-4 -5q-2 0 -6 7.5t-4 11.5q13 22 54 58t72 36 q16 0 27.5 -15t11.5 -37q0 -16 -7 -53l-35 -165q-7 -32 -7 -54q0 -43 19 -43t56.5 35.5t74.5 96.5t48 119q3 18 10.5 52.5t11.5 57.5q20 6 66 6zM318 469q-13 0 -88 44t-75 57q0 15 13 22.5t26 7.5q23 0 37 -10q10 -7 52.5 -56t42.5 -55q0 -2 -3 -6t-5 -4z" />
<glyph unicode="&#x1eec;" horiz-adv-x="661" d="M421 841q-32 0 -45 -18q-7 2 -7 11q0 13 24.5 28t48.5 15q30 0 49 -15t19 -33q0 -38 -63 -60q-20 -7 -20 -15q0 -10 6 -19q-9 -9 -21 -9q-21 7 -21 30q0 16 38 32q34 13 34 28q0 25 -42 25zM641 613q-17 -18 -26 -67l-53 -270q-29 -146 -98 -213t-181 -67q-106 0 -158 72 q-49 70 -27 183l57 292q12 59 10 74q-1 7 -24 11.5t-37 4.5q-2 4 0 14.5t6 14.5q95 -5 108 -5t110 5q3 -4 0.5 -14.5t-6.5 -14.5q-14 0 -39 -4.5t-28 -11.5q-7 -14 -19 -74l-48 -247q-23 -119 5 -176q33 -66 121 -66q78 0 128.5 49t76.5 171l53 271q10 52 4 69 q-3 7 -26.5 13.5t-36.5 6.5q-5 11 4 29q92 -5 100 -5q90 0 90 26q0 3 -9 21q-7 16 -7 22q0 17 16.5 27.5t32.5 10.5q12 0 22 -4q10 -17 10 -34q0 -36 -31.5 -63.5t-68.5 -36.5q-23 -5 -31 -14z" />
<glyph unicode="&#x1eed;" horiz-adv-x="491" d="M278 616q-13 0 -24.5 -6t-15.5 -11q-6 2 -6 11q0 12 22 26.5t43 14.5q28 0 45.5 -14.5t17.5 -37.5q0 -8 -2.5 -15t-8 -13t-9.5 -10t-13 -8.5t-12 -6.5t-13 -6l-10 -4q-14 -6 -14 -17q0 -7 5 -15q-8 -8 -19 -8q-18 7 -18 28q0 4 1.5 7.5t3.5 6t6.5 5.5t6.5 4t8.5 3.5 t7.5 3.5q18 8 26.5 15t8.5 19q0 13 -11.5 20.5t-25.5 7.5zM422 435q15 0 28.5 8t13.5 20q0 7 -3 19.5t-3 17.5q0 15 11.5 26t27.5 11q17 0 31 -8q4 -12 4 -24q0 -39 -29 -67.5t-67 -28.5q-15 0 -16 -10l-56 -293q-4 -20 -4 -32q0 -25 10 -25q5 0 12.5 4t14.5 10t15 14 t13.5 14t10.5 11l4 5q2 0 6 -7.5t4 -11.5q-12 -21 -56 -57.5t-75 -36.5q-16 0 -25 14.5t-9 37.5q0 16 7 53q3 15 5.5 28.5t6.5 30t6 28.5q-24 -52 -90 -122t-111 -70q-50 0 -50 72q0 35 14 103l33 154q4 24 4 32q0 25 -10 25q-5 0 -12.5 -4t-14.5 -10t-15 -14t-13.5 -14 t-10.5 -11l-4 -5q-2 0 -6 7.5t-4 11.5q13 22 54 58t72 36q16 0 27.5 -15t11.5 -37q0 -16 -7 -53l-35 -165q-7 -32 -7 -54q0 -43 19 -43t56.5 35.5t74.5 96.5t48 119q3 18 10.5 52.5t11.5 57.5q20 6 66 6z" />
<glyph unicode="&#x1eee;" horiz-adv-x="661" d="M375 819q37 0 61 -14q42 -24 72 -24q32 0 65 38q6 -2 6 -10q0 -19 -18 -37q-34 -33 -78 -33q-37 0 -61 14q-42 24 -72 24q-32 0 -65 -38q-7 2 -7 10q0 18 19 37q34 33 78 33zM641 613q-17 -18 -26 -67l-53 -270q-29 -146 -98 -213t-181 -67q-106 0 -158 72 q-49 70 -27 183l57 292q12 59 10 74q-1 7 -24 11.5t-37 4.5q-2 4 0 14.5t6 14.5q95 -5 108 -5t110 5q3 -4 0.5 -14.5t-6.5 -14.5q-14 0 -39 -4.5t-28 -11.5q-7 -14 -19 -74l-48 -247q-23 -119 5 -176q33 -66 121 -66q78 0 128.5 49t76.5 171l53 271q10 52 4 69 q-3 7 -26.5 13.5t-36.5 6.5q-5 11 4 29q92 -5 100 -5q90 0 90 26q0 3 -9 21q-7 16 -7 22q0 17 16.5 27.5t32.5 10.5q12 0 22 -4q10 -17 10 -34q0 -36 -31.5 -63.5t-68.5 -36.5q-23 -5 -31 -14z" />
<glyph unicode="&#x1eef;" horiz-adv-x="491" d="M220 584q30 0 56 -13q4 -2 17.5 -9.5t24 -10.5t23.5 -3q29 0 65 36q7 -2 6 -9q-3 -21 -21 -37q-35 -32 -78 -32q-25 0 -55 14q-2 1 -13.5 7t-17 8t-16 4.5t-20.5 2.5q-29 0 -65 -36q-6 2 -5 10q3 21 20 36q35 32 79 32zM422 435q15 0 28.5 8t13.5 20q0 7 -3 19.5t-3 17.5 q0 15 11.5 26t27.5 11q17 0 31 -8q4 -12 4 -24q0 -39 -29 -67.5t-67 -28.5q-15 0 -16 -10l-56 -293q-4 -20 -4 -32q0 -25 10 -25q5 0 12.5 4t14.5 10t15 14t13.5 14t10.5 11l4 5q2 0 6 -7.5t4 -11.5q-12 -21 -56 -57.5t-75 -36.5q-16 0 -25 14.5t-9 37.5q0 16 7 53 q3 15 5.5 28.5t6.5 30t6 28.5q-24 -52 -90 -122t-111 -70q-50 0 -50 72q0 35 14 103l33 154q4 24 4 32q0 25 -10 25q-5 0 -12.5 -4t-14.5 -10t-15 -14t-13.5 -14t-10.5 -11l-4 -5q-2 0 -6 7.5t-4 11.5q13 22 54 58t72 36q16 0 27.5 -15t11.5 -37q0 -16 -7 -53l-35 -165 q-7 -32 -7 -54q0 -43 19 -43t56.5 35.5t74.5 96.5t48 119q3 18 10.5 52.5t11.5 57.5q20 6 66 6z" />
<glyph unicode="&#x1ef0;" horiz-adv-x="661" d="M215 -115q4 21 20 35.5t36 14.5q19 0 30 -14.5t7 -35.5t-20 -35.5t-36 -14.5q-19 0 -30 14.5t-7 35.5zM641 613q-17 -18 -26 -67l-53 -270q-29 -146 -98 -213t-181 -67q-106 0 -158 72q-49 70 -27 183l57 292q12 59 10 74q-1 7 -24 11.5t-37 4.5q-2 4 0 14.5t6 14.5 q95 -5 108 -5t110 5q3 -4 0.5 -14.5t-6.5 -14.5q-14 0 -39 -4.5t-28 -11.5q-7 -14 -19 -74l-48 -247q-23 -119 5 -176q33 -66 121 -66q78 0 128.5 49t76.5 171l53 271q10 52 4 69q-3 7 -26.5 13.5t-36.5 6.5q-5 11 4 29q92 -5 100 -5q90 0 90 26q0 3 -9 21q-7 16 -7 22 q0 17 16.5 27.5t32.5 10.5q12 0 22 -4q10 -17 10 -34q0 -36 -31.5 -63.5t-68.5 -36.5q-23 -5 -31 -14z" />
<glyph unicode="&#x1ef1;" horiz-adv-x="491" d="M146 -117q4 21 20 35.5t36 14.5q19 0 30 -14.5t7 -35.5t-20.5 -35.5t-36.5 -14.5q-19 0 -29.5 14.5t-6.5 35.5zM422 435q15 0 28.5 8t13.5 20q0 7 -3 19.5t-3 17.5q0 15 11.5 26t27.5 11q17 0 31 -8q4 -12 4 -24q0 -39 -29 -67.5t-67 -28.5q-15 0 -16 -10l-56 -293 q-4 -20 -4 -32q0 -25 10 -25q5 0 12.5 4t14.5 10t15 14t13.5 14t10.5 11l4 5q2 0 6 -7.5t4 -11.5q-12 -21 -56 -57.5t-75 -36.5q-16 0 -25 14.5t-9 37.5q0 16 7 53q3 15 5.5 28.5t6.5 30t6 28.5q-24 -52 -90 -122t-111 -70q-50 0 -50 72q0 35 14 103l33 154q4 24 4 32 q0 25 -10 25q-5 0 -12.5 -4t-14.5 -10t-15 -14t-13.5 -14t-10.5 -11l-4 -5q-2 0 -6 7.5t-4 11.5q13 22 54 58t72 36q16 0 27.5 -15t11.5 -37q0 -16 -7 -53l-35 -165q-7 -32 -7 -54q0 -43 19 -43t56.5 35.5t74.5 96.5t48 119q3 18 10.5 52.5t11.5 57.5q20 6 66 6z" />
<glyph unicode="&#x1ef2;" horiz-adv-x="556" d="M419 726q-16 0 -95.5 35t-79.5 51q0 9 13.5 15.5t34.5 6.5q20 0 27 -5q19 -12 62.5 -50t43.5 -43q0 -2 -2.5 -6t-3.5 -4zM211 116l29 151q2 17 -1 28l-83 253q-15 46 -48 69q-22 16 -49 16q-2 1 -2 6.5t2.5 13t5.5 9.5q113 -5 115 -5q25 0 120 5q1 -5 -1.5 -17t-5.5 -12 q-17 0 -38 -7.5t-24 -24.5q-2 -8 5 -30l81 -240q136 190 175 261q5 7 6 15q1 4 -3.5 9.5t-20 10.5t-39.5 5q-2 2 0 14t4 15q85 -5 93 -5t103 5q0 -3 -3 -16t-5 -13q-60 0 -89 -40l-205 -291q-4 -6 -10 -31l-31 -154q-12 -59 -10 -74q1 -7 24 -11.5t37 -4.5q2 -4 0.5 -14.5 t-5.5 -14.5q-95 5 -108 5q-14 0 -111 -5q-3 4 -0.5 14.5t6.5 14.5q14 0 39 4.5t28 11.5q7 14 19 74z" />
<glyph unicode="&#x1ef3;" horiz-adv-x="447" d="M132 435q30 0 50 -53.5t27.5 -137t9.5 -134.5t2 -95q40 49 77.5 123.5t37.5 146.5q0 59 -25 107q13 43 50 43q44 0 44 -79q0 -110 -86 -252.5t-194.5 -239.5t-175.5 -97q-26 0 -43 12t-17 29q0 32 23 44q11 -7 37 -13t43 -6q79 0 136 83q7 10 11 23t5.5 32t2 29.5t0 34.5 t-0.5 27q0 49 -2.5 99t-9 102t-19 84.5t-29.5 32.5q-5 0 -12.5 -4t-14.5 -10t-15 -14t-13.5 -14t-10.5 -11l-4 -5q-2 0 -6 7.5t-4 11.5q13 22 54 58t72 36zM281 463q-13 0 -88 44t-75 57q0 15 13 22.5t26 7.5q23 0 37 -10q10 -7 52.5 -56t42.5 -55q0 -2 -3 -6t-5 -4z" />
<glyph unicode="&#x1ef4;" horiz-adv-x="556" d="M161 -114q4 21 20 35.5t36 14.5q19 0 30 -14.5t7 -35.5t-20 -35.5t-36 -14.5q-19 0 -30 14.5t-7 35.5zM211 116l29 151q2 17 -1 28l-83 253q-15 46 -48 69q-22 16 -49 16q-2 1 -2 6.5t2.5 13t5.5 9.5q113 -5 115 -5q25 0 120 5q1 -5 -1.5 -17t-5.5 -12q-17 0 -38 -7.5 t-24 -24.5q-2 -8 5 -30l81 -240q136 190 175 261q5 7 6 15q1 4 -3.5 9.5t-20 10.5t-39.5 5q-2 2 0 14t4 15q85 -5 93 -5t103 5q0 -3 -3 -16t-5 -13q-60 0 -89 -40l-205 -291q-4 -6 -10 -31l-31 -154q-12 -59 -10 -74q1 -7 24 -11.5t37 -4.5q2 -4 0.5 -14.5t-5.5 -14.5 q-95 5 -108 5q-14 0 -111 -5q-3 4 -0.5 14.5t6.5 14.5q14 0 39 4.5t28 11.5q7 14 19 74z" />
<glyph unicode="&#x1ef5;" horiz-adv-x="447" d="M209 -150q4 21 20 35.5t36 14.5q19 0 30 -14.5t7 -35.5t-20.5 -35.5t-36.5 -14.5q-19 0 -29.5 14.5t-6.5 35.5zM132 435q30 0 50 -53.5t27.5 -137t9.5 -134.5t2 -95q40 49 77.5 123.5t37.5 146.5q0 59 -25 107q13 43 50 43q44 0 44 -79q0 -110 -86 -252.5t-194.5 -239.5 t-175.5 -97q-26 0 -43 12t-17 29q0 32 23 44q11 -7 37 -13t43 -6q79 0 136 83q7 10 11 23t5.5 32t2 29.5t0 34.5t-0.5 27q0 49 -2.5 99t-9 102t-19 84.5t-29.5 32.5q-5 0 -12.5 -4t-14.5 -10t-15 -14t-13.5 -14t-10.5 -11l-4 -5q-2 0 -6 7.5t-4 11.5q13 22 54 58t72 36z" />
<glyph unicode="&#x1ef6;" horiz-adv-x="556" d="M372 841q-32 0 -45 -18q-7 2 -7 11q0 13 24.5 28t48.5 15q30 0 49 -15t19 -33q0 -38 -63 -60q-20 -7 -20 -15q0 -10 6 -19q-9 -9 -21 -9q-21 7 -21 30q0 16 38 32q34 13 34 28q0 25 -42 25zM211 116l29 151q2 17 -1 28l-83 253q-15 46 -48 69q-22 16 -49 16q-2 1 -2 6.5 t2.5 13t5.5 9.5q113 -5 115 -5q25 0 120 5q1 -5 -1.5 -17t-5.5 -12q-17 0 -38 -7.5t-24 -24.5q-2 -8 5 -30l81 -240q136 190 175 261q5 7 6 15q1 4 -3.5 9.5t-20 10.5t-39.5 5q-2 2 0 14t4 15q85 -5 93 -5t103 5q0 -3 -3 -16t-5 -13q-60 0 -89 -40l-205 -291q-4 -6 -10 -31 l-31 -154q-12 -59 -10 -74q1 -7 24 -11.5t37 -4.5q2 -4 0.5 -14.5t-5.5 -14.5q-95 5 -108 5q-14 0 -111 -5q-3 4 -0.5 14.5t6.5 14.5q14 0 39 4.5t28 11.5q7 14 19 74z" />
<glyph unicode="&#x1ef7;" horiz-adv-x="447" d="M267 616q-13 0 -24.5 -6t-15.5 -11q-6 2 -6 11q0 12 22 26.5t43 14.5q28 0 45.5 -14.5t17.5 -37.5q0 -8 -2.5 -15t-8 -13t-9.5 -10t-13 -8.5t-12 -6.5t-13 -6l-10 -4q-14 -6 -14 -17q0 -7 5 -15q-8 -8 -19 -8q-18 7 -18 28q0 4 1.5 7.5t3.5 6t6.5 5.5t6.5 4t8.5 3.5 t7.5 3.5q18 8 26.5 15t8.5 19q0 13 -11.5 20.5t-25.5 7.5zM132 435q30 0 50 -53.5t27.5 -137t9.5 -134.5t2 -95q40 49 77.5 123.5t37.5 146.5q0 59 -25 107q13 43 50 43q44 0 44 -79q0 -110 -86 -252.5t-194.5 -239.5t-175.5 -97q-26 0 -43 12t-17 29q0 32 23 44 q11 -7 37 -13t43 -6q79 0 136 83q7 10 11 23t5.5 32t2 29.5t0 34.5t-0.5 27q0 49 -2.5 99t-9 102t-19 84.5t-29.5 32.5q-5 0 -12.5 -4t-14.5 -10t-15 -14t-13.5 -14t-10.5 -11l-4 -5q-2 0 -6 7.5t-4 11.5q13 22 54 58t72 36z" />
<glyph unicode="&#x1ef8;" horiz-adv-x="556" d="M311 806q37 0 61 -14q42 -24 72 -24q32 0 65 38q6 -2 6 -10q0 -19 -18 -37q-34 -33 -78 -33q-37 0 -61 14q-42 24 -72 24q-32 0 -65 -38q-7 2 -7 10q0 18 19 37q34 33 78 33zM211 116l29 151q2 17 -1 28l-83 253q-15 46 -48 69q-22 16 -49 16q-2 1 -2 6.5t2.5 13t5.5 9.5 q113 -5 115 -5q25 0 120 5q1 -5 -1.5 -17t-5.5 -12q-17 0 -38 -7.5t-24 -24.5q-2 -8 5 -30l81 -240q136 190 175 261q5 7 6 15q1 4 -3.5 9.5t-20 10.5t-39.5 5q-2 2 0 14t4 15q85 -5 93 -5t103 5q0 -3 -3 -16t-5 -13q-60 0 -89 -40l-205 -291q-4 -6 -10 -31l-31 -154 q-12 -59 -10 -74q1 -7 24 -11.5t37 -4.5q2 -4 0.5 -14.5t-5.5 -14.5q-95 5 -108 5q-14 0 -111 -5q-3 4 -0.5 14.5t6.5 14.5q14 0 39 4.5t28 11.5q7 14 19 74z" />
<glyph unicode="&#x1ef9;" horiz-adv-x="447" d="M208 574q30 0 56 -13q4 -2 17.5 -9.5t24 -10.5t23.5 -3q29 0 65 36q7 -2 6 -9q-3 -21 -21 -37q-35 -32 -78 -32q-25 0 -55 14q-2 1 -13.5 7t-17 8t-16 4.5t-20.5 2.5q-29 0 -65 -36q-6 2 -5 10q3 21 20 36q35 32 79 32zM132 435q30 0 50 -53.5t27.5 -137t9.5 -134.5 t2 -95q40 49 77.5 123.5t37.5 146.5q0 59 -25 107q13 43 50 43q44 0 44 -79q0 -110 -86 -252.5t-194.5 -239.5t-175.5 -97q-26 0 -43 12t-17 29q0 32 23 44q11 -7 37 -13t43 -6q79 0 136 83q7 10 11 23t5.5 32t2 29.5t0 34.5t-0.5 27q0 49 -2.5 99t-9 102t-19 84.5 t-29.5 32.5q-5 0 -12.5 -4t-14.5 -10t-15 -14t-13.5 -14t-10.5 -11l-4 -5q-2 0 -6 7.5t-4 11.5q13 22 54 58t72 36z" />
<glyph unicode="&#x2000;" />
<glyph unicode="&#x2001;" horiz-adv-x="898" />
<glyph unicode="&#x2002;" />
<glyph unicode="&#x2003;" horiz-adv-x="898" />
<glyph unicode="&#x2004;" horiz-adv-x="299" />
<glyph unicode="&#x2005;" horiz-adv-x="224" />
<glyph unicode="&#x2006;" horiz-adv-x="149" />
<glyph unicode="&#x2007;" horiz-adv-x="149" />
<glyph unicode="&#x2008;" horiz-adv-x="112" />
<glyph unicode="&#x2009;" horiz-adv-x="179" />
<glyph unicode="&#x200a;" horiz-adv-x="49" />
<glyph unicode="&#x202f;" horiz-adv-x="179" />
<glyph unicode="&#x205f;" horiz-adv-x="224" />
<glyph unicode="&#x25fc;" horiz-adv-x="435" d="M0 435h435v-435h-435v435z" />
</font>
</defs>
</svg>
