<?xml version="1.0" standalone="no"?>
<!DOCTYPE svg PUBLIC "-//W3C//DTD SVG 1.1//EN" "http://www.w3.org/Graphics/SVG/1.1/DTD/svg11.dtd" >
<svg xmlns="http://www.w3.org/2000/svg" xmlns:xlink="http://www.w3.org/1999/xlink" version="1.1">
<metadata></metadata>
<defs>
<font id="crimsonroman" horiz-adv-x="430" >
<font-face units-per-em="1024" ascent="742" descent="-282" />
<missing-glyph horiz-adv-x="217" />
<glyph horiz-adv-x="0" />
<glyph horiz-adv-x="341" />
<glyph unicode=" "  horiz-adv-x="217" />
<glyph unicode="&#x09;" horiz-adv-x="217" />
<glyph unicode="&#xa0;" horiz-adv-x="217" />
<glyph unicode="&#x400;" horiz-adv-x="589" d="M373 737q0 -9 -6 -9q-19 0 -99 40t-80 63q0 30 46 30q12 0 18 -3q25 -19 73 -67t48 -54zM175 656q45 0 155.5 3.5t167.5 3.5q4 -29 15 -77.5t13 -57.5q-5 -5 -17 -5q-13 0 -14 7q-15 55 -42 70.5t-74 15.5h-67q-86 0 -88 -13q-6 -24 -6 -84v-160q0 -6 43 -6h54h40.5 t26.5 4t18 5t10.5 13t7.5 17.5t7 28.5q1 7 14 7t18 -5v-189q-4 -4 -17 -4q-12 0 -15 7q-7 28 -12 41.5t-8 16t-9 6.5q-11 8 -105 8q-73 0 -73 -9v-155q0 -66 10 -91q3 -10 68 -10h48q92 0 126 17q37 20 63 101q1 6 14 6q18 0 24 -6q-6 -18 -19.5 -54.5t-22.5 -64t-12 -47.5 q-51 0 -161 2t-180 2l-120 -3q-3 3 -3 16t3 13q13 0 38.5 7t30.5 16q7 12 7 94v378q0 58 -7 86q-3 7 -30 14t-39 7q-4 0 -4 13t4 17q52 -2 119 -2z" />
<glyph unicode="&#x401;" horiz-adv-x="589" d="M327 778q0 21 14.5 35.5t35.5 14.5t35.5 -14.5t14.5 -35.5t-14.5 -35.5t-35.5 -14.5t-35.5 14.5t-14.5 35.5zM146 778q0 21 14.5 35.5t35.5 14.5t35.5 -14.5t14.5 -35.5t-14.5 -35.5t-35.5 -14.5t-35.5 14.5t-14.5 35.5zM175 656q45 0 155.5 3.5t167.5 3.5 q4 -29 15 -77.5t13 -57.5q-5 -5 -17 -5q-13 0 -14 7q-15 55 -42 70.5t-74 15.5h-67q-86 0 -88 -13q-6 -24 -6 -84v-160q0 -6 43 -6h54h40.5t26.5 4t18 5t10.5 13t7.5 17.5t7 28.5q1 7 14 7t18 -5v-189q-4 -4 -17 -4q-12 0 -15 7q-7 28 -12 41.5t-8 16t-9 6.5q-11 8 -105 8 q-73 0 -73 -9v-155q0 -66 10 -91q3 -10 68 -10h48q92 0 126 17q37 20 63 101q1 6 14 6q18 0 24 -6q-6 -18 -19.5 -54.5t-22.5 -64t-12 -47.5q-51 0 -161 2t-180 2l-120 -3q-3 3 -3 16t3 13q13 0 38.5 7t30.5 16q7 12 7 94v378q0 58 -7 86q-3 7 -30 14t-39 7q-4 0 -4 13t4 17 q52 -2 119 -2z" />
<glyph unicode="&#x402;" horiz-adv-x="732" d="M456 -170q-9 2 -9 21q154 93 154 280q0 101 -41.5 159.5t-108.5 58.5q-46 0 -95 -17v-216q0 -58 5 -74q2 -7 28 -11.5t41 -4.5q3 -4 3.5 -14.5t-3.5 -14.5q-102 5 -117 5t-118 -5q-4 4 -3.5 14.5t3.5 14.5q15 0 41 4.5t28 11.5q5 16 5 74v510h-129q-36 0 -60.5 -33.5 t-35.5 -88.5q-3 -5 -14 -5q-11 -1 -19 7q14 67 26 172q9 4 23 -3q28 -14 56 -14h391q30 0 60 15q11 6 19 2q12 -105 26 -172q-8 -8 -19 -7q-11 0 -14 5q-11 55 -35.5 88.5t-60.5 33.5h-127v-259q74 30 133 30q96 0 150.5 -69.5t54.5 -170.5q0 -64 -21 -119.5t-57 -95 t-76 -67t-84 -45.5z" />
<glyph unicode="&#x403;" horiz-adv-x="519" d="M-173 756q0 6 48 54t73 67q6 3 18 3q46 0 46 -30q0 -23 -80 -63t-99 -40q-6 0 -6 9zM45 -3q-4 4 -4 14.5t3 14.5q15 0 41 4.5t28 11.5q5 16 5 74v427q0 58 -5 74q-2 7 -28 11.5t-41 4.5q-3 4 -3.5 14.5t3.5 14.5q18 0 56 -1.5t63 -1.5q69 0 165.5 2t148.5 2q3 -20 11 -45 t24.5 -69.5t18.5 -51.5q-6 -6 -25 -6q-12 0 -14 6q-22 73 -63 101q-40 27 -117 27h-30q-58 0 -71 -10q-5 -4 -5 -72v-427q0 -58 5 -74q2 -7 28 -11.5t41 -4.5q3 -4 3.5 -14.5t-3.5 -14.5q-102 5 -117 5t-118 -5z" />
<glyph unicode="&#x404;" horiz-adv-x="678" d="M387 667q115 0 212 -21q23 -138 23 -148q1 -4 -6.5 -8.5t-15.5 -4.5t-12 3q-28 146 -196 146q-101 0 -169 -82.5t-74 -189.5l123 -3q85 0 103 7q5 2 8.5 6t6.5 12t4.5 13t4 17t3.5 17q1 7 15 7q12 0 17 -5v-189q-4 -4 -16 -4q-13 0 -16 8q-7 28 -12 41.5t-8 17t-8 7.5 q-13 8 -106 8q-104 0 -119 -1q7 -122 74.5 -208t184.5 -86q78 0 132 48q45 40 61 116q17 2 32 -8q0 -19 -13 -77.5t-22 -66.5q-80 -45 -215 -45q-145 0 -239.5 96t-94.5 232q0 143 96.5 244t241.5 101z" />
<glyph unicode="&#x405;" horiz-adv-x="502" d="M261 666q22 0 41.5 -2.5t32 -5.5t36 -9.5t41.5 -10.5q7 -44 14 -142q1 -5 -6.5 -8t-14.5 -3t-11 4q-6 47 -44.5 95t-95.5 48q-56 0 -82.5 -34t-26.5 -77q0 -19 7 -36.5t14 -29t25.5 -26.5t27 -21t34 -22t32.5 -20q5 -3 35 -21.5t41 -26t34.5 -27t34 -34.5t20 -37.5 t9.5 -46.5q0 -80 -62.5 -131.5t-146.5 -51.5q-24 0 -51 3.5t-45 7t-45.5 10t-38.5 8.5q-21 103 -21 155q12 12 26 12q9 0 11 -9q3 -15 8.5 -31t19 -39t30.5 -40.5t45.5 -30t62.5 -12.5q51 0 85.5 33t34.5 89q0 20 -6 37t-12.5 28t-23 23.5t-25.5 18.5t-33 19t-33 18 q-29 17 -40.5 24t-38 24.5t-38.5 31t-28 33t-22.5 41.5t-6.5 46q0 77 59 126.5t137 49.5z" />
<glyph unicode="&#x406;" horiz-adv-x="327" d="M163 657q15 0 117 5q4 -4 3.5 -14.5t-3.5 -14.5q-15 0 -41 -4.5t-28 -11.5q-5 -16 -5 -74v-427q0 -58 5 -74q2 -7 28 -11.5t41 -4.5q3 -4 3.5 -14.5t-3.5 -14.5q-102 5 -117 5t-118 -5q-4 4 -3.5 14.5t3.5 14.5q15 0 41 4.5t28 11.5q5 16 5 74v427q0 58 -5 74 q-2 7 -28 11.5t-41 4.5q-3 4 -3.5 14.5t3.5 14.5q103 -5 118 -5z" />
<glyph unicode="&#x407;" horiz-adv-x="327" d="M206 778q0 21 14.5 35.5t35.5 14.5t35.5 -14.5t14.5 -35.5t-14.5 -35.5t-35.5 -14.5t-35.5 14.5t-14.5 35.5zM25 778q0 21 14.5 35.5t35.5 14.5t35.5 -14.5t14.5 -35.5t-14.5 -35.5t-35.5 -14.5t-35.5 14.5t-14.5 35.5zM163 657q15 0 117 5q4 -4 3.5 -14.5t-3.5 -14.5 q-15 0 -41 -4.5t-28 -11.5q-5 -16 -5 -74v-427q0 -58 5 -74q2 -7 28 -11.5t41 -4.5q3 -4 3.5 -14.5t-3.5 -14.5q-102 5 -117 5t-118 -5q-4 4 -3.5 14.5t3.5 14.5q15 0 41 4.5t28 11.5q5 16 5 74v427q0 58 -5 74q-2 7 -28 11.5t-41 4.5q-3 4 -3.5 14.5t3.5 14.5 q103 -5 118 -5z" />
<glyph unicode="&#x408;" horiz-adv-x="316" d="M115 523q0 61 -7 89q-3 7 -29 13.5t-38 6.5q-4 0 -4 14q0 13 4 15q20 0 57.5 -2.5t62.5 -2.5t62.5 2.5t53.5 2.5q2 -4 2 -14q0 -15 -5 -15q-9 0 -35 -7t-28 -13q-9 -36 -9 -93v-434q0 -126 -70.5 -219t-179.5 -93q-11 0 -24 4t-20 8l-8 4q-12 14 -12 37q0 22 18.5 36 t43.5 14q18 0 40.5 -21.5t35.5 -21.5q14 0 28.5 14t28.5 41t23 76.5t9 112.5v446z" />
<glyph unicode="&#x409;" horiz-adv-x="873" d="M184 543q0 55 -6 74q-2 7 -28 11.5t-41 4.5q-3 4 -3.5 14.5t3.5 14.5q146 -4 226 -4q164 0 246 4q4 -4 3.5 -14.5t-3.5 -14.5q-15 0 -41 -4.5t-28 -11.5q-5 -16 -5 -74v-173h93q31 0 60.5 -3.5t66 -14.5t63 -29t45 -50t18.5 -74q0 -92 -67 -148q-63 -52 -210 -54h-230 q-4 4 -3.5 14.5t3.5 14.5q15 0 41 4.5t28 11.5q5 16 5 74v427q0 54 -5 74q-3 12 -88 12q-94 0 -95 -12q-4 -33 -4 -73q-7 -394 -95 -511q-18 -24 -39.5 -36.5t-33.5 -12.5q-43 0 -66 10q-1 2 -0.5 8t2.5 9q63 33 110 121q33 62 55.5 176t22.5 235zM507 332v-217q0 -59 9 -68 q17 -18 79 -18q159 0 159 147q0 156 -186 156h-61z" />
<glyph unicode="&#x40a;" horiz-adv-x="974" d="M607 329v-214q0 -59 9 -68q17 -18 79 -18q159 0 159 145q0 155 -186 155h-61zM520 540q0 58 -5 74q-2 7 -28 11.5t-41 4.5q-3 4 -3.5 16t3.5 16q102 -5 118 -5q14 0 117 5q4 -4 3.5 -16t-3.5 -16q-15 0 -41 -4.5t-28 -11.5q-4 -13 -4 -71l-1 -176h93q40 0 78 -6.5 t80.5 -23t68.5 -52.5t26 -88q0 -90 -67 -146q-63 -52 -210 -54h-230q-4 4 -3.5 14.5t3.5 14.5q15 0 41 4.5t28 11.5q5 16 5 74v213h-155q-146 0 -158 -6l-1 -2v-202q0 -58 5 -74q2 -7 28 -11.5t41 -4.5q3 -4 3.5 -16t-3.5 -16q-102 5 -117 5t-118 -5q-4 4 -3.5 16t3.5 16 q15 0 41 4.5t28 11.5q5 16 5 74v421q0 58 -5 74q-2 7 -28 11.5t-41 4.5q-3 4 -3.5 16t3.5 16q103 -5 118 -5t117 5q4 -4 3.5 -16t-3.5 -16q-15 0 -41 -4.5t-28 -11.5q-5 -16 -5 -74v-171l2 -3q147 -3 157 -3h155v177z" />
<glyph unicode="&#x40b;" horiz-adv-x="748" d="M507 661q30 0 60 15q11 6 19 2q12 -105 26 -172q-8 -8 -19 -7q-11 0 -14 5q-11 55 -35.5 88.5t-60.5 33.5h-127v-290q39 51 87 76.5t87 25.5q79 0 109 -49.5t30 -162.5v-110q0 -58 5 -74q2 -7 28 -11.5t41 -4.5q3 -4 3.5 -14.5t-3.5 -14.5q-103 5 -117 5q-16 0 -118 -5 q-4 4 -3.5 14.5t3.5 14.5q15 0 41 4.5t28 11.5q5 16 5 74v100q0 94 -20 129t-78 35q-33 0 -69.5 -28t-58.5 -71v-165q0 -58 5 -74q2 -7 28 -11.5t41 -4.5q3 -4 3.5 -14.5t-3.5 -14.5q-102 5 -117 5t-118 -5q-4 4 -3.5 14.5t3.5 14.5q15 0 41 4.5t28 11.5q5 16 5 74v510h-129 q-36 0 -60.5 -33.5t-35.5 -88.5q-3 -5 -14 -5q-11 -1 -19 7q14 67 26 172q9 4 23 -3q28 -14 56 -14h391z" />
<glyph unicode="&#x40c;" horiz-adv-x="644" d="M584 671q28 0 51 -15q8 -11 8 -26q0 -22 -12 -41t-37 -19q-8 0 -28 12t-35 12q-30 0 -44 -24q-5 -9 -18.5 -35t-30.5 -55t-35 -54q-38 -53 -94 -82q82 0 134 -61q34 -40 61 -110t52 -100q34 -42 106 -47q3 -5 2 -15.5t-3 -13.5q-96 0 -133 13q-38 14 -63 51 q-5 8 -38 73.5t-64 107.5q-20 27 -35 38.5t-42 22.5q-10 4 -27.5 6t-28 1.5t-14.5 -0.5q-7 -2 -8 -5v-186q0 -58 5 -74q2 -7 28 -11.5t41 -4.5q3 -4 3.5 -16t-3.5 -16q-102 5 -117 5t-118 -5q-4 4 -3.5 16t3.5 16q15 0 41 4.5t28 11.5q5 16 5 74v421q0 58 -5 74 q-2 7 -28 11.5t-41 4.5q-3 4 -3.5 16t3.5 16q102 -5 118 -5q15 0 117 5q4 -4 3.5 -16t-3.5 -16q-15 0 -41 -4.5t-28 -11.5q-5 -16 -5 -74v-192q79 0 134 63q24 28 40.5 51t24 36t20.5 38.5t23 43.5q51 91 134 91zM338 741q0 6 48 54t73 67q6 3 18 3q46 0 46 -30 q0 -23 -80 -63t-99 -40q-6 0 -6 9z" />
<glyph unicode="&#x40d;" horiz-adv-x="721" d="M214 11q0 -12 -2 -14q-64 4 -69 4q-24 0 -52.5 -2t-44.5 -2q-2 4 -2 14q0 15 4 15q10 0 36.5 6.5t28.5 13.5q8 32 8 93v380q0 62 -8 93q-2 7 -28.5 13.5t-36.5 6.5q-4 0 -4 15q0 8 2 14q100 -5 117 -5q5 0 120 5q4 -4 4 -15q0 -14 -4 -14q-14 0 -39.5 -6t-28.5 -14 q-7 -27 -7 -89v-358q0 -26 -4 -72l290 520q9 15 11 28v5q0 14 2 15q64 -4 71 -4q24 0 52.5 2t44.5 2q2 -4 2 -14q0 -15 -4 -15q-10 0 -36.5 -6.5t-28.5 -13.5q-8 -32 -8 -93v-380q0 -62 8 -93q2 -7 28.5 -13.5t36.5 -6.5q4 0 4 -15q0 -8 -2 -14q-100 5 -117 5q-5 0 -120 -5 q-4 4 -4 15q0 14 4 14q14 0 39.5 6t28.5 14q7 27 7 89v358q0 17 2.5 47t2.5 37h-1l-294 -527q-9 -15 -9 -39zM414 741q0 -13 -11 -13q-19 0 -98.5 40t-79.5 63q0 11 12.5 20.5t38.5 9.5q13 0 19 -3q27 -21 73 -65.5t46 -51.5z" />
<glyph unicode="&#x40e;" horiz-adv-x="586" d="M303 714q-51 0 -87 21t-36 56q0 19 13 35t37 11q0 -42 21.5 -69t51.5 -27q31 0 52 26.5t21 69.5q24 5 37 -11t13 -35q0 -35 -36 -56t-87 -21zM82 657q24 0 124 5q2 -4 1.5 -16t-3.5 -13q-7 0 -19.5 -2t-26.5 -10t-14 -21t26 -65q25 -50 82 -166.5t60 -122.5 q36 72 118 267q24 55 24 80q0 14 -15 24t-28.5 12.5t-22.5 2.5q-4 2 -4 13.5t4 15.5q74 -4 104 -4q20 0 35 1t32 2t31 2q2 -4 1 -16.5t-3 -12.5q-11 0 -32 -6.5t-32 -19.5q-14 -17 -52 -101q-31 -68 -56 -123.5t-45 -101t-57 -123.5q-38 -82 -76 -130q-45 -58 -104 -58 q-54 0 -54 49q0 17 14 33q10 0 36 -1.5t36 -0.5t28.5 10.5t35.5 28.5q12 13 34 54l-178 373q-16 33 -56 94q-7 11 -29 17t-35 6q-2 0 -2 13.5t2 15.5q115 -5 116 -5z" />
<glyph unicode="&#x40f;" horiz-adv-x="704" d="M495 49q5 16 5 74v418q0 58 -5 74q-2 7 -28 11.5t-41 4.5q-3 4 -3.5 14.5t3.5 14.5q102 -5 118 -5q14 0 117 5q4 -4 3.5 -14.5t-3.5 -14.5q-15 0 -41 -4.5t-28 -11.5q-5 -16 -5 -74v-427q0 -58 5 -74q2 -7 28 -11.5t41 -4.5q3 -4 3.5 -14.5t-3.5 -14.5q-103 5 -117 5 h-112q-13 0 -25.5 -7.5t-17.5 -20.5q-24 -65 -24 -155q-5 -5 -15 -5t-15 5q0 90 -24 155q-5 13 -18 20.5t-26 7.5h-105q-16 0 -118 -5q-4 4 -3.5 14.5t3.5 14.5q15 0 41 4.5t28 11.5q5 16 5 74v427q0 58 -5 74q-2 7 -28 11.5t-41 4.5q-3 4 -3.5 14.5t3.5 14.5q102 -5 118 -5 q14 0 117 5q4 -4 3.5 -14.5t-3.5 -14.5q-15 0 -41 -4.5t-28 -11.5q-5 -16 -5 -74v-418q0 -58 5 -74q4 -13 140 -13q141 0 145 13z" />
<glyph unicode="&#x410;" horiz-adv-x="627" d="M98 139q132 339 193 495q4 8 17.5 18.5t20.5 10.5q2 0 3 -1q2 -2 3 -2l204 -534l25 -66q6 -15 31 -24.5t37 -9.5q8 -11 2 -29q-100 5 -110 5q-1 0 -116 -5q-4 4 -3.5 14.5t4.5 14.5q41 0 56 13q4 4 4 14q0 13 -17 62t-34 91l-17 42q-3 4 -6 4q-13 1 -99 1q-63 0 -108 -3 l-5 -3q-28 -74 -45 -122q-14 -41 -14 -71q0 -15 26 -21.5t43 -6.5q2 -2 3 -13.5t-1 -15.5q-14 1 -31 2t-31.5 2t-34.5 1t-36 -1t-35 -2t-36 -2q-2 2 -2 13t2 16q13 0 33 5t27 14q21 27 47 94zM294 542l-92 -244q0 -4 2 -4q52 -2 91 -2q37 0 84 3l3 5z" />
<glyph unicode="&#x411;" horiz-adv-x="591" d="M118 543q0 58 -5 74q-2 7 -28 11.5t-41 4.5q-3 4 -3.5 14.5t3.5 14.5q18 0 56 -1.5t63 -1.5q69 0 165.5 2t148.5 2q3 -20 11 -45t24.5 -69.5t18.5 -51.5q-6 -6 -25 -6q-12 0 -14 6q-22 73 -63 101q-40 27 -117 27h-30q-58 0 -71 -10q-6 -5 -6 -72v-173h93q31 0 60.5 -3.5 t66 -14.5t63 -29t45 -50t18.5 -74q0 -92 -67 -148q-63 -52 -210 -54h-230q-4 4 -3.5 14.5t3.5 14.5q15 0 41 4.5t28 11.5q5 16 5 74v427zM205 332v-217q0 -59 9 -68q17 -18 79 -18q159 0 159 147q0 156 -186 156h-61z" />
<glyph unicode="&#x412;" horiz-adv-x="596" d="M205 332v-217q0 -59 9 -68q17 -18 79 -18q159 0 159 147q0 156 -186 156h-61zM205 370h84q63 0 94 34.5t31 82.5q0 66 -41.5 103t-112.5 37q-46 0 -50 -10q-5 -12 -5 -75v-172zM304 659q50 0 93 -12.5t75.5 -47.5t32.5 -89q0 -52 -33.5 -92.5t-67.5 -52.5q-4 -2 0 -5 q45 -2 96 -48t51 -113q0 -92 -67 -148q-63 -52 -210 -54h-230q-4 4 -3.5 14.5t3.5 14.5q15 0 41 4.5t28 11.5q5 16 5 74v427q0 58 -5 74q-2 7 -28 11.5t-41 4.5q-3 4 -3.5 14.5t3.5 14.5q102 -5 118 -5q17 0 63.5 1t78.5 1z" />
<glyph unicode="&#x413;" horiz-adv-x="519" d="M45 -3q-4 4 -4 14.5t3 14.5q15 0 41 4.5t28 11.5q5 16 5 74v427q0 58 -5 74q-2 7 -28 11.5t-41 4.5q-3 4 -3.5 14.5t3.5 14.5q18 0 56 -1.5t63 -1.5q69 0 165.5 2t148.5 2q3 -20 11 -45t24.5 -69.5t18.5 -51.5q-6 -6 -25 -6q-12 0 -14 6q-22 73 -63 101q-40 27 -117 27 h-30q-58 0 -71 -10q-5 -4 -5 -72v-427q0 -58 5 -74q2 -7 28 -11.5t41 -4.5q3 -4 3.5 -14.5t-3.5 -14.5q-102 5 -117 5t-118 -5z" />
<glyph unicode="&#x414;" horiz-adv-x="626" d="M200 543q0 55 -6 74q-2 7 -28 11.5t-41 4.5q-3 4 -3.5 14.5t3.5 14.5q146 -4 226 -4q164 0 246 4q4 -4 3.5 -14.5t-3.5 -14.5q-15 0 -41 -4.5t-28 -11.5q-5 -16 -5 -74v-427q0 -58 5 -74q2 -7 28 -11.5t41 -4.5q3 -4 3.5 -14.5t-3.5 -14.5q-7 -17 -9 -24 q-26 -84 -26 -156q-4 -5 -14.5 -5t-15.5 5q0 90 -24 155q-9 26 -32 26h-158q-4 0 -78 1t-119 1q-25 0 -34 -26q-24 -65 -24 -155q-5 -5 -15 -5t-15 5q0 72 -26 156q-2 7 -9 24q-4 4 -3.5 14.5t3.5 14.5q9 0 31.5 4t28.5 9q55 48 98.5 205t43.5 297zM141 39q0 -11 148 -11 q138 0 142 16q5 16 5 74v425q0 54 -5 74q-3 12 -88 12q-94 0 -95 -12q-4 -33 -4 -73q0 -124 -31.5 -277.5t-71.5 -227.5z" />
<glyph unicode="&#x415;" horiz-adv-x="589" d="M164 656q45 0 155.5 3.5t167.5 3.5q4 -29 15 -77.5t13 -57.5q-5 -5 -17 -5q-13 0 -14 7q-15 55 -42 70.5t-74 15.5h-67q-86 0 -88 -13q-6 -24 -6 -84v-160q0 -6 43 -6h54h40.5t26.5 4t18 5t10.5 13t7.5 17.5t7 28.5q1 7 14 7t18 -5v-189q-4 -4 -17 -4q-11 0 -15 7 q-7 28 -12 41.5t-8 16t-9 6.5q-11 8 -105 8q-73 0 -73 -9v-155q0 -66 10 -91q3 -10 68 -10h48q92 0 126 17q37 20 63 101q2 6 14 6q18 0 24 -6q-6 -18 -19.5 -54.5t-22.5 -64t-12 -47.5q-51 0 -161 2t-180 2l-120 -3q-3 3 -3 16t3 13q13 0 38.5 7t30.5 16q7 12 7 94v378 q0 58 -7 86q-3 7 -30 14t-39 7q-4 0 -4 13t4 17q52 -2 119 -2z" />
<glyph unicode="&#x416;" horiz-adv-x="891" d="M844 671q28 0 51 -15q8 -11 8 -26q0 -22 -12 -41t-37 -19q-8 0 -28 12t-35 12q-30 0 -44 -24q-8 -13 -20 -34.5t-32 -55t-32 -54.5q-35 -60 -73 -82q24 0 43.5 -9.5t28.5 -19t27 -32.5q22 -29 58.5 -105t54.5 -105q26 -41 106 -47q3 -5 2 -15.5t-3 -13.5q-96 0 -133 13 q-44 16 -63 51q-79 146 -102 181q-32 49 -66 60q-34 12 -46 8q-7 -2 -8 -5v-186q0 -58 5 -74q2 -7 28 -11.5t41 -4.5q3 -4 3.5 -16t-3.5 -16q-103 5 -117 5q-16 0 -118 -5q-4 4 -3.5 16t3.5 16q15 0 41 4.5t28 11.5q5 16 5 74v187q-1 2 -7 4q-12 4 -46 -8q-34 -11 -66 -60 q-23 -35 -102 -181q-19 -35 -63 -51q-37 -13 -133 -13q-2 3 -3 13.5t2 15.5q80 6 106 47q18 29 54.5 105t58.5 105q18 23 27 32.5t28.5 19t43.5 9.5q-38 22 -73 82q-12 21 -32 54.5t-32 55t-20 34.5q-14 24 -44 24q-15 0 -35 -12t-28 -12q-25 0 -37 19t-12 41q0 15 8 26 q23 15 51 15q88 0 134 -91q50 -100 111 -182q38 -50 109 -50v192q0 58 -5 74q-2 7 -28 11.5t-41 4.5q-3 4 -3.5 16t3.5 16q102 -5 118 -5q14 0 117 5q4 -4 3.5 -16t-3.5 -16q-15 0 -41 -4.5t-28 -11.5q-5 -16 -5 -74v-192q72 0 110 50q61 82 111 182q46 91 134 91z" />
<glyph unicode="&#x417;" horiz-adv-x="524" d="M248 671q92 0 144.5 -35.5t52.5 -101.5q0 -54 -34 -97t-100 -64q68 -9 117 -59t49 -110q0 -50 -16.5 -88.5t-41 -61t-57 -36.5t-60.5 -19t-56 -5q-97 0 -177 45q-9 8 -22 66.5t-13 77.5q15 10 32 8q16 -74 60 -116q50 -48 119 -48q22 0 43 6.5t43 22.5t35 48t13 77 q0 67 -34.5 103t-90.5 46q-21 4 -80 4q-3 5 -1.5 16t3.5 13q79 2 130 43t51 114q0 59 -37 87.5t-81 28.5q-118 0 -152 -161q-3 -3 -12 -3q-7 0 -14.5 4t-7.5 7l22 151q99 37 173 37z" />
<glyph unicode="&#x418;" horiz-adv-x="756" d="M165 657q15 0 117 5q4 -4 3.5 -14.5t-3.5 -14.5q-15 0 -41 -4.5t-28 -11.5q-5 -16 -5 -74v-388l340 401q0 44 -5 61q-2 7 -28 11.5t-41 4.5q-3 4 -3.5 14.5t3.5 14.5q102 -5 118 -5q14 0 117 5q4 -4 3.5 -14.5t-3.5 -14.5q-15 0 -41 -4.5t-28 -11.5q-5 -16 -5 -74v-427 q0 -58 5 -74q2 -7 28 -11.5t41 -4.5q3 -4 3.5 -14.5t-3.5 -14.5q-103 5 -117 5q-16 0 -118 -5q-4 4 -3.5 14.5t3.5 14.5q15 0 41 4.5t28 11.5q5 16 5 74v383l-340 -401q0 -40 5 -56q2 -7 28 -11.5t41 -4.5q3 -4 3.5 -14.5t-3.5 -14.5q-102 5 -117 5t-118 -5q-4 4 -3.5 14.5 t3.5 14.5q15 0 41 4.5t28 11.5q5 16 5 74v427q0 58 -5 74q-2 7 -28 11.5t-41 4.5q-3 4 -3.5 14.5t3.5 14.5q102 -5 118 -5z" />
<glyph unicode="&#x419;" horiz-adv-x="756" d="M383 714q-51 0 -87 21t-36 56q0 19 13 35t37 11q0 -42 21.5 -69t51.5 -27q31 0 52 26.5t21 69.5q24 5 37 -11t13 -35q0 -35 -36 -56t-87 -21zM165 657q15 0 117 5q4 -4 3.5 -14.5t-3.5 -14.5q-15 0 -41 -4.5t-28 -11.5q-5 -16 -5 -74v-388l340 401q0 44 -5 61 q-2 7 -28 11.5t-41 4.5q-3 4 -3.5 14.5t3.5 14.5q102 -5 118 -5q14 0 117 5q4 -4 3.5 -14.5t-3.5 -14.5q-15 0 -41 -4.5t-28 -11.5q-5 -16 -5 -74v-427q0 -58 5 -74q2 -7 28 -11.5t41 -4.5q3 -4 3.5 -14.5t-3.5 -14.5q-103 5 -117 5q-16 0 -118 -5q-4 4 -3.5 14.5t3.5 14.5 q15 0 41 4.5t28 11.5q5 16 5 74v383l-340 -401q0 -40 5 -56q2 -7 28 -11.5t41 -4.5q3 -4 3.5 -14.5t-3.5 -14.5q-102 5 -117 5t-118 -5q-4 4 -3.5 14.5t3.5 14.5q15 0 41 4.5t28 11.5q5 16 5 74v427q0 58 -5 74q-2 7 -28 11.5t-41 4.5q-3 4 -3.5 14.5t3.5 14.5 q102 -5 118 -5z" />
<glyph unicode="&#x41a;" horiz-adv-x="644" d="M583 671q29 0 51 -15q8 -11 8 -26q0 -22 -12 -41t-37 -19q-8 0 -28 12t-35 12q-30 0 -44 -24q-5 -9 -18.5 -35t-30.5 -55t-35 -54q-38 -53 -94 -82q82 0 134 -61q34 -40 61 -110t52 -100q34 -42 106 -47q3 -5 2 -15.5t-3 -13.5q-96 0 -133 13q-38 14 -63 51 q-5 8 -38 73.5t-64 107.5q-20 27 -35 38.5t-42 22.5q-10 4 -27.5 6t-28 1.5t-14.5 -0.5q-7 -2 -8 -5v-186q0 -58 5 -74q2 -7 28 -11.5t41 -4.5q3 -4 3.5 -16t-3.5 -16q-103 5 -117 5q-16 0 -118 -5q-4 4 -3.5 16t3.5 16q15 0 41 4.5t28 11.5q5 16 5 74v421q0 58 -5 74 q-2 7 -28 11.5t-41 4.5q-3 4 -3.5 16t3.5 16q103 -5 118 -5q14 0 117 5q4 -4 3.5 -16t-3.5 -16q-15 0 -41 -4.5t-28 -11.5q-5 -16 -5 -74v-192q79 0 134 63q24 28 40.5 51t24 36t20.5 38.5t23 43.5q51 91 134 91z" />
<glyph unicode="&#x41b;" horiz-adv-x="627" d="M420 116v427q0 54 -5 74q-3 12 -88 12q-94 0 -95 -12q-4 -33 -4 -73q-7 -394 -95 -511q-18 -24 -39.5 -36.5t-33.5 -12.5q-43 0 -66 10q-1 2 -0.5 8t2.5 9q63 33 110 121q33 62 55.5 176t22.5 235q0 55 -6 74q-2 7 -28 11.5t-41 4.5q-3 4 -3.5 14.5t3.5 14.5 q146 -4 226 -4q164 0 246 4q4 -4 3.5 -14.5t-3.5 -14.5q-15 0 -41 -4.5t-28 -11.5q-5 -16 -5 -74v-427q0 -58 5 -74q2 -7 28 -11.5t41 -4.5q3 -4 3.5 -14.5t-3.5 -14.5q-103 5 -117 5q-16 0 -118 -5q-4 4 -3.5 14.5t3.5 14.5q15 0 41 4.5t28 11.5q5 16 5 74z" />
<glyph unicode="&#x41c;" horiz-adv-x="911" d="M165 657q15 0 32 0.5t35 2t25 1.5q8 -27 40 -108.5t82.5 -205.5t74.5 -186q1 -2 5 -2t5 4q96 231 155 378l40 120q13 0 43 -1.5t41 -1.5q34 0 112 3q3 -6 3 -14q0 -15 -5 -15h-3q-11 0 -29 -6t-27 -13q-11 -9 -11 -68q0 -58 8 -405q1 -57 15 -92q4 -9 30 -15.5t37 -6.5 q4 0 4 -14q0 -9 -2 -15q-100 5 -119 5q-4 0 -119 -5q-4 4 -4 16q0 13 4 13q10 0 30.5 5t29.5 10q11 7 11 43v53l-11 352q-1 16 -5.5 37.5t-9.5 21.5q-2 0 -5 -8l-209 -499q-19 -43 -37 -43q-3 0 -9 2l-230 581q-1 -96 -5 -219.5t-7 -204t-3 -82.5q0 -18 6 -26t36 -15.5 t41 -7.5q4 0 4 -15q0 -8 -2 -14q-100 5 -116 5q-2 0 -117 -5q-5 5 -5 15q0 14 5 14q14 0 41.5 6.5t35.5 15.5q17 17 19 87q2 104 4.5 205t4.5 158.5t2 73.5q0 25 -4 40q-3 7 -34 13.5t-45 6.5q-4 0 -4 15q0 12 4 14q19 0 53 -2t59 -2z" />
<glyph unicode="&#x41d;" horiz-adv-x="719" d="M511 135v176l-2 4q-92 2 -147 2q-154 0 -154 -5v-173q0 -62 8 -93q2 -7 28.5 -13.5t36.5 -6.5q3 0 3.5 -12t-1.5 -17q-100 5 -117 5q-5 0 -120 -5q-4 4 -4 15q0 14 4 14q14 0 39.5 6t28.5 14q7 27 7 89v388q0 61 -7 89q-3 7 -29 13.5t-39 6.5q-4 0 -4 14q0 13 4 15 q20 0 58 -2.5t62 -2.5q25 0 63 2.5t54 2.5q2 -4 1.5 -16.5t-3.5 -12.5q-10 0 -36.5 -6.5t-28.5 -13.5q-8 -32 -8 -93v-150l1 -3q98 -2 153 -2q57 0 147 2q2 2 2 4v153q0 60 -6 89q-3 7 -29 13.5t-39 6.5q-4 0 -4 13t4 16q20 0 58 -2.5t63 -2.5t62 2.5t53 2.5q2 -4 2 -14 q0 -15 -4 -15q-10 0 -36.5 -6.5t-28.5 -13.5q-8 -32 -8 -93v-380q0 -62 8 -93q2 -7 28.5 -13.5t36.5 -6.5q4 0 4 -15q0 -8 -2 -14q-100 5 -115 5q-6 0 -121 -5q-4 4 -4 16.5t4 12.5q14 0 39.5 6t28.5 14q6 28 6 89z" />
<glyph unicode="&#x41e;" horiz-adv-x="748" d="M358 633q-54 0 -96 -25t-66 -66.5t-36 -90.5t-12 -101q0 -80 27 -153t83.5 -123t130.5 -50q54 0 96 25t66 67t36.5 91t12.5 102q0 80 -27.5 152.5t-84 122t-130.5 49.5zM373 667q135 0 230.5 -96t95.5 -243q0 -139 -96.5 -238.5t-229.5 -99.5q-134 0 -229 96t-95 242 q0 140 96 239.5t228 99.5z" />
<glyph unicode="&#x41f;" horiz-adv-x="657" d="M329 658q202 0 284 4q4 -4 3.5 -14.5t-3.5 -14.5q-15 0 -41 -4.5t-28 -11.5q-5 -16 -5 -74v-427q0 -58 5 -74q2 -7 28 -11.5t41 -4.5q3 -4 3.5 -14.5t-3.5 -14.5q-103 5 -117 5q-16 0 -118 -5q-4 4 -3.5 14.5t3.5 14.5q15 0 41 4.5t28 11.5q5 16 5 74v427q0 56 -5 72 q-4 14 -118 14t-118 -14q-5 -16 -5 -72v-427q0 -58 5 -74q2 -7 28 -11.5t41 -4.5q3 -4 3.5 -14.5t-3.5 -14.5q-102 5 -117 5t-118 -5q-4 4 -3.5 14.5t3.5 14.5q15 0 41 4.5t28 11.5q5 16 5 74v427q0 58 -5 74q-2 7 -28 11.5t-41 4.5q-3 4 -3.5 14.5t3.5 14.5q82 -4 284 -4z " />
<glyph unicode="&#x420;" horiz-adv-x="548" d="M517 479q0 -91 -60.5 -146t-159.5 -55q-27 0 -43 8q-14 9 -14 22q0 6 5 5q26 -7 38 -7q62 0 102 41.5t40 114.5q0 77 -42 121t-123 44q-46 0 -50 -10q-5 -12 -5 -75v-426q0 -58 5 -74q2 -7 28 -11.5t41 -4.5q3 -4 3.5 -14.5t-3.5 -14.5q-103 5 -117 5q-16 0 -118 -5 q-4 4 -3.5 14.5t3.5 14.5q15 0 41 4.5t28 11.5q5 16 5 74v427q0 58 -5 74q-2 7 -28 11.5t-41 4.5q-3 4 -3.5 14.5t3.5 14.5q102 -5 118 -5q17 0 63.5 1t78.5 1q85 0 149 -48.5t64 -131.5z" />
<glyph unicode="&#x421;" horiz-adv-x="674" d="M386 667q115 0 212 -21q23 -138 23 -148q1 -4 -6.5 -8.5t-15.5 -4.5q-7 0 -12 3q-28 146 -196 146q-106 0 -175 -89.5t-69 -201.5q0 -81 27.5 -151t88.5 -117.5t144 -47.5q78 0 132 48q45 40 61 116q17 2 32 -8q0 -19 -13 -77.5t-22 -66.5q-80 -45 -215 -45 q-145 0 -239.5 96t-94.5 232q0 143 96.5 244t241.5 101z" />
<glyph unicode="&#x422;" horiz-adv-x="626" d="M508 661q30 0 60 15q12 6 19 2q12 -105 26 -172q-8 -8 -19 -7q-11 0 -14 5q-11 55 -35.5 88.5t-60.5 33.5h-127v-510q0 -58 5 -74q2 -7 28 -11.5t41 -4.5q3 -4 3.5 -14.5t-3.5 -14.5q-103 5 -117 5q-16 0 -118 -5q-4 4 -3.5 14.5t3.5 14.5q15 0 41 4.5t28 11.5q5 16 5 74 v510h-129q-36 0 -60.5 -33.5t-35.5 -88.5q-3 -5 -14 -5q-11 -1 -19 7q14 67 26 172q8 4 23 -3q28 -14 56 -14h391z" />
<glyph unicode="&#x423;" horiz-adv-x="586" d="M96 657q24 0 124 5q2 -4 1.5 -16t-3.5 -13q-7 0 -19.5 -2t-26.5 -10t-14 -21t26 -65q25 -50 82 -166.5t60 -122.5q36 72 118 267q24 55 24 80q0 14 -15 24t-28.5 12.5t-22.5 2.5q-4 2 -4 13.5t4 15.5q74 -4 104 -4q20 0 35 1t32 2t31 2q2 -4 1 -16.5t-3 -12.5 q-11 0 -32 -6.5t-32 -19.5q-14 -17 -52 -101q-31 -68 -56 -123.5t-45 -101t-57 -123.5q-38 -82 -76 -130q-45 -58 -104 -58q-54 0 -54 49q0 17 14 33q10 0 36 -1.5t36 -0.5t28.5 10.5t35.5 28.5q12 13 34 54l-178 373q-16 33 -56 94q-7 11 -29 17t-35 6q-2 0 -2 13.5t2 15.5 q115 -5 116 -5z" />
<glyph unicode="&#x424;" horiz-adv-x="639" d="M319 657q15 0 117 5q4 -4 3.5 -14.5t-3.5 -14.5q-15 0 -41 -4.5t-28 -11.5q-5 -17 -5 -65q98 -9 167 -69t69 -150q0 -91 -68.5 -152t-167.5 -74q0 -51 5 -65q2 -7 28 -11.5t41 -4.5q3 -4 3.5 -14.5t-3.5 -14.5q-102 5 -117 5t-118 -5q-4 4 -3.5 14.5t3.5 14.5 q15 0 41 4.5t28 11.5q5 18 5 64q-96 11 -164.5 71t-68.5 148q0 90 67 150.5t166 74.5q0 52 -5 67q-2 7 -28 11.5t-41 4.5q-3 4 -3.5 14.5t3.5 14.5q102 -5 118 -5zM275 143v372q-65 -15 -107.5 -67t-42.5 -119t42.5 -119t107.5 -67zM362 142q66 14 109.5 66.5t43.5 120.5 t-43.5 120.5t-109.5 66.5v-374z" />
<glyph unicode="&#x425;" horiz-adv-x="668" d="M160 657q28 0 128 5q2 -4 1.5 -16.5t-3.5 -12.5q-18 0 -39 -7.5t-21 -24.5q0 -12 12 -30l116 -178q17 23 55 73t59 78t32 46q4 6 4 16q0 26 -67 26q-3 1 -3.5 12.5t1.5 16.5q67 -5 103 -5q50 0 110 5q3 -3 2.5 -14t-4.5 -15q-8 0 -20.5 -2.5t-34 -12t-34.5 -25.5 q-96 -115 -184 -232l197 -294q13 -20 41.5 -30t56.5 -10q3 -5 2.5 -16t-1.5 -13q-100 5 -103 5q-6 0 -146 -5q-4 4 -4 16.5t4 12.5q14 0 36 8t22 20q0 4 -5 12l-152 235q-140 -187 -166 -235q-5 -15 -5 -16q0 -24 77 -24q3 -4 3.5 -15.5t-1.5 -13.5q-93 5 -113 5 q-23 0 -123 -5q-2 5 -1 15.5t3 13.5q17 0 53 10.5t54 33.5q34 43 65.5 85t68 92.5t62.5 84.5l-141 216q-31 49 -66 69q-27 16 -56 16q-4 0 -4 12.5t4 16.5q123 -5 125 -5z" />
<glyph unicode="&#x426;" horiz-adv-x="689" d="M540 -1l-378 1q-16 0 -118 -5q-4 4 -3.5 14.5t3.5 14.5q15 0 41 4.5t28 11.5q5 16 5 74v427q0 58 -5 74q-2 7 -28 11.5t-41 4.5q-3 4 -3.5 14.5t3.5 14.5q102 -5 118 -5q14 0 117 5q4 -4 3.5 -14.5t-3.5 -14.5q-15 0 -41 -4.5t-28 -11.5q-5 -16 -5 -74v-418q0 -58 5 -74 q4 -13 140 -13q141 0 145 13q5 16 5 74v418q0 58 -5 74q-2 7 -28 11.5t-41 4.5q-3 4 -3.5 14.5t3.5 14.5q102 -5 118 -5q14 0 117 5q4 -4 3.5 -14.5t-3.5 -14.5q-15 0 -41 -4.5t-28 -11.5q-5 -16 -5 -74v-424q0 -58 5 -74q2 -7 28 -11.5t41 -4.5q3 -4 3.5 -14.5t-3.5 -14.5 q-7 -17 -9 -24q-26 -84 -26 -156q-4 -5 -14.5 -5t-15.5 5q0 90 -24 155q-9 26 -32 26z" />
<glyph unicode="&#x427;" horiz-adv-x="623" d="M73 543q0 58 -5 74q-2 7 -28 11.5t-41 4.5q-3 4 -3.5 14.5t3.5 14.5q103 -5 118 -5t117 5q4 -4 3.5 -14.5t-3.5 -14.5q-15 0 -41 -4.5t-28 -11.5q-5 -16 -5 -74v-60q0 -62 40 -116t112 -54q68 0 103 29v201q0 58 -5 74q-2 7 -28 11.5t-41 4.5q-3 4 -3.5 14.5t3.5 14.5 q102 -5 118 -5q15 0 117 5q4 -4 3.5 -14.5t-3.5 -14.5q-15 0 -41 -4.5t-28 -11.5q-5 -16 -5 -74v-427q0 -58 5 -74q2 -7 28 -11.5t41 -4.5q3 -4 3.5 -14.5t-3.5 -14.5q-102 5 -117 5t-118 -5q-4 4 -3.5 14.5t3.5 14.5q15 0 41 4.5t28 11.5q5 16 5 74v183q-43 -31 -137 -31 q-30 0 -62.5 9.5t-66 30.5t-55 63t-21.5 99v73z" />
<glyph unicode="&#x428;" horiz-adv-x="976" d="M816 0h-327h-327q-16 0 -118 -5q-4 4 -3.5 14.5t3.5 14.5q15 0 41 4.5t28 11.5q5 16 5 74v427q0 58 -5 74q-2 7 -28 11.5t-41 4.5q-3 4 -3.5 14.5t3.5 14.5q102 -5 118 -5q14 0 117 5q4 -4 3.5 -14.5t-3.5 -14.5q-15 0 -41 -4.5t-28 -11.5q-5 -16 -5 -74v-418 q0 -58 5 -74q4 -13 113 -13q113 0 117 13q5 16 5 74v418q0 58 -5 74q-2 7 -28 11.5t-41 4.5q-3 4 -3.5 14.5t3.5 14.5q103 -5 118 -5t117 5q4 -4 3.5 -14.5t-3.5 -14.5q-15 0 -41 -4.5t-28 -11.5q-5 -16 -5 -74v-418q0 -58 5 -74q4 -13 113 -13q113 0 117 13q5 16 5 74v418 q0 58 -5 74q-2 7 -28 11.5t-41 4.5q-3 4 -3.5 14.5t3.5 14.5q102 -5 118 -5q14 0 117 5q4 -4 3.5 -14.5t-3.5 -14.5q-15 0 -41 -4.5t-28 -11.5q-5 -16 -5 -74v-427q0 -58 5 -74q2 -7 28 -11.5t41 -4.5q3 -4 3.5 -14.5t-3.5 -14.5q-103 5 -117 5z" />
<glyph unicode="&#x429;" horiz-adv-x="961" d="M816 0h-327h-327q-16 0 -118 -5q-4 4 -3.5 14.5t3.5 14.5q15 0 41 4.5t28 11.5q5 16 5 74v427q0 58 -5 74q-2 7 -28 11.5t-41 4.5q-3 4 -3.5 14.5t3.5 14.5q102 -5 118 -5q14 0 117 5q4 -4 3.5 -14.5t-3.5 -14.5q-15 0 -41 -4.5t-28 -11.5q-5 -16 -5 -74v-418 q0 -58 5 -74q4 -13 113 -13q113 0 117 13q5 16 5 74v418q0 58 -5 74q-2 7 -28 11.5t-41 4.5q-3 4 -3.5 14.5t3.5 14.5q103 -5 118 -5t117 5q4 -4 3.5 -14.5t-3.5 -14.5q-15 0 -41 -4.5t-28 -11.5q-5 -16 -5 -74v-418q0 -58 5 -74q4 -13 113 -13q113 0 117 13q5 16 5 74v418 q0 58 -5 74q-2 7 -28 11.5t-41 4.5q-3 4 -3.5 14.5t3.5 14.5q102 -5 118 -5q14 0 117 5q4 -4 3.5 -14.5t-3.5 -14.5q-15 0 -41 -4.5t-28 -11.5q-5 -16 -5 -74v-427q0 -56 5 -72q2 -7 28 -11.5t41 -4.5q3 -4 3.5 -14.5t-3.5 -14.5q-7 -17 -9 -24q-26 -84 -26 -156 q-4 -5 -14.5 -5t-15.5 5q0 90 -24 155q-10 28 -28 28z" />
<glyph unicode="&#x42a;" horiz-adv-x="760" d="M299 615q-14 10 -71 10q-77 0 -117 -27q-41 -28 -63 -101q-2 -6 -14 -6q-19 0 -25 6q5 13 15.5 41.5t16.5 46t13 40.5t9 38q51 0 133 -2t151 -2q24 0 62 1.5t57 1.5q4 -4 3.5 -14.5t-3.5 -14.5q-15 0 -41 -4.5t-28 -11.5q-5 -16 -5 -74v-173h93q31 0 60.5 -3.5t66 -14.5 t63 -29t45 -50t18.5 -74q0 -92 -67 -148q-63 -52 -210 -54h-230q-4 4 -3.5 14.5t3.5 14.5q15 0 41 4.5t28 11.5q5 16 5 74v427q0 67 -6 72zM392 332v-217q0 -59 9 -68q17 -18 79 -18q159 0 159 147q0 156 -186 156h-61z" />
<glyph unicode="&#x42b;" horiz-adv-x="822" d="M658 657q14 0 117 5q4 -4 3.5 -14.5t-3.5 -14.5q-15 0 -41 -4.5t-28 -11.5q-5 -16 -5 -74v-427q0 -58 5 -74q2 -7 28 -11.5t41 -4.5q3 -4 3.5 -14.5t-3.5 -14.5q-103 5 -117 5q-16 0 -118 -5q-4 4 -3.5 14.5t3.5 14.5q15 0 41 4.5t28 11.5q5 16 5 74v427q0 58 -5 74 q-2 7 -28 11.5t-41 4.5q-3 4 -3.5 14.5t3.5 14.5q103 -5 118 -5zM206 543v-173h93q31 0 60.5 -3.5t66 -14.5t63 -29t45 -50t18.5 -74q0 -92 -67 -148q-63 -52 -210 -54h-230q-4 4 -3.5 14.5t3.5 14.5q15 0 41 4.5t28 11.5q5 16 5 74v427q0 58 -5 74q-2 7 -28 11.5t-41 4.5 q-3 4 -3.5 14.5t3.5 14.5q103 -5 118 -5t117 5q4 -4 3.5 -14.5t-3.5 -14.5q-15 0 -41 -4.5t-28 -11.5q-5 -16 -5 -74zM206 332v-217q0 -59 9 -68q17 -18 79 -18q159 0 159 147q0 156 -186 156h-61z" />
<glyph unicode="&#x42c;" horiz-adv-x="573" d="M206 543v-173h93q31 0 60.5 -3.5t66 -14.5t63 -29t45 -50t18.5 -74q0 -92 -67 -148q-63 -52 -210 -54h-230q-4 4 -3.5 14.5t3.5 14.5q15 0 41 4.5t28 11.5q5 16 5 74v427q0 58 -5 74q-2 7 -28 11.5t-41 4.5q-3 4 -3.5 14.5t3.5 14.5q103 -5 118 -5t117 5q4 -4 3.5 -14.5 t-3.5 -14.5q-15 0 -41 -4.5t-28 -11.5q-5 -16 -5 -74zM206 332v-217q0 -59 9 -68q17 -18 79 -18q159 0 159 147q0 156 -186 156h-61z" />
<glyph unicode="&#x42d;" horiz-adv-x="677" d="M291 667q148 0 243 -94.5t95 -240.5q0 -136 -96.5 -237t-237.5 -101q-135 0 -215 45q-9 8 -22 66.5t-13 77.5q15 10 32 8q16 -76 61 -116q54 -48 132 -48q119 0 189.5 86.5t69.5 207.5q-15 1 -119 1q-93 0 -106 -8q-5 -4 -8 -7.5t-8 -17t-12 -41.5q-3 -8 -16 -8 q-12 0 -16 4v189q5 5 17 5q14 0 15 -7q1 -5 3.5 -17t4 -17t4.5 -13t6.5 -12t8.5 -6q18 -7 103 -7q24 0 44.5 0.5t41.5 1.5t35 1q-9 104 -75.5 188t-165.5 84q-168 0 -196 -146q-4 -3 -12 -3t-15.5 4.5t-6.5 8.5l23 148q97 21 212 21z" />
<glyph unicode="&#x42e;" horiz-adv-x="950" d="M121 522q0 61 -7 89q-3 7 -29 13.5t-39 6.5q-4 0 -4 14q0 13 4 15q18 0 56.5 -2t63.5 -2t64.5 2t52.5 2q2 -4 2 -14q0 -15 -4 -15q-10 0 -36.5 -6.5t-28.5 -13.5q-8 -32 -8 -93v-150h122q12 128 91 213t193 85q123 0 204.5 -98t81.5 -241q0 -141 -81.5 -239t-204.5 -98 q-124 0 -204.5 97t-81.5 238h-120v-186q0 -62 8 -93q2 -7 28.5 -13.5t36.5 -6.5q4 0 4 -15q0 -8 -2 -14q-100 5 -117 5q-5 0 -120 -5q-4 4 -4 15q0 14 4 14q14 0 39.5 6t28.5 14q7 27 7 89v387zM600 624q-54 0 -94.5 -41t-59.5 -102.5t-19 -130.5q0 -127 53.5 -222 t146.5 -95q54 0 95 41.5t60 103t19 131.5q0 126 -53.5 220.5t-147.5 94.5z" />
<glyph unicode="&#x42f;" horiz-adv-x="619" d="M316 659q32 0 78.5 -1t63.5 -1q16 0 118 5q4 -4 3.5 -14.5t-3.5 -14.5q-15 0 -41 -4.5t-28 -11.5q-6 -19 -6 -74v-427q0 -58 5 -74q2 -7 28 -11.5t41 -4.5q3 -4 3.5 -14.5t-3.5 -14.5q-103 5 -118 5t-117 -5q-4 4 -3.5 14.5t3.5 14.5q15 0 41 4.5t28 11.5q5 16 5 74v186 h-53q-22 0 -30 -12q-112 -175 -159 -237q-22 -29 -65 -44q-34 -12 -132 -12q-2 3 -3 13.5t2 15.5q40 3 65.5 17t47.5 43q99 131 162 235q-53 18 -95 65.5t-42 99.5q0 80 64 126.5t140 46.5zM205 477q0 -63 47 -103.5t109 -40.5h53l1 209q0 63 -5 75q-4 10 -50 10 q-80 0 -117.5 -40.5t-37.5 -109.5z" />
<glyph unicode="&#x430;" horiz-adv-x="434" d="M191 46q24 0 55.5 16t31.5 25v136q-77 -23 -93 -29q-61 -24 -61 -78q0 -28 19.5 -49t47.5 -21zM245 436q43 0 76 -40t33 -97v-206q0 -47 31 -47q13 0 33 13q4 0 4 -8q0 -11 -5 -19q-12 -11 -36.5 -24.5t-38.5 -13.5q-21 0 -38.5 20t-22.5 45q-14 -14 -57 -40.5t-66 -26.5 q-50 0 -83.5 33t-33.5 82q0 29 15.5 51t34.5 29q170 61 175 63q8 3 10 7.5t2 17.5v27q0 35 -25.5 65.5t-60.5 30.5q-25 0 -37 -15.5t-18 -46.5q-8 -48 -47 -48q-15 0 -24.5 13t-9.5 29q0 15 7 24q31 29 82 55.5t100 26.5z" />
<glyph unicode="&#x431;" horiz-adv-x="507" d="M330 652q10 3 25.5 8t22.5 7t17 6t17 8t13 9q15 -3 15 -13q0 -6 -20.5 -34.5t-31.5 -37.5q-23 -18 -116 -35q-65 -13 -96 -65q-30 -55 -33 -138l2 -1q61 70 139 70q79 -1 130.5 -60t51.5 -148q0 -110 -61 -172.5t-141 -62.5q-96 0 -150.5 72.5t-54.5 191.5q0 149 81 258 q76 101 190 137zM262 401q-18 0 -41.5 -12.5t-40.5 -34.5q-36 -47 -36 -108q0 -99 37 -160t90 -61q46 0 78 40.5t32 132.5q0 90 -33.5 146.5t-85.5 56.5z" />
<glyph unicode="&#x432;" horiz-adv-x="447" d="M174 217v-134q0 -38 7 -45q11 -11 58 -11q41 0 64.5 25t23.5 63q0 14 -3 27.5t-12.5 32.5t-33 30.5t-59.5 11.5h-45zM216 402q-33 0 -37 -14q-5 -16 -5 -74v-72h52q38 0 56.5 22.5t18.5 54.5q0 83 -85 83zM135 428q20 0 47.5 2t45.5 2q60 0 105.5 -24.5t45.5 -77.5 q0 -34 -25 -58t-52 -33q-2 -2 -1 -3q33 -1 70.5 -31.5t37.5 -74.5q0 -65 -49 -98q-30 -20 -64 -27.5t-111 -7.5h-156q-4 4 -3.5 14.5t3.5 14.5q14 0 37.5 4.5t25.5 11.5q5 16 5 74v198q0 58 -5 74q-2 7 -25.5 11.5t-37.5 4.5q-3 4 -3.5 14.5t3.5 14.5q103 -5 106 -5z" />
<glyph unicode="&#x433;" horiz-adv-x="415" d="M361 435q22 -79 36 -120q-7 -9 -19 -9q-6 0 -9 4q-24 46 -47 70t-55 24h-25q-59 0 -63 -16q-5 -16 -5 -74l1 -198q0 -58 5 -74q2 -7 25.5 -11.5t37.5 -4.5q3 -4 3.5 -14.5t-3.5 -14.5q-103 5 -107 5t-106 -5q-4 4 -4 14.5t3 14.5q14 0 37.5 4.5t25.5 11.5q5 16 5 74v198 q0 58 -5 74q-2 7 -25.5 11.5t-37.5 4.5q-3 4 -3.5 14.5t3.5 14.5q103 -5 106 -5q67 0 226 7z" />
<glyph unicode="&#x434;" horiz-adv-x="457" d="M257 429q93 0 175 4q4 -4 3.5 -14.5t-3.5 -14.5q-14 0 -37.5 -4.5t-25.5 -11.5q-5 -16 -5 -74v-198q0 -58 5 -74q2 -7 25.5 -11.5t37.5 -4.5q3 -3 0 -29q-9 -57 -9 -131q-14 -8 -27 0q-5 60 -10 75q-19 59 -60 59h-206q-41 0 -60 -59q-5 -15 -10 -75q-13 -8 -27 0 q0 51 -10 131q-2 22 2 29q34 3 47 24q77 131 77 322q0 13 -8 18q-14 9 -60 14q-3 3 -3.5 13t3.5 16q100 -4 186 -4zM175 383q0 -148 -58 -339q-2 -6 5 -8q31 -6 80 -6q77 0 80 12q5 16 5 74v195q0 59 -5 75q-4 15 -56 15q-51 0 -51 -18z" />
<glyph unicode="&#x435;" d="M116 285h163q23 0 23 23q0 30 -21 62t-61 32q-37 0 -63 -29t-35 -58.5t-6 -29.5zM111 248v-7q0 -88 47 -136.5t116 -48.5q36 0 65 17.5t45 35.5q1 0 2.5 -1.5t3.5 -5t2 -7.5q0 -8 -6 -18q-19 -31 -56.5 -58t-89.5 -27q-88 0 -144 59.5t-56 148.5q0 96 63.5 167t133.5 71 q42 0 73.5 -15t47 -38.5t22.5 -44t7 -38.5q0 -46 -24 -47q-109 -7 -252 -7z" />
<glyph unicode="&#x436;" horiz-adv-x="669" d="M296 314q0 58 -5 74q-2 7 -25.5 11.5t-37.5 4.5q-3 4 -3.5 14.5t3.5 14.5q103 -5 106 -5q4 0 107 5q4 -4 3.5 -14.5t-3.5 -14.5q-14 0 -37.5 -4.5t-25.5 -11.5q-5 -16 -5 -74v-74q34 1 59 28q19 21 66 95q44 69 101 69q17 0 30 -6q7 -10 7 -22t-11.5 -24t-29.5 -12 q-37 0 -53 -12q-13 -10 -39 -50t-55 -67q40 -15 65 -49q7 -9 40 -68.5t55 -76.5q23 -19 50 -19q7 -12 0 -26q-14 -2 -28 -2q-73 0 -114 48q-17 20 -42.5 65.5t-31.5 53.5q-13 18 -19 25t-19 13t-31 6v-93q0 -58 5 -74q2 -7 25.5 -11.5t37.5 -4.5q3 -4 3.5 -14.5t-3.5 -14.5 q-103 5 -107 5q-3 0 -106 -5q-4 4 -3.5 14.5t3.5 14.5q14 0 37.5 4.5t25.5 11.5q5 16 5 74v93q-18 0 -31 -6t-19 -13t-19 -25q-6 -8 -31.5 -53.5t-42.5 -65.5q-41 -48 -114 -48q-14 0 -28 2q-7 14 0 26q27 0 50 19q22 17 55 76.5t40 68.5q25 34 65 49q-29 27 -55 67t-39 50 q-16 12 -53 12q-18 0 -29.5 12t-11.5 24t7 22q13 6 30 6q57 0 101 -69q47 -74 66 -95q25 -27 59 -28v74z" />
<glyph unicode="&#x437;" horiz-adv-x="375" d="M147 32q45 0 73.5 24t28.5 74q0 40 -33 62.5t-79 22.5h-19q-3 3 -3.5 12t3.5 15h17q49 0 74.5 24.5t25.5 62.5q0 35 -21.5 58.5t-50.5 23.5q-77 0 -97 -98q-3 -3 -10 -3q-11 0 -15 7l14 97q15 4 37.5 11t40 10t44.5 3q61 0 96 -26.5t35 -65.5q0 -67 -76 -99 q46 -9 74.5 -37.5t28.5 -70.5q0 -67 -51 -106.5t-119 -39.5q-47 0 -83.5 20t-49.5 44q-6 12 -6 14q0 3 1.5 5.5t3 4t2.5 1.5q18 -20 49.5 -35t64.5 -15z" />
<glyph unicode="&#x438;" horiz-adv-x="544" d="M175 314v-231l195 314q0 22 3 27q2 6 10 6q3 0 11 -1t15 -1q3 0 106 5q4 -4 3.5 -14.5t-3.5 -14.5q-14 0 -37.5 -4.5t-25.5 -11.5q-5 -16 -5 -74v-198q0 -58 5 -74q2 -7 25.5 -11.5t37.5 -4.5q3 -4 3.5 -14.5t-3.5 -14.5q-103 5 -107 5q-3 0 -106 -5q-4 4 -3.5 14.5 t3.5 14.5q14 0 37.5 4.5t25.5 11.5q5 16 5 74v225l-195 -314q0 -15 -3 -21q-2 -6 -10 -6q-3 0 -11 1t-15 1q-4 0 -106 -5q-4 4 -3.5 14.5t3.5 14.5q14 0 37.5 4.5t25.5 11.5q5 16 5 74v198q0 58 -5 74q-2 7 -25.5 11.5t-37.5 4.5q-3 4 -3.5 14.5t3.5 14.5q102 -5 106 -5 t107 5q4 -4 3.5 -14.5t-3.5 -14.5q-14 0 -37.5 -4.5t-25.5 -11.5q-5 -16 -5 -74z" />
<glyph unicode="&#x439;" horiz-adv-x="544" d="M276 499q-46 0 -79.5 19t-33.5 51q0 17 12 32.5t34 10.5q0 -39 19.5 -63.5t47.5 -24.5t47.5 24.5t19.5 63.5q22 5 34 -10.5t12 -32.5q0 -32 -33.5 -51t-79.5 -19zM175 314v-231l195 314q0 22 3 27q2 6 10 6q3 0 11 -1t15 -1q3 0 106 5q4 -4 3.5 -14.5t-3.5 -14.5 q-14 0 -37.5 -4.5t-25.5 -11.5q-5 -16 -5 -74v-198q0 -58 5 -74q2 -7 25.5 -11.5t37.5 -4.5q3 -4 3.5 -14.5t-3.5 -14.5q-103 5 -107 5q-3 0 -106 -5q-4 4 -3.5 14.5t3.5 14.5q14 0 37.5 4.5t25.5 11.5q5 16 5 74v225l-195 -314q0 -15 -3 -21q-2 -6 -10 -6q-3 0 -11 1t-15 1 q-4 0 -106 -5q-4 4 -3.5 14.5t3.5 14.5q14 0 37.5 4.5t25.5 11.5q5 16 5 74v198q0 58 -5 74q-2 7 -25.5 11.5t-37.5 4.5q-3 4 -3.5 14.5t3.5 14.5q102 -5 106 -5t107 5q4 -4 3.5 -14.5t-3.5 -14.5q-14 0 -37.5 -4.5t-25.5 -11.5q-5 -16 -5 -74z" />
<glyph unicode="&#x43a;" horiz-adv-x="470" d="M97 314q0 58 -5 74q-2 7 -25.5 11.5t-37.5 4.5q-3 4 -3.5 14.5t3.5 14.5q103 -5 106 -5q5 0 107 5q4 -4 3.5 -14.5t-3.5 -14.5q-14 0 -37.5 -4.5t-25.5 -11.5q-5 -16 -5 -74v-74q34 1 59 28q19 21 66 95q44 69 101 69q17 0 30 -6q7 -10 7 -22t-11.5 -24t-29.5 -12 q-37 0 -53 -12q-13 -10 -39 -50t-55 -67q40 -15 65 -49q7 -9 40 -68.5t55 -76.5q23 -19 50 -19q7 -12 0 -26q-14 -2 -28 -2q-73 0 -114 48q-17 20 -42.5 65.5t-31.5 53.5q-13 18 -19 25t-19 13t-31 6v-93q0 -58 5 -74q2 -7 25.5 -11.5t37.5 -4.5q3 -4 3.5 -14.5t-3.5 -14.5 q-102 5 -107 5q-3 0 -106 -5q-4 4 -3.5 14.5t3.5 14.5q14 0 37.5 4.5t25.5 11.5q5 16 5 74v198z" />
<glyph unicode="&#x43b;" horiz-adv-x="459" d="M256 429q93 0 175 4q4 -4 3.5 -14.5t-3.5 -14.5q-14 0 -37.5 -4.5t-25.5 -11.5q-5 -16 -5 -74v-198q0 -58 5 -74q2 -7 25.5 -11.5t37.5 -4.5q3 -4 3.5 -14.5t-3.5 -14.5q-103 5 -107 5t-106 -5q-4 4 -3.5 14.5t3.5 14.5q14 0 37.5 4.5t25.5 11.5q5 16 5 74v195 q0 59 -5 75q-4 15 -56 15q-51 0 -51 -18q0 -166 -31 -278.5t-73 -112.5q-44 0 -61 10q-5 8 0 16q36 24 62 64q40 62 53.5 130.5t13.5 159.5q0 13 -8 18q-14 9 -60 14q-3 3 -3.5 13t3.5 16q100 -4 186 -4z" />
<glyph unicode="&#x43c;" horiz-adv-x="635" d="M550 96q1 -44 11 -54q5 -5 27 -10.5t33 -5.5q3 -4 3.5 -14.5t-3.5 -14.5q-103 5 -107 5t-106 -5q-4 4 -3.5 14.5t3.5 14.5q14 0 37 4.5t26 11.5q4 11 3 53q-2 52 -7 146t-7 125q-10 -25 -64.5 -156.5t-79.5 -193.5q-2 -5 -8.5 -11t-13.5 -7q-2 0 -6 2l-159 365 q-2 -60 -4.5 -135.5t-4.5 -122t-2 -48.5q0 -14 2 -19q3 -6 26.5 -10t34.5 -4q3 -5 2.5 -15t-1.5 -14q-56 4 -76 4q-26 0 -90 -4q-2 2 -2.5 12.5t2.5 16.5q10 0 32 4t26 10q5 8 7 31q11 208 11 284q0 24 -4 30q-11 16 -46 16q-3 3 -2.5 13t2.5 15q64 -4 75 -4q61 0 68 1 q9 -23 43 -100t64 -142l29 -66l15 37q16 37 40 96.5t39 100.5l27 77q48 -4 59 -4q15 0 47.5 2t37.5 2q4 -5 3.5 -15t-3.5 -13q-39 0 -45 -11q-4 -8 -4 -24q1 -24 6 -130t7 -140z" />
<glyph unicode="&#x43d;" horiz-adv-x="545" d="M98 116v198q0 58 -5 74q-2 7 -25.5 11.5t-37.5 4.5q-3 4 -3.5 14.5t3.5 14.5q102 -5 106 -5t107 5q4 -4 3.5 -14.5t-3.5 -14.5q-14 0 -37.5 -4.5t-25.5 -11.5q-5 -16 -5 -74v-82h196v82q0 58 -5 74q-2 7 -25.5 11.5t-37.5 4.5q-3 4 -3.5 14.5t3.5 14.5q102 -5 106 -5 q5 0 107 5q4 -4 3.5 -14.5t-3.5 -14.5q-14 0 -37.5 -4.5t-25.5 -11.5q-5 -16 -5 -74v-198q0 -58 5 -74q2 -7 25.5 -11.5t37.5 -4.5q3 -4 3.5 -14.5t-3.5 -14.5q-102 5 -107 5q-3 0 -106 -5q-4 4 -3.5 14.5t3.5 14.5q14 0 37.5 4.5t25.5 11.5q5 16 5 74v84h-196v-84 q0 -58 5 -74q2 -7 25.5 -11.5t37.5 -4.5q3 -4 3.5 -14.5t-3.5 -14.5q-103 5 -107 5t-106 -5q-4 4 -3.5 14.5t3.5 14.5q14 0 37.5 4.5t25.5 11.5q5 16 5 74z" />
<glyph unicode="&#x43e;" horiz-adv-x="509" d="M243 406q-59 0 -87.5 -50t-28.5 -123q0 -80 38 -143.5t101 -63.5q59 0 87.5 50t28.5 122q0 79 -38 143.5t-101 64.5zM254 439q97 0 155.5 -61.5t58.5 -156.5q0 -97 -60.5 -162.5t-151.5 -65.5q-97 0 -156 62t-59 158q0 97 61 161.5t152 64.5z" />
<glyph unicode="&#x43f;" horiz-adv-x="557" d="M377 116v198q0 61 -7 74q-6 10 -92 10q-88 0 -92 -10q-7 -15 -7 -74v-198q0 -58 5 -74q2 -7 25.5 -11.5t37.5 -4.5q3 -4 3.5 -14.5t-3.5 -14.5q-103 5 -107 5t-106 -5q-4 4 -3.5 14.5t3.5 14.5q14 0 37.5 4.5t25.5 11.5q5 16 5 74v198q0 58 -5 74q-2 7 -25.5 11.5 t-37.5 4.5q-3 4 -3.5 14.5t3.5 14.5q103 -5 243 -5q143 0 245 5q4 -4 3.5 -14.5t-3.5 -14.5q-14 0 -37.5 -4.5t-25.5 -11.5q-5 -16 -5 -74v-198q0 -58 5 -74q2 -7 25.5 -11.5t37.5 -4.5q3 -4 3.5 -14.5t-3.5 -14.5q-102 5 -107 5q-3 0 -106 -5q-4 4 -3.5 14.5t3.5 14.5 q14 0 37.5 4.5t25.5 11.5q5 16 5 74z" />
<glyph unicode="&#x440;" horiz-adv-x="515" d="M295 438q85 0 133 -65.5t48 -140.5q0 -95 -73.5 -167.5t-160.5 -72.5q-35 0 -70 11q-4 -5 -4 -13v-97q0 -58 5 -74q2 -7 25.5 -11.5t37.5 -4.5q3 -4 3.5 -14.5t-3.5 -14.5q-103 5 -107 5q-3 0 -106 -5q-4 4 -3.5 14.5t3.5 14.5q14 0 37.5 4.5t25.5 11.5q5 16 5 74v409 q0 40 -5 52q-7 18 -65 18q-2 2 -2.5 12t2.5 14q85 12 143 42q4 0 7.5 -6t3.5 -10q0 -1 -3.5 -18.5t-3.5 -22.5q0 -4 2 -4q1 0 3 2q24 20 59.5 38.5t62.5 18.5zM252 379q-29 0 -56.5 -14t-27.5 -25v-240q0 -35 30.5 -54t62.5 -19q59 0 95 51.5t36 116.5q0 86 -40 135t-100 49 z" />
<glyph unicode="&#x441;" horiz-adv-x="423" d="M382 386q0 -25 -11.5 -36.5t-26.5 -11.5q-10 0 -20 6.5t-21.5 17t-16.5 13.5q-29 19 -57 19q-43 0 -77.5 -46.5t-34.5 -120.5q0 -84 45 -126.5t117 -42.5q62 0 106 51q1 0 2.5 -1.5t3.5 -5t2 -7.5q0 -8 -6 -18q-19 -31 -56.5 -58t-89.5 -27q-88 0 -145 60.5t-57 141.5 q0 103 79 173.5t164 70.5q54 0 90 -24q10 -10 10 -28z" />
<glyph unicode="&#x442;" horiz-adv-x="454" d="M109 402q-19 0 -33.5 -18.5t-20 -36t-8.5 -34.5q-1 -3 -10 -3q-15 0 -18 5q3 11 9.5 58t6.5 63q0 4 4.5 5.5t9.5 -0.5q34 -10 81 -10h195q47 0 81 10q4 2 9 0.5t5 -5.5q0 -16 6.5 -63t9.5 -58q-3 -5 -18 -5q-9 0 -10 3q-3 17 -8.5 34.5t-20 36t-33.5 18.5h-80v-286 q0 -58 5 -74q2 -7 25.5 -11.5t37.5 -4.5q3 -4 3.5 -14.5t-3.5 -14.5q-102 5 -107 5q-3 0 -106 -5q-4 4 -3.5 14.5t3.5 14.5q14 0 37.5 4.5t25.5 11.5q5 16 5 74v286h-80z" />
<glyph unicode="&#x443;" horiz-adv-x="467" d="M101 425q57 0 100 5q2 -4 0.5 -16.5t-4.5 -12.5q-50 0 -50 -17l2 -4l106 -270q50 133 88 227q6 14 6 32q0 15 -16 23.5t-42 8.5q-4 0 -4 12.5t4 16.5q38 -5 90 -5q34 0 84 5q3 -4 2 -16.5t-4 -12.5q-13 0 -34.5 -8t-29.5 -26q-107 -255 -150 -361q-6 -14 -21.5 -56.5 t-28.5 -70t-29 -51.5q-38 -56 -87 -56q-44 0 -44 43q0 15 12 29q40 0 63 10t51 47q11 14 28 52t20 49q-94 241 -158 379q-10 20 -54 20q-1 0 -1 13.5t1 15.5q48 -5 100 -5z" />
<glyph unicode="&#x444;" horiz-adv-x="634" d="M359 -107q0 -58 5 -74q2 -7 25.5 -11.5t37.5 -4.5q3 -4 3.5 -14.5t-3.5 -14.5q-103 5 -107 5t-106 -5q-4 4 -3.5 14.5t3.5 14.5q14 0 37.5 4.5t25.5 11.5q5 16 5 74v100q-112 1 -176 63t-64 157q0 93 73.5 158.5t166.5 67.5v119q0 40 -5 52q-8 18 -61 18q-1 0 -1.5 6.5 t0 13t2.5 6.5q69 7 142 40q4 0 7.5 -5.5t3.5 -10.5q-11 -32 -11 -87v-152q96 -5 165 -67t69 -151q0 -91 -71.5 -157t-162.5 -71v-100zM282 22v388q-65 -11 -108 -63.5t-44 -120.5q-1 -78 38 -135.5t114 -68.5zM359 407v-384q69 13 107 65t39 123q1 70 -40 124.5t-106 71.5z " />
<glyph unicode="&#x445;" horiz-adv-x="484" d="M125 425q46 0 101 5q5 -20 -2 -29q-40 0 -40 -17q0 -4 5 -12l66 -105q8 13 28.5 41.5t31.5 46.5t11 27q0 7 -8 11.5t-17 5.5t-20 1l-11 1q-2 1 -2 13.5t2 15.5q15 -1 33.5 -2t34 -2t33.5 -1q45 0 80 5q1 -4 0.5 -16.5t-1.5 -12.5q-63 -3 -77 -22q-13 -18 -38.5 -53.5 t-41.5 -58t-20 -27.5l120 -178q25 -36 77 -36q1 0 1.5 -6.5t-0.5 -13.5t-2 -9q-92 5 -94 5q-3 0 -111 -5q-2 5 -1.5 17t2.5 12q42 3 42 18q0 2 -2 6q-52 85 -79 125q-5 -8 -30.5 -45t-41.5 -63q-6 -10 -6 -19q0 -18 50 -22h2.5h2.5t1.5 -6t0 -13.5t-2.5 -9.5q-14 1 -31.5 2 t-32 2t-31.5 1t-31 -1t-32 -2t-31 -2q-2 6 -1 15.5t3 13.5q2 0 12 1.5t13.5 2t12.5 2.5t13 3.5l12 4.5t12.5 6.5t10 8t9.5 10.5q93 134 98 141l-116 173q-14 22 -67 22q-1 0 -1.5 6t0.5 13t2 10q55 -5 99 -5z" />
<glyph unicode="&#x446;" horiz-adv-x="556" d="M277 1q-161 0 -243 -4q-4 4 -3.5 14.5t3.5 14.5q14 0 37.5 4.5t25.5 11.5q5 16 5 74v198q0 58 -5 74q-2 7 -25.5 11.5t-37.5 4.5q-3 4 -3.5 14.5t3.5 14.5q103 -5 106 -5q4 0 107 5q4 -4 3.5 -14.5t-3.5 -14.5q-14 0 -37.5 -4.5t-25.5 -11.5q-5 -16 -5 -74v-198 q0 -59 7 -74q5 -11 92 -11q86 0 92 11q7 13 7 74v198q0 58 -5 74q-2 7 -25.5 11.5t-37.5 4.5q-3 4 -3.5 14.5t3.5 14.5q102 -5 106 -5q5 0 107 5q4 -4 3.5 -14.5t-3.5 -14.5q-14 0 -37.5 -4.5t-25.5 -11.5q-5 -16 -5 -74v-198q0 -58 5 -74q2 -7 25.5 -11.5t37.5 -4.5 q1 -12 0 -26q-9 -57 -9 -131q-14 -8 -27 0q-5 60 -10 75q-18 57 -60 57h-139z" />
<glyph unicode="&#x447;" horiz-adv-x="495" d="M151 314v-20q0 -51 32 -72.5t78 -21.5q35 0 60 11v103q0 58 -5 74q-2 7 -25.5 11.5t-37.5 4.5q-3 4 -3.5 14.5t3.5 14.5q102 -5 106 -5q5 0 107 5q4 -4 3.5 -14.5t-3.5 -14.5q-14 0 -37.5 -4.5t-25.5 -11.5q-5 -16 -5 -74v-198q0 -58 5 -74q2 -7 25.5 -11.5t37.5 -4.5 q3 -4 3.5 -14.5t-3.5 -14.5q-102 5 -107 5q-3 0 -106 -5q-4 4 -3.5 14.5t3.5 14.5q14 0 37.5 4.5t25.5 11.5q5 16 5 74v65q-41 -23 -106 -23q-15 0 -32 3t-37 12t-35.5 22.5t-26 37t-10.5 53.5v28q0 58 -5 74q-2 7 -25.5 11.5t-37.5 4.5q-3 4 -3.5 14.5t3.5 14.5 q103 -5 106 -5q5 0 107 5q4 -4 3.5 -14.5t-3.5 -14.5q-14 0 -37.5 -4.5t-25.5 -11.5q-5 -16 -5 -74z" />
<glyph unicode="&#x448;" horiz-adv-x="743" d="M372 0q-277 0 -338 -3q-4 4 -3.5 14.5t3.5 14.5q14 0 37.5 4.5t25.5 11.5q5 16 5 74v198q0 58 -5 74q-2 7 -25.5 11.5t-37.5 4.5q-3 4 -3.5 14.5t3.5 14.5q103 -5 106 -5q17 0 32.5 1t35.5 2t34 2q4 -4 3.5 -14.5t-3.5 -14.5q-14 0 -35 -4.5t-23 -11.5q-5 -16 -5 -74 v-198q0 -59 7 -74q6 -11 72 -11q64 0 69 11q7 15 7 74v198q0 58 -5 74q-2 7 -23 11.5t-35 4.5q-3 4 -3.5 14.5t3.5 14.5q14 -1 34 -2t35.5 -2t32.5 -1t32.5 1t34.5 2t34 2q4 -4 3.5 -14.5t-3.5 -14.5q-14 0 -35 -4.5t-23 -11.5q-5 -16 -5 -74v-198q0 -58 5 -74q3 -11 73 -11 q63 0 68 11q7 15 7 74v198q0 58 -5 74q-2 7 -23 11.5t-35 4.5q-3 4 -3.5 14.5t3.5 14.5q14 -1 34 -2t35.5 -2t32.5 -1q3 0 106 5q4 -4 3.5 -14.5t-3.5 -14.5q-14 0 -37.5 -4.5t-25.5 -11.5q-5 -16 -5 -74v-198q0 -58 5 -74q2 -7 25.5 -11.5t37.5 -4.5q3 -4 3.5 -14.5 t-3.5 -14.5q-61 3 -337 3z" />
<glyph unicode="&#x449;" horiz-adv-x="743" d="M372 0q-277 0 -338 -3q-4 4 -3.5 14.5t3.5 14.5q14 0 37.5 4.5t25.5 11.5q5 16 5 74v198q0 58 -5 74q-2 7 -25.5 11.5t-37.5 4.5q-3 4 -3.5 14.5t3.5 14.5q103 -5 106 -5q17 0 32.5 1t35.5 2t34 2q4 -4 3.5 -14.5t-3.5 -14.5q-14 0 -35 -4.5t-23 -11.5q-5 -16 -5 -74 v-198q0 -59 7 -74q6 -11 72 -11q64 0 69 11q7 15 7 74v198q0 58 -5 74q-2 7 -23 11.5t-35 4.5q-3 4 -3.5 14.5t3.5 14.5q14 -1 34 -2t35.5 -2t32.5 -1t32.5 1t34.5 2t34 2q4 -4 3.5 -14.5t-3.5 -14.5q-14 0 -35 -4.5t-23 -11.5q-5 -16 -5 -74v-198q0 -58 5 -74q3 -11 73 -11 q63 0 68 11q7 15 7 74v198q0 58 -5 74q-2 7 -23 11.5t-35 4.5q-3 4 -3.5 14.5t3.5 14.5q14 -1 34 -2t35.5 -2t32.5 -1q3 0 106 5q4 -4 3.5 -14.5t-3.5 -14.5q-14 0 -37.5 -4.5t-25.5 -11.5q-5 -16 -5 -74v-198q0 -58 5 -74q2 -7 25.5 -11.5t38.5 -4.5q1 -12 0 -26 q-9 -57 -9 -131q-14 -8 -27 0q-5 60 -10 75q-18 57 -60 57t-108 -0.5t-124 -0.5z" />
<glyph unicode="&#x44a;" horiz-adv-x="571" d="M236 314q0 58 -5 74q-4 16 -63 16h-18q-32 0 -55 -24t-47 -70q-3 -4 -9 -4q-12 0 -19 9q14 41 36 120q159 -7 219 -7q3 0 106 5q4 -4 3.5 -14.5t-3.5 -14.5q-14 0 -37.5 -4.5t-25.5 -11.5q-5 -16 -5 -74v-72h52q87 0 135 -29.5t48 -82.5q0 -65 -49 -98q-30 -20 -64 -27.5 t-111 -7.5h-156q-4 4 -3.5 14.5t3.5 14.5q14 0 37.5 4.5t25.5 11.5q5 16 5 74v198zM313 217v-134q0 -38 7 -45q11 -11 58 -11q41 0 64.5 25t23.5 63q0 14 -3 27.5t-12.5 32.5t-33 30.5t-59.5 11.5h-45z" />
<glyph unicode="&#x44b;" horiz-adv-x="662" d="M487 314q0 58 -5 74q-2 7 -25.5 11.5t-37.5 4.5q-3 4 -3.5 14.5t3.5 14.5q103 -5 106 -5q5 0 107 5q4 -4 3.5 -14.5t-3.5 -14.5q-14 0 -37.5 -4.5t-25.5 -11.5q-5 -16 -5 -74v-198q0 -58 5 -74q2 -7 25.5 -11.5t37.5 -4.5q3 -4 3.5 -14.5t-3.5 -14.5q-102 5 -107 5 q-3 0 -106 -5q-4 4 -3.5 14.5t3.5 14.5q14 0 37.5 4.5t25.5 11.5q5 16 5 74v198zM97 314q0 58 -5 74q-2 7 -25.5 11.5t-37.5 4.5q-3 4 -3.5 14.5t3.5 14.5q103 -5 106 -5q5 0 107 5q4 -4 3.5 -14.5t-3.5 -14.5q-14 0 -37.5 -4.5t-25.5 -11.5q-5 -16 -5 -74v-72h52 q87 0 135 -29.5t48 -82.5q0 -65 -49 -98q-30 -20 -64 -27.5t-111 -7.5h-156q-4 4 -3.5 14.5t3.5 14.5q14 0 37.5 4.5t25.5 11.5q5 16 5 74v198zM174 217v-134q0 -38 7 -45q11 -11 58 -11q41 0 64.5 25t23.5 63q0 14 -3 27.5t-12.5 32.5t-33 30.5t-59.5 11.5h-45z" />
<glyph unicode="&#x44c;" horiz-adv-x="432" d="M97 314q0 58 -5 74q-2 7 -25.5 11.5t-37.5 4.5q-3 4 -3.5 14.5t3.5 14.5q103 -5 106 -5q5 0 107 5q4 -4 3.5 -14.5t-3.5 -14.5q-14 0 -37.5 -4.5t-25.5 -11.5q-5 -16 -5 -74v-72h52q87 0 135 -29.5t48 -82.5q0 -65 -49 -98q-30 -20 -64 -27.5t-111 -7.5h-156 q-4 4 -3.5 14.5t3.5 14.5q14 0 37.5 4.5t25.5 11.5q5 16 5 74v198zM174 217v-134q0 -38 7 -45q11 -11 58 -11q41 0 64.5 25t23.5 63q0 14 -3 27.5t-12.5 32.5t-33 30.5t-59.5 11.5h-45z" />
<glyph unicode="&#x44d;" horiz-adv-x="468" d="M340 233q-8 70 -45.5 122t-102.5 52q-46 0 -78.5 -28t-40.5 -66q-3 -3 -10 -3q-11 0 -15 7l14 97q100 24 167 24q88 0 144 -64t56 -156q0 -107 -70 -166t-157 -59q-94 0 -144 41q-2 2 -11.5 23t-9.5 24q0 4 2 7.5t3.5 4.5t2.5 1q59 -64 147 -64q74 0 112 51t38 120v1 q-171 -4 -198 -4q-3 6 -4 19t3 22q34 0 98 -2.5t99 -3.5z" />
<glyph unicode="&#x44e;" horiz-adv-x="731" d="M479 439q97 0 154.5 -61t57.5 -157q0 -97 -60 -162.5t-150 -65.5q-94 0 -151.5 58t-61.5 149h-94v-84q0 -58 5 -74q2 -7 25.5 -11.5t37.5 -4.5q3 -4 3.5 -14.5t-3.5 -14.5q-102 5 -107 5q-3 0 -106 -5q-4 4 -3.5 14.5t3.5 14.5q14 0 37.5 4.5t25.5 11.5q5 16 5 74v198 q0 58 -5 74q-2 7 -25.5 11.5t-37.5 4.5q-3 4 -3.5 14.5t3.5 14.5q103 -5 106 -5q5 0 107 5q4 -4 3.5 -14.5t-3.5 -14.5q-14 0 -37.5 -4.5t-25.5 -11.5q-5 -16 -5 -74v-82h95q6 90 65 148.5t145 58.5zM468 406q-57 0 -85.5 -50.5t-28.5 -122.5q0 -80 37 -143.5t100 -63.5 q58 0 86 50t28 122q0 80 -37 144t-100 64z" />
<glyph unicode="&#x44f;" horiz-adv-x="475" d="M248 433q61 -3 99 -3l99 3q4 -4 3.5 -14.5t-3.5 -14.5q-14 0 -37.5 -4.5t-25.5 -11.5q-5 -16 -5 -74v-198q0 -58 5 -74q2 -7 25.5 -11.5t37.5 -4.5q3 -4 3.5 -14.5t-3.5 -14.5q-102 5 -107 5q-3 0 -106 -5q-4 4 -3.5 14.5t3.5 14.5q14 0 37.5 4.5t25.5 11.5q5 16 5 74v74 h-26q-9 0 -26.5 -27t-47 -69t-60.5 -68q-36 -30 -99 -30q-17 0 -31 4q-2 1 -1.5 9t3.5 11q31 0 52 15q51 37 118 156q-36 3 -73 35t-37 74q0 41 19.5 70t50.5 41.5t56 17t49 4.5zM301 218v129q0 38 -7 45q-11 11 -51 11q-41 0 -64.5 -25t-23.5 -63q0 -16 2 -27t10 -30 t30.5 -29.5t58.5 -10.5h45z" />
<glyph unicode="&#x450;" d="M145 654q19 0 27 -8q24 -30 60.5 -82.5t36.5 -56.5q0 -13 -9 -13q-11 0 -81 55t-70 76q0 29 36 29zM117 285h163q23 0 23 23q0 30 -21 62t-61 32q-37 0 -63 -29t-35 -58.5t-6 -29.5zM112 248v-7q0 -88 47 -136.5t116 -48.5q36 0 65 17.5t45 35.5q1 0 2.5 -1.5t3.5 -5 t2 -7.5q0 -8 -6 -18q-19 -31 -56.5 -58t-89.5 -27q-88 0 -144 59.5t-56 148.5q0 96 63.5 167t133.5 71q42 0 73.5 -15t47 -38.5t22.5 -44t7 -38.5q0 -46 -24 -47q-108 -7 -252 -7z" />
<glyph unicode="&#x451;" d="M324 592q19 0 32.5 -14t13.5 -33t-14 -32t-33 -13t-33 13.5t-14 32.5t14.5 32.5t33.5 13.5zM141 592q19 0 32.5 -14t13.5 -33t-14 -32t-33 -13t-33 13.5t-14 32.5t14.5 32.5t33.5 13.5zM117 285h163q23 0 23 23q0 30 -21 62t-61 32q-37 0 -63 -29t-35 -58.5t-6 -29.5z M112 248v-7q0 -88 47 -136.5t116 -48.5q36 0 65 17.5t45 35.5q1 0 2.5 -1.5t3.5 -5t2 -7.5q0 -8 -6 -18q-19 -31 -56.5 -58t-89.5 -27q-88 0 -144 59.5t-56 148.5q0 96 63.5 167t133.5 71q42 0 73.5 -15t47 -38.5t22.5 -44t7 -38.5q0 -46 -24 -47q-108 -7 -252 -7z" />
<glyph unicode="&#x452;" horiz-adv-x="520" d="M462 189q0 -49 -14 -96.5t-37.5 -86.5t-55 -73t-65.5 -59.5t-70 -43.5q-4 0 -8.5 6t-3.5 11q79 55 128 141t49 191q0 93 -33.5 147t-91.5 54q-25 0 -60 -23t-35 -32v-209q0 -58 5 -74q2 -7 25.5 -11.5t37.5 -4.5q3 -4 3.5 -14.5t-3.5 -14.5q-102 5 -107 5q-3 0 -106 -5 q-4 4 -3.5 14.5t3.5 14.5q14 0 37.5 4.5t25.5 11.5q5 16 5 74v409h-61q-5 0 -5 12q0 13 6 23h60q0 38 -5 50q-8 18 -61 18q-1 0 -1.5 6.5t0 13t2.5 6.5q69 7 142 40q4 0 7.5 -5.5t3.5 -10.5q-11 -32 -11 -87v-31h128q6 0 6 -8q0 -15 -6 -27h-128v-160q0 -2 3 -2q1 0 3 2 q20 22 61.5 47.5t73.5 25.5q78 0 117 -67.5t39 -181.5z" />
<glyph unicode="&#x453;" horiz-adv-x="415" d="M289 634q36 0 36 -29q0 -21 -70 -76t-81 -55q-9 0 -9 13q0 4 36.5 56.5t60.5 82.5q8 8 27 8zM361 435q22 -79 36 -120q-7 -9 -19 -9q-6 0 -9 4q-24 46 -47 70t-55 24h-25q-59 0 -63 -16q-5 -16 -5 -74l1 -198q0 -58 5 -74q2 -7 25.5 -11.5t37.5 -4.5q3 -4 3.5 -14.5 t-3.5 -14.5q-103 5 -107 5t-106 -5q-4 4 -4 14.5t3 14.5q14 0 37.5 4.5t25.5 11.5q5 16 5 74v198q0 58 -5 74q-2 7 -25.5 11.5t-37.5 4.5q-3 4 -3.5 14.5t3.5 14.5q103 -5 106 -5q67 0 226 7z" />
<glyph unicode="&#x454;" horiz-adv-x="467" d="M126 233q36 1 100 3.5t99 2.5q4 -9 3 -22t-4 -19q-13 0 -197 4q7 -74 48.5 -120.5t114.5 -46.5t133 65q1 0 2.5 -2t3.5 -5.5t2 -7.5q0 -3 -16 -24.5t-19 -24.5q-52 -43 -141 -43q-87 0 -151.5 53t-64.5 154q0 96 67.5 167t147.5 71q20 0 37 -1t33.5 -4t26 -5t28 -7 t27.5 -7q14 -90 14 -97q-4 -7 -15 -7q-7 0 -10 3q-8 39 -45 66.5t-93 27.5q-64 0 -97.5 -50.5t-33.5 -123.5z" />
<glyph unicode="&#x455;" horiz-adv-x="369" d="M197 437q22 0 55.5 -5.5t46.5 -7.5q10 -45 12 -110q0 -5 -10 -5q-11 0 -17 5q-9 34 -32 63t-52 29q-35 0 -53 -17.5t-18 -45.5q0 -13 4 -23.5t8 -17.5t15 -15.5t17 -12.5t21.5 -12.5t21.5 -12.5q2 -1 23 -13.5t27.5 -16.5t23 -17t22.5 -22t12.5 -23.5t6.5 -29.5 q0 -59 -46 -98.5t-108 -39.5q-21 0 -38.5 2.5t-41.5 8.5t-37 8q-6 16 -11.5 50t-5.5 54q8 6 18 6q6 0 9 -2q10 -35 40.5 -65t67.5 -30q32 0 52 19t20 53q0 18 -6 32t-21 26t-26.5 19t-34.5 19.5t-34 18.5q-76 44 -76 107q0 54 43.5 88t101.5 34z" />
<glyph unicode="&#x456;" horiz-adv-x="266" d="M177 325v-209q0 -58 5 -74q2 -7 25.5 -11.5t37.5 -4.5q3 -4 3.5 -14.5t-3.5 -14.5q-103 5 -107 5t-106 -5q-4 4 -3.5 14.5t3.5 14.5q14 0 37.5 4.5t25.5 11.5q5 16 5 74v186q0 40 -5 52q-7 18 -65 18q-2 2 -2.5 12t2.5 14q85 12 143 42q4 0 7.5 -6t3.5 -10q-7 -49 -7 -66 v-33zM81 593q0 21 14.5 35.5t35.5 14.5t35.5 -14.5t14.5 -35.5t-14.5 -35.5t-35.5 -14.5t-35.5 14.5t-14.5 35.5z" />
<glyph unicode="&#x457;" horiz-adv-x="270" d="M206 595q20 0 34.5 -15t14.5 -35t-15 -34t-35 -14t-35 14.5t-15 34.5t15.5 34.5t35.5 14.5zM46 595q20 0 34.5 -15t14.5 -35t-15 -34t-35 -14t-35 14.5t-15 34.5t15.5 34.5t35.5 14.5zM168 325v-209q0 -58 5 -74q2 -7 25.5 -11.5t37.5 -4.5q3 -4 3.5 -14.5t-3.5 -14.5 q-102 5 -107 5q-3 0 -106 -5q-4 4 -3.5 14.5t3.5 14.5q14 0 37.5 4.5t25.5 11.5q5 16 5 74v186q0 40 -5 52q-7 18 -65 18q-2 2 -2.5 12t2.5 14q85 12 143 42q4 0 7.5 -6t3.5 -10q-7 -49 -7 -66v-33z" />
<glyph unicode="&#x458;" horiz-adv-x="239" d="M92 45v257q0 40 -5 52q-7 18 -65 18q-2 2 -2.5 12t2.5 14q85 12 143 42q4 0 7.5 -6t3.5 -10q-7 -49 -7 -66v-34v-256q0 -68 -17 -123t-45 -89t-55 -54.5t-56 -32.5q-9 6 -13 15q-2 5 0 7q35 25 55 47.5t37 75.5t17 131zM66 593q0 21 14.5 35.5t35.5 14.5t35.5 -14.5 t14.5 -35.5t-14.5 -35.5t-35.5 -14.5t-35.5 14.5t-14.5 35.5z" />
<glyph unicode="&#x459;" horiz-adv-x="620" d="M256 429q93 0 175 4q4 -4 3.5 -14.5t-3.5 -14.5q-14 0 -37.5 -4.5t-25.5 -11.5q-5 -16 -5 -74v-72h52q87 0 135 -29.5t48 -82.5q0 -65 -49 -98q-30 -20 -64 -27.5t-111 -7.5h-156q-2 4 -2.5 14.5t2.5 14.5q14 0 37.5 4.5t25.5 11.5q5 16 5 74v195q0 59 -5 75 q-4 15 -56 15q-51 0 -51 -18q0 -166 -31 -278.5t-73 -112.5q-44 0 -61 10q-5 8 0 16q36 24 62 64q40 62 53.5 130.5t13.5 159.5q0 13 -8 18q-14 9 -60 14q-3 3 -3.5 13t3.5 16q100 -4 186 -4zM363 217v-134q0 -38 7 -45q11 -11 58 -11q41 0 64.5 25t23.5 63q0 14 -3 27.5 t-12.5 32.5t-33 30.5t-59.5 11.5h-45z" />
<glyph unicode="&#x45a;" horiz-adv-x="705" d="M302 26q14 0 37.5 4.5t25.5 11.5q5 16 5 74v87h-196v-87q0 -58 5 -74q2 -7 25.5 -11.5t37.5 -4.5q3 -4 3.5 -14.5t-3.5 -14.5q-102 5 -107 5q-3 0 -106 -5q-4 4 -3.5 14.5t3.5 14.5q14 0 37.5 4.5t25.5 11.5q5 16 5 74v198q0 58 -5 74q-2 7 -25.5 11.5t-37.5 4.5 q-3 4 -3.5 14.5t3.5 14.5q103 -5 106 -5q5 0 107 5q4 -4 3.5 -14.5t-3.5 -14.5q-14 0 -37.5 -4.5t-25.5 -11.5q-5 -16 -5 -74v-79h196v79q0 58 -5 74q-2 7 -25.5 11.5t-37.5 4.5q-3 4 -3.5 14.5t3.5 14.5q103 -5 106 -5q4 0 107 5q4 -4 3.5 -14.5t-3.5 -14.5 q-14 0 -37.5 -4.5t-25.5 -11.5q-7 -22 -5 -74v-79h52q183 0 183 -106q0 -64 -49 -97q-30 -20 -64 -27.5t-111 -7.5h-156q-2 4 -2.5 14.5t2.5 14.5zM447 210v-127q0 -38 7 -45q11 -11 58 -11q41 0 64.5 24.5t23.5 62.5q0 14 -3 26.5t-12.5 30.5t-33 28.5t-59.5 10.5h-45z" />
<glyph unicode="&#x45b;" horiz-adv-x="515" d="M29 560h265q6 0 6 -8q0 -15 -6 -27h-266q-5 0 -5 12q0 13 6 23zM307 438q77 0 103 -48t26 -164v-110q0 -58 5 -74q2 -7 25.5 -11.5t37.5 -4.5q3 -4 3.5 -14.5t-3.5 -14.5q-102 5 -107 5q-3 0 -106 -5q-4 4 -3.5 14.5t3.5 14.5q14 0 37.5 4.5t25.5 11.5q5 16 5 74v100 q0 94 -20 129t-78 35q-25 0 -60 -23t-35 -32v-209q0 -58 5 -74q2 -7 25.5 -11.5t37.5 -4.5q3 -4 3.5 -14.5t-3.5 -14.5q-102 5 -107 5q-3 0 -106 -5q-4 4 -3.5 14.5t3.5 14.5q14 0 37.5 4.5t25.5 11.5q5 16 5 74v442q0 40 -5 52q-8 18 -61 18q-1 0 -1.5 6.5t0 13t2.5 6.5 q69 7 142 40q4 0 7.5 -5.5t3.5 -10.5q-11 -32 -11 -87v-226q0 -2 3 -2q1 0 3 2q20 22 61.5 47.5t73.5 25.5z" />
<glyph unicode="&#x45c;" horiz-adv-x="470" d="M313 634q36 0 36 -29q0 -21 -70 -76t-81 -55q-9 0 -9 13q0 4 36.5 56.5t60.5 82.5q8 8 27 8zM97 314q0 58 -5 74q-2 7 -25.5 11.5t-37.5 4.5q-3 4 -3.5 14.5t3.5 14.5q103 -5 106 -5q5 0 107 5q4 -4 3.5 -14.5t-3.5 -14.5q-14 0 -37.5 -4.5t-25.5 -11.5q-5 -16 -5 -74 v-74q34 1 59 28q19 21 66 95q44 69 101 69q17 0 30 -6q7 -10 7 -22t-11.5 -24t-29.5 -12q-37 0 -53 -12q-13 -10 -39 -50t-55 -67q40 -15 65 -49q7 -9 40 -68.5t55 -76.5q23 -19 50 -19q7 -12 0 -26q-14 -2 -28 -2q-73 0 -114 48q-17 20 -42.5 65.5t-31.5 53.5 q-13 18 -19 25t-19 13t-31 6v-93q0 -58 5 -74q2 -7 25.5 -11.5t37.5 -4.5q3 -4 3.5 -14.5t-3.5 -14.5q-102 5 -107 5q-3 0 -106 -5q-4 4 -3.5 14.5t3.5 14.5q14 0 37.5 4.5t25.5 11.5q5 16 5 74v198z" />
<glyph unicode="&#x45d;" horiz-adv-x="544" d="M190 634q19 0 27 -8q24 -30 60.5 -82.5t36.5 -56.5q0 -13 -9 -13q-11 0 -81 55t-70 76q0 29 36 29zM175 314v-231l195 314q0 22 3 27q2 6 10 6q3 0 11 -1t15 -1q3 0 106 5q4 -4 3.5 -14.5t-3.5 -14.5q-14 0 -37.5 -4.5t-25.5 -11.5q-5 -16 -5 -74v-198q0 -58 5 -74 q2 -7 25.5 -11.5t37.5 -4.5q3 -4 3.5 -14.5t-3.5 -14.5q-103 5 -107 5q-3 0 -106 -5q-4 4 -3.5 14.5t3.5 14.5q14 0 37.5 4.5t25.5 11.5q5 16 5 74v225l-195 -314q0 -15 -3 -21q-2 -6 -10 -6q-3 0 -11 1t-15 1q-4 0 -106 -5q-4 4 -3.5 14.5t3.5 14.5q14 0 37.5 4.5 t25.5 11.5q5 16 5 74v198q0 58 -5 74q-2 7 -25.5 11.5t-37.5 4.5q-3 4 -3.5 14.5t3.5 14.5q102 -5 106 -5t107 5q4 -4 3.5 -14.5t-3.5 -14.5q-14 0 -37.5 -4.5t-25.5 -11.5q-5 -16 -5 -74z" />
<glyph unicode="&#x45e;" horiz-adv-x="467" d="M247 499q-46 0 -79.5 19t-33.5 51q0 17 12 32.5t34 10.5q0 -39 19.5 -63.5t47.5 -24.5t47.5 24.5t19.5 63.5q22 5 34 -10.5t12 -32.5q0 -32 -33.5 -51t-79.5 -19zM101 425q57 0 100 5q2 -4 0.5 -16.5t-4.5 -12.5q-50 0 -50 -17l2 -4l106 -270q50 133 88 227q6 14 6 32 q0 15 -16 23.5t-42 8.5q-4 0 -4 12.5t4 16.5q38 -5 90 -5q34 0 84 5q3 -4 2 -16.5t-4 -12.5q-13 0 -34.5 -8t-29.5 -26q-107 -255 -150 -361q-6 -14 -21.5 -56.5t-28.5 -70t-29 -51.5q-38 -56 -87 -56q-44 0 -44 43q0 15 12 29q40 0 63 10t51 47q11 14 28 52t20 49 q-94 241 -158 379q-10 20 -54 20q-1 0 -1 13.5t1 15.5q48 -5 100 -5z" />
<glyph unicode="&#x45f;" horiz-adv-x="557" d="M296 -131q-12 -7 -27 0q0 132 -60 132q-113 0 -175 -4q-4 4 -3.5 14.5t3.5 14.5q14 0 37.5 4.5t25.5 11.5q5 16 5 74v198q0 58 -5 74q-2 7 -25.5 11.5t-37.5 4.5q-3 4 -3.5 14.5t3.5 14.5q103 -5 106 -5q4 0 107 5q4 -4 3.5 -14.5t-3.5 -14.5q-14 0 -37.5 -4.5 t-25.5 -11.5q-5 -16 -5 -74v-198q0 -59 7 -74q5 -11 92 -11q86 0 92 11q7 13 7 74v198q0 58 -5 74q-2 7 -25.5 11.5t-37.5 4.5q-3 4 -3.5 14.5t3.5 14.5q102 -5 106 -5q5 0 107 5q4 -4 3.5 -14.5t-3.5 -14.5q-14 0 -37.5 -4.5t-25.5 -11.5q-5 -16 -5 -74v-198q0 -58 5 -74 q2 -7 25.5 -11.5t37.5 -4.5q3 -4 3.5 -14.5t-3.5 -14.5q-120 4 -163 4q-26 0 -41 -27t-18.5 -53t-3.5 -52z" />
<glyph unicode="&#x2000;" horiz-adv-x="440" />
<glyph unicode="&#x2001;" horiz-adv-x="880" />
<glyph unicode="&#x2002;" horiz-adv-x="440" />
<glyph unicode="&#x2003;" horiz-adv-x="880" />
<glyph unicode="&#x2004;" horiz-adv-x="293" />
<glyph unicode="&#x2005;" horiz-adv-x="220" />
<glyph unicode="&#x2006;" horiz-adv-x="146" />
<glyph unicode="&#x2007;" horiz-adv-x="146" />
<glyph unicode="&#x2008;" horiz-adv-x="110" />
<glyph unicode="&#x2009;" horiz-adv-x="176" />
<glyph unicode="&#x200a;" horiz-adv-x="48" />
<glyph unicode="&#x202f;" horiz-adv-x="176" />
<glyph unicode="&#x205f;" horiz-adv-x="220" />
<glyph unicode="&#x25fc;" d="M0 430h430v-430h-430v430z" />
</font>
</defs>
</svg>
