<?xml version="1.0" standalone="no"?>
<!DOCTYPE svg PUBLIC "-//W3C//DTD SVG 1.1//EN" "http://www.w3.org/Graphics/SVG/1.1/DTD/svg11.dtd" >
<svg xmlns="http://www.w3.org/2000/svg" xmlns:xlink="http://www.w3.org/1999/xlink" version="1.1">
<metadata></metadata>
<defs>
<font id="crimsonroman" horiz-adv-x="426" >
<font-face units-per-em="1024" ascent="742" descent="-282" />
<missing-glyph horiz-adv-x="217" />
<glyph horiz-adv-x="0" />
<glyph horiz-adv-x="341" />
<glyph unicode=" "  horiz-adv-x="217" />
<glyph unicode="&#x09;" horiz-adv-x="217" />
<glyph unicode="&#xa0;" horiz-adv-x="217" />
<glyph unicode="&#x370;" d="M196 348q52 0 81.5 8t50.5 31q2 3 9 -2q7 -11 22.5 -45t21.5 -53q1 -5 -4.5 -10t-10.5 -7q-4 2 -13 8.5t-11.5 8t-9.5 5.5t-10 5t-10 3.5t-11.5 3t-12.5 2t-16 1.5h-19q-55 0 -130 -12q0 -15 0.5 -40.5t0.5 -36.5q1 -56 6.5 -129t11.5 -88q-12 -17 -25 -17q-8 0 -36.5 13 t-28.5 23q7 187 7 334q0 114 -17 293q2 5 10 11t12 6q20 0 44.5 -12.5t24.5 -24.5q0 -1 -2.5 -28t-5 -65t-2.5 -66v-121q54 1 73 1z" />
<glyph unicode="&#x371;" horiz-adv-x="383" d="M175 221q35 11 164 65q21 0 24 -5q1 -8 -15.5 -37.5t-31.5 -34.5q-2 -1 -112 -19q-7 -1 -13.5 -6t-9 -9t-2.5 -5q0 -2 -1 -9.5t-1 -20.5q0 -88 -5 -126q-13 -20 -24 -20q-9 0 -30 15t-21 24q0 21 32 124l16 43q0 69 -14.5 115.5t-46.5 46.5q-17 0 -33.5 -10t-23.5 -20 q-4 0 -10 10q-3 6 -3 11q10 33 36.5 56.5t56.5 23.5q33 -1 49 -65t19 -147z" />
<glyph unicode="&#x372;" horiz-adv-x="562" d="M381 621h-82q0 -49 6 -391q3 -200 14 -229q-12 -17 -25 -17q-8 0 -35.5 13t-27.5 23l5 601h-91q-33 0 -52.5 -31t-26 -79t-6.5 -119q-2 -4 -12 -7t-15 0q-6 15 -16.5 129t-11.5 118q39 29 116 29h187q77 0 165 1q28 -30 48.5 -126.5t20.5 -140.5q-1 -7 -11 -12.5 t-17 -3.5q-39 146 -69 195q-29 47 -64 47z" />
<glyph unicode="&#x373;" horiz-adv-x="218" d="M105 357q0 -189 7 -310q11 -171 24 -204q-12 -17 -25 -17q-8 0 -34.5 13t-25.5 23l18 498q-24 2 -33 2q-58 0 -85 -13.5t-41 -42.5q-5 -5 -15 -1q-4 10 -4 31q0 30 13 51t34 30.5t40 13t39 3.5q33 0 89.5 -6.5t69.5 -6.5q77 0 102 23q16 0 18 -9q0 -8 -6.5 -26 t-31.5 -39.5t-62 -21.5q-12 0 -91 9z" />
<glyph unicode="&#x374;" horiz-adv-x="237" d="M174 695q15 0 24.5 -8t9.5 -13q0 -29 -58.5 -99t-74.5 -74q-12 0 -14 12q-1 3 10 33.5t28 69.5t29 61q3 6 17 12t29 6z" />
<glyph unicode="&#x375;" horiz-adv-x="235" d="M59 -81q-10 0 -18.5 4.5t-12.5 9t-4 6.5q0 29 59 99t75 74q11 0 13 -11q1 -6 -23.5 -69.5t-42.5 -95.5q-4 -5 -17.5 -11t-28.5 -6z" />
<glyph unicode="&#x376;" horiz-adv-x="553" d="M117 394q-5 -130 -5 -329q33 53 157 282q26 47 82 151.5t75 139.5q5 7 24.5 20t28.5 13t9 -23q-20 -336 0 -611q-17 -28 -74 -51q-12 4 -15 17q29 91 35 255q4 146 -1 258q-16 -35 -53.5 -108.5t-49.5 -97.5q-72 -146 -158 -287q-8 -7 -28 -13t-36 -9l-16 -3 q-17 8 -17 17q-6 281 -9 360q-6 124 -20 272q2 5 10 11t12 6q19 0 41 -12.5t22 -24.5q0 -2 -3 -41t-6.5 -95.5t-4.5 -96.5z" />
<glyph unicode="&#x377;" horiz-adv-x="511" d="M184 292q12 -107 3 -175q59 74 105 161t58 150q2 4 16 -5.5t26.5 -23.5t12.5 -20q0 -29 1 -50q6 -84 34 -173q10 -32 27.5 -60t28.5 -38q5 -5 -5.5 -32.5t-18.5 -27.5q-12 0 -30.5 43t-30.5 90q-19 79 -30 167q-20 -52 -84.5 -147.5t-102.5 -140.5q-10 -13 -25 -13 q-6 0 -22 20.5t-16 29.5q0 3 3.5 10.5t9 20t8.5 25.5q5 22 5 144q0 115 -68 115q-17 0 -33.5 -10t-23.5 -20q-4 0 -10 10q-3 6 -3 11q10 33 36.5 56.5t56.5 23.5q56 -1 72 -141z" />
<glyph unicode="&#x37a;" horiz-adv-x="229" d="M55 -41q10 0 27.5 -8.5t17.5 -16.5v-36q0 -26 15 -36t33 -10q19 0 28 5q7 -4 7 -14q-8 -16 -32.5 -33.5t-49.5 -17.5q-60 0 -60 90v65q0 3 5.5 7.5t8.5 4.5z" />
<glyph unicode="&#x37b;" d="M61 83q8 -7 39.5 -14t68.5 -7q73 0 121.5 58.5t48.5 133.5q0 37 -13.5 62.5t-35.5 37.5t-42 16.5t-42 4.5q-91 0 -167 -59q-7 0 -7 7q0 18 10 38q41 77 154 77q83 0 136.5 -61.5t53.5 -142.5q0 -111 -58 -175t-137 -64q-85 0 -131 58q-10 23 1 30z" />
<glyph unicode="&#x37c;" d="M196 219q0 18 13 31t31 13t31 -13t13 -31t-13 -31t-31 -13t-31 13t-13 31zM365 350q-8 7 -39.5 14t-68.5 7q-73 0 -121.5 -58.5t-48.5 -133.5q0 -37 13.5 -62.5t35.5 -37.5t42 -16.5t42 -4.5q91 0 167 59q7 0 7 -7q0 -18 -10 -38q-41 -77 -154 -77q-83 0 -136.5 61.5 t-53.5 142.5q0 111 58 175t137 64q85 0 131 -58q10 -23 -1 -30z" />
<glyph unicode="&#x37d;" d="M137 219q0 18 13 31t31 13t31 -13t13 -31t-13 -31t-31 -13t-31 13t-13 31zM61 83q8 -7 39.5 -14t68.5 -7q73 0 121.5 58.5t48.5 133.5q0 37 -13.5 62.5t-35.5 37.5t-42 16.5t-42 4.5q-91 0 -167 -59q-7 0 -7 7q0 18 10 38q41 77 154 77q83 0 136.5 -61.5t53.5 -142.5 q0 -111 -58 -175t-137 -64q-85 0 -131 58q-10 23 1 30z" />
<glyph unicode="&#x37e;" horiz-adv-x="237" d="M171 39q0 -42 -10 -72q-11 -33 -36.5 -61t-76.5 -71q-4 -2 -7 -2q-7 0 -14 11t-7 16q0 2 18 17t36.5 44t18.5 65q0 29 -13.5 53.5t-13.5 28.5q0 20 21.5 38t48.5 18q8 0 18 -7q17 -16 17 -78zM57 370q0 25 18 42.5t43 17.5t42 -17.5t17 -42.5q0 -24 -17.5 -42t-41.5 -18 q-25 0 -43 18t-18 42z" />
<glyph unicode="&#x384;" horiz-adv-x="200" d="M129 704q26 0 26 -23q0 -33 -44.5 -108.5t-54.5 -79.5h-3q-3 0 -7.5 3t-4.5 6q0 10 14.5 74.5t27.5 102.5q3 8 18 16.5t28 8.5z" />
<glyph unicode="&#x385;" horiz-adv-x="347" d="M111 533q17 0 28.5 -11.5t11.5 -28.5t-11.5 -28.5t-28.5 -11.5t-29 11.5t-12 28.5t12 28.5t29 11.5zM305 533q16 0 27.5 -11.5t11.5 -28.5q0 -16 -11.5 -28t-27.5 -12q-17 0 -29 11.5t-12 28.5t12 28.5t29 11.5zM255 657q23 0 23 -23t-21 -70t-42.5 -83.5t-25.5 -38.5h-3 q-3 0 -7 3t-4 7q0 9 13 75.5t25 104.5q3 8 16.5 16.5t25.5 8.5z" />
<glyph unicode="&#x386;" horiz-adv-x="544" d="M304 939q26 0 26 -23q0 -33 -44.5 -108.5t-54.5 -79.5h-3q-3 0 -7.5 3t-4.5 6q0 10 14.5 74.5t27.5 102.5q3 8 18 16.5t28 8.5zM-40 26q25 26 51 76.5t53.5 127.5t43.5 125.5t43 141t30 102.5q-20 24 -69 -2q-3 6 -3 16q5 17 29.5 35t45.5 18q42 0 74 -40 q20 -24 37.5 -61t27 -63.5t27.5 -83t26 -79.5q92 -271 144 -335q-1 -4 -4.5 -8t-6.5 -6l-3 -2q-62 7 -84 29q-21 40 -40.5 88t-29.5 79.5t-33 104.5l-199 -41l-71 -248q-1 -4 -7.5 -7t-11.5 -3q-59 21 -70 36zM136 303l175 11q-3 11 -17 56.5t-20 62t-17.5 49.5t-23 56 t-24.5 44z" />
<glyph unicode="&#x387;" horiz-adv-x="224" d="M54 264q0 24 17 41t41 17t41 -17t17 -41t-17 -41.5t-41 -17.5t-41 17.5t-17 41.5z" />
<glyph unicode="&#x388;" horiz-adv-x="530" d="M348 939q26 0 26 -23q0 -33 -44.5 -108.5t-54.5 -79.5h-3q-3 0 -7.5 3t-4.5 6q0 10 14.5 74.5t27.5 102.5q3 8 18 16.5t28 8.5zM300 43q43 0 91.5 17t76.5 34.5t31 24.5q5 -2 9 -10t4 -13q0 -16 -23.5 -56t-55.5 -40h-282q-63 0 -84 34q10 14 18 55t8 82l-5 432 q-14 29 -37 39q0 14 10 19q50 -3 109 -3q54 1 118.5 3t115.5 3q30 -38 55 -80q-1 -3 -2.5 -6.5t-2.5 -5t-3 -3.5t-5 -3q-53 30 -89 39.5t-97 9.5q-29 0 -96 -8q0 -50 2 -252h25q80 0 155 29q8 -6 18 -17.5t16.5 -21.5t15.5 -24.5t10 -16.5q1 -5 -4.5 -11t-10.5 -8 q-52 24 -115 24q-75 0 -109 -2q0 -18 0.5 -42t0.5 -29q0 -22 -0.5 -68.5t0 -73.5t4.5 -36q44 -15 128 -15z" />
<glyph unicode="&#x389;" horiz-adv-x="546" d="M338 939q26 0 26 -23q0 -33 -44.5 -108.5t-54.5 -79.5h-3q-3 0 -7.5 3t-4.5 6q0 10 14.5 74.5t27.5 102.5q3 8 18 16.5t28 8.5zM478 468q0 -190 1 -250q1 -56 6.5 -129t11.5 -88q-12 -17 -25 -17q-8 0 -36.5 13t-28.5 23q6 154 7 292q-15 -1 -64 -2.5t-81 -2.5t-74.5 -4 t-70.5 -8q0 -15 0.5 -40.5t0.5 -36.5q1 -56 6.5 -129t11.5 -88q-12 -17 -25 -17q-8 0 -36.5 13t-28.5 23q7 187 7 334q0 114 -17 293q2 5 10 11t12 6q20 0 44.5 -12.5t24.5 -24.5q0 -1 -2.5 -28t-5 -65t-2.5 -66v-121l290 1v6q0 114 -17 293q2 5 10 11t12 6q20 0 44.5 -12.5 t24.5 -24.5q0 -1 -2.5 -28t-5 -65t-2.5 -66z" />
<glyph unicode="&#x38a;" horiz-adv-x="182" d="M-17 939q26 0 26 -23q0 -33 -44.5 -108.5t-54.5 -79.5h-3q-3 0 -7.5 3t-4.5 6q0 10 14.5 74.5t27.5 102.5q3 8 18 16.5t28 8.5zM123 468q0 -190 1 -250q1 -56 6.5 -129t11.5 -88q-12 -17 -25 -17q-8 0 -36.5 13t-28.5 23q7 187 7 334q0 114 -17 293q2 5 10 11t12 6 q20 0 44.5 -12.5t24.5 -24.5q0 -1 -2.5 -28t-5 -65t-2.5 -66z" />
<glyph unicode="&#x38c;" horiz-adv-x="718" d="M384 939q26 0 26 -23q0 -33 -44.5 -108.5t-54.5 -79.5h-3q-3 0 -7.5 3t-4.5 6q0 10 14.5 74.5t27.5 102.5q3 8 18 16.5t28 8.5zM363 627q-69 0 -122 -48.5t-78 -119.5t-25 -150q0 -111 57 -195.5t154 -84.5q68 0 122.5 46.5t82.5 116.5t28 147q0 114 -59.5 201t-159.5 87 zM358 667q130 0 221 -97t91 -251q0 -139 -92 -234t-220 -95q-130 0 -219 94.5t-89 252.5q0 139 90.5 234.5t217.5 95.5z" />
<glyph unicode="&#x38e;" horiz-adv-x="548" d="M254 939q26 0 26 -23q0 -33 -44.5 -108.5t-54.5 -79.5h-3q-3 0 -7.5 3t-4.5 6q0 10 14.5 74.5t27.5 102.5q3 8 18 16.5t28 8.5zM522 624q-92 -55 -174.5 -213.5t-82.5 -226.5q0 -144 15 -183q-12 -17 -25 -17q-8 0 -35.5 13t-27.5 23q0 49 12 160q0 3 1 10t2 10 q-96 391 -181 391q-36 0 -56 -26q-4 0 -11 12q-3 6 -3 11q10 33 36 56.5t52 23.5q24 0 51 -37.5t50.5 -97t43.5 -125.5t34 -131q32 114 95 223t126 163q5 3 37.5 -6.5t34.5 -11.5q10 -10 6 -21z" />
<glyph unicode="&#x38f;" horiz-adv-x="710" d="M388 939q26 0 26 -23q0 -33 -44.5 -108.5t-54.5 -79.5h-3q-3 0 -7.5 3t-4.5 6q0 10 14.5 74.5t27.5 102.5q3 8 18 16.5t28 8.5zM338 667q129 0 216 -96t87 -236q0 -89 -48 -161.5t-127 -113.5q14 -6 73 -6q61 0 124 43q10 0 10 -15q-5 -12 -16.5 -28t-39 -35t-59.5 -19 h-129q-22 31 -22 51q0 10 11 24q135 88 135 274q0 126 -58.5 202t-147.5 76q-53 0 -96 -28t-68 -71.5t-38.5 -91.5t-13.5 -93q0 -108 38 -175.5t96 -97.5q31 -39 31 -51t-24 -19h-175q-9 4 -37.5 30t-33.5 34q4 11 19 11q7 -2 24 -8.5t32 -10t34 -4.5q15 -1 34 0.5t30 3.5 l11 1q-72 31 -119.5 115t-47.5 181q0 131 87 222.5t208 91.5z" />
<glyph unicode="&#x390;" horiz-adv-x="227" d="M107 868q26 0 26 -23q0 -33 -44.5 -108.5t-54.5 -79.5h-3q-3 0 -7.5 3t-4.5 6q0 10 14.5 74.5t27.5 102.5q3 8 18 16.5t28 8.5zM168 593q19 0 32.5 -14t13.5 -33t-14 -32t-33 -13t-33 13.5t-14 32.5t14.5 32.5t33.5 13.5zM-15 593q19 0 32.5 -14t13.5 -33t-14 -32 t-33 -13t-33 13.5t-14 32.5t14.5 32.5t33.5 13.5zM108 -3q-59 0 -59 92v327q12 17 25 17q7 0 30 -15.5t23 -25.5q-3 -36 -8.5 -95.5t-8 -102.5t-2.5 -88q0 -49 48 -49q19 0 28 5q7 -6 7 -14q-5 -12 -30 -31.5t-53 -19.5z" />
<glyph unicode="&#x391;" horiz-adv-x="544" d="M-11 26q25 26 51 76.5t53.5 127.5t43.5 125.5t43 141t30 102.5q-20 24 -69 -2q-3 6 -3 16q5 17 29.5 35t45.5 18q42 0 74 -40q20 -24 37.5 -61t27 -63.5t27.5 -83t26 -79.5q92 -271 144 -335q-1 -4 -4.5 -8t-6.5 -6l-3 -2q-62 7 -84 29q-21 40 -40.5 88t-29.5 79.5 t-33 104.5l-199 -41l-71 -248q-1 -4 -7.5 -7t-11.5 -3q-59 21 -70 36zM165 303l175 11q-3 11 -17 56.5t-20 62t-17.5 49.5t-23 56t-24.5 44z" />
<glyph unicode="&#x392;" horiz-adv-x="524" d="M78 603q-14 29 -37 39q0 14 10 19q50 -3 109 -3q133 0 204 -39t71 -117q0 -33 -12.5 -60.5t-31.5 -43.5t-34 -24.5t-29 -13.5q15 -4 31.5 -11t39 -21t40 -32t29.5 -46.5t12 -61.5q0 -30 -9.5 -58.5t-34 -60t-77.5 -51.5t-128 -21q-6 0 -13.5 -1t-78.5 -1h-9h-12t-13 0.5 t-14.5 2.5t-12.5 4.5t-12 7t-9 10.5q10 14 18 55t8 82zM235 327q-65 0 -84 -1q0 -18 0.5 -53.5t0.5 -40.5q2 -166 10 -186q26 -10 56 -10q31 0 59.5 6.5t56 21t44 43.5t16.5 68q0 66 -42.5 109t-116.5 43zM224 618q-41 2 -65 -9q-8 -53 -6 -242q2 0 15 -1.5t19 -1.5 q90 0 131.5 39t41.5 95q0 120 -136 120z" />
<glyph unicode="&#x393;" horiz-adv-x="511" d="M180 610q0 -85 5 -380q3 -200 14 -229q-12 -17 -25 -17q-8 0 -35.5 13t-27.5 23l-2 583q-15 29 -68 41q0 14 10 19q83 -5 136 -5q57 0 138 2.5t122 3.5q43 -81 57 -132q-6 -11 -19 -14q-42 58 -81.5 79t-101.5 21q-55 0 -122 -8z" />
<glyph unicode="&#x394;" horiz-adv-x="628" d="M500 63q-108 232 -200 466q-1 1 -22.5 -47t-52 -116.5t-60 -137t-50.5 -116.5l-21 -49h406zM317 655q60 -139 148.5 -330t133.5 -292q-8 -28 -55 -37q-14 7 -63 7l-454 -3q-7 0 -7 10q150 326 244 538q11 25 20 70q2 6 10 16t15 16.5t8 4.5z" />
<glyph unicode="&#x395;" horiz-adv-x="530" d="M291 43q43 0 91.5 17t76.5 34.5t31 24.5q5 -2 9 -10t4 -13q0 -16 -23.5 -56t-55.5 -40h-282q-63 0 -84 34q10 14 18 55t8 82l-5 432q-14 29 -37 39q0 14 10 19q50 -3 109 -3q54 1 118.5 3t115.5 3q30 -38 55 -80q-1 -3 -2.5 -6.5t-2.5 -5t-3 -3.5t-5 -3q-53 30 -89 39.5 t-97 9.5q-29 0 -96 -8q0 -50 2 -252h25q80 0 155 29q8 -6 18 -17.5t16.5 -21.5t15.5 -24.5t10 -16.5q1 -5 -4.5 -11t-10.5 -8q-52 24 -115 24q-75 0 -109 -2q0 -18 0.5 -42t0.5 -29q0 -22 -0.5 -68.5t0 -73.5t4.5 -36q44 -15 128 -15z" />
<glyph unicode="&#x396;" horiz-adv-x="546" d="M58 550q-4 -2 -14.5 1t-10.5 6q26 78 59 106q15 -2 40 -2h171q93 0 179 11q12 -8 12 -24l-353 -598q65 -10 180 -10q65 0 112.5 25t68.5 54q5 -2 9 -10t4 -13q0 -16 -23.5 -56t-55.5 -40h-321q-27 0 -51.5 10.5t-24.5 25.5q26 33 43.5 55.5t34 48.5t24.5 40t30.5 53.5 t37.5 64.5q33 57 97.5 166t92.5 157q-49 2 -217 -6q-57 -3 -124 -65z" />
<glyph unicode="&#x397;" horiz-adv-x="546" d="M477 468q0 -190 1 -250q1 -56 6.5 -129t11.5 -88q-12 -17 -25 -17q-8 0 -36.5 13t-28.5 23q6 154 7 292q-15 -1 -64 -2.5t-81 -2.5t-74.5 -4t-70.5 -8q0 -15 0.5 -40.5t0.5 -36.5q1 -56 6.5 -129t11.5 -88q-12 -17 -25 -17q-8 0 -36.5 13t-28.5 23q7 187 7 334 q0 114 -17 293q2 5 10 11t12 6q20 0 44.5 -12.5t24.5 -24.5q0 -1 -2.5 -28t-5 -65t-2.5 -66v-121l290 1v6q0 114 -17 293q2 5 10 11t12 6q20 0 44.5 -12.5t24.5 -24.5q0 -1 -2.5 -28t-5 -65t-2.5 -66z" />
<glyph unicode="&#x398;" horiz-adv-x="716" d="M326 353q52 0 81.5 8t50.5 31q2 3 9 -2q7 -11 22.5 -45t21.5 -53q1 -5 -4.5 -10t-10.5 -7q-4 2 -13 8.5t-11.5 8t-9.5 5.5t-10 5t-10 3.5t-11.5 3t-12.5 2t-16 1.5h-19q-52 0 -81.5 -8t-50.5 -31q-2 -3 -9 2q-7 11 -22.5 45t-21.5 53q-1 5 4.5 10t10.5 7q4 -2 13 -8.5 t11.5 -8t9.5 -5.5t10 -5t10 -3.5t11.5 -3t12.5 -2t16 -1.5h19zM361 627q-69 0 -122 -48.5t-78 -119.5t-25 -150q0 -111 57 -195.5t154 -84.5q68 0 122.5 46.5t82.5 116.5t28 147q0 114 -59.5 201t-159.5 87zM356 667q130 0 221 -97t91 -251q0 -139 -92 -234t-220 -95 q-130 0 -219 94.5t-89 252.5q0 139 90.5 234.5t217.5 95.5z" />
<glyph unicode="&#x399;" horiz-adv-x="182" d="M122 468q0 -190 1 -250q1 -56 6.5 -129t11.5 -88q-12 -17 -25 -17q-8 0 -36.5 13t-28.5 23q7 187 7 334q0 114 -17 293q2 5 10 11t12 6q20 0 44.5 -12.5t24.5 -24.5q0 -1 -2.5 -28t-5 -65t-2.5 -66z" />
<glyph unicode="&#x39a;" horiz-adv-x="498" d="M515 50q-38 -54 -97 -54q-47 0 -93.5 53t-77 123t-47.5 143q-73 -134 -70 -217q5 -78 12 -97q-12 -17 -25 -17q-8 0 -36.5 13t-28.5 23q7 187 7 334q0 114 -17 293q2 5 10 11t12 6q20 0 44.5 -12.5t24.5 -24.5q0 -1 -2.5 -28t-5 -65t-2.5 -66v-210q41 117 121 234 t140 168q5 3 39 -6.5t36 -11.5q10 -10 6 -21q-57 -34 -124.5 -109.5t-120.5 -162.5q31 -119 104.5 -205t130.5 -86q10 0 19 1.5t15.5 4.5t10.5 5.5t7.5 5.5t4.5 3q2 0 3.5 -11t-0.5 -17z" />
<glyph unicode="&#x39b;" horiz-adv-x="537" d="M284 626q18 -30 31 -56t27 -61t18.5 -47.5t21.5 -62.5t20 -60q92 -271 144 -335q-1 -4 -4.5 -8t-6.5 -6l-3 -2q-62 7 -84 29q-8 14 -15 28t-14 30.5t-11.5 27.5t-11.5 31.5t-10.5 29.5t-11.5 33.5t-10.5 31.5t-11.5 36.5t-11 36.5q-4 12 -18 59t-20 65t-18.5 52t-24 58 t-25.5 46q-66 -263 -160 -582q-1 -4 -7.5 -7t-11.5 -3q-59 21 -70 36q25 26 51 76.5t53.5 127.5t43.5 125.5t43 141t30 102.5q-12 12 -31 10.5t-38 -12.5q-3 6 -3 16q5 17 29.5 35t45.5 18q50 0 74 -40z" />
<glyph unicode="&#x39c;" horiz-adv-x="705" d="M614 467q20 -220 23 -250q6 -57 17.5 -128.5t18.5 -85.5q-10 -19 -23 -20q-7 -1 -37.5 12t-31.5 23q-2 33 -8 137t-12 190q-11 131 -24 205q-41 -242 -140 -470q-1 -4 -4.5 -8t-6.5 -6l-3 -2q-63 2 -85 24q-33 46 -110 212q-50 106 -77 200q-17 -230 -18 -249 q-7 -165 17 -257q-6 -14 -16 -16q-17 5 -39.5 17.5t-30.5 28.5q5 37 9.5 75t7.5 69t6 71t4.5 64t2.5 65t1.5 58.5t1 60t0.5 53v54.5v48q0 6 5 15t11 9q14 0 47 -33q14 -30 58.5 -135.5t71.5 -163.5q63 -136 116 -213q57 124 91.5 243t61.5 271q1 9 8 18.5t12 9.5 q13 0 36.5 -14t27.5 -23q0 -3 2 -28.5t4.5 -64.5t4.5 -66z" />
<glyph unicode="&#x39d;" horiz-adv-x="488" d="M449 7q0 -4 -4.5 -8t-8.5 -7l-4 -2q-62 10 -80 25q-86 141 -158 287q-12 24 -49.5 97.5t-53.5 108.5q-5 -112 -1 -258q6 -164 35 -255q-3 -13 -15 -17q-57 23 -74 51q20 275 0 611q0 23 9 23t28.5 -13t24.5 -20q19 -35 75 -139.5t82 -151.5q124 -229 157 -282 q0 222 -5 329q-8 204 -23 258q1 4 6 10t9 7q18 -9 36.5 -58t27.5 -91q-7 -166 -14 -505z" />
<glyph unicode="&#x39e;" horiz-adv-x="530" d="M155 661q121 0 233 1q37 -38 69 -116q-1 -7 -11 -12.5t-17 -3.5q-58 87 -170 87h-61q-42 0 -73 -18t-31 -63q-2 -4 -12 -7t-15 0q-9 23 -28 103q39 29 116 29zM221 358q52 0 81.5 8t50.5 31q2 3 9 -2q7 -11 22.5 -45t21.5 -53q1 -5 -4.5 -10t-10.5 -7q-4 2 -13 8.5 t-11.5 8t-9.5 5.5t-10 5t-10 3.5t-11.5 3t-12.5 2t-16 1.5h-19q-52 0 -81.5 -8t-50.5 -31q-2 -3 -9 2q-7 11 -22.5 45t-21.5 53q-1 5 4.5 10t10.5 7q4 -2 13 -8.5t11.5 -8t9.5 -5.5t10 -5t10 -3.5t11.5 -3t12.5 -2t16 -1.5h19zM282 43q38 0 72.5 9.5t56.5 22.5t39.5 28.5 t25 25.5t9.5 15q5 -2 9 -10t4 -13q0 -16 -31 -68.5t-63 -52.5h-211q-88 0 -136 18q-8 17 -18.5 60t-8.5 66q3 3 16.5 -2t15.5 -9q30 -58 74 -74t146 -16z" />
<glyph unicode="&#x39f;" horiz-adv-x="718" d="M362 627q-69 0 -122 -48.5t-78 -119.5t-25 -150q0 -111 57 -195.5t154 -84.5q68 0 122.5 46.5t82.5 116.5t28 147q0 114 -59.5 201t-159.5 87zM357 667q130 0 221 -97t91 -251q0 -139 -92 -234t-220 -95q-130 0 -219 94.5t-89 252.5q0 139 90.5 234.5t217.5 95.5z" />
<glyph unicode="&#x3a0;" horiz-adv-x="639" d="M190 610q0 -85 5 -380q3 -200 14 -229q-12 -17 -25 -17q-8 0 -35.5 13t-27.5 23l-2 583q-14 26 -78 41q0 14 10 19q98 -6 146 -5q47 0 116.5 5t125.5 6q135 -27 157 -45q3 -5 1.5 -11t-4.5 -7q-49 6 -85 9q-9 -122 -9 -147q0 -190 1 -250q1 -56 6.5 -129t11.5 -88 q-12 -17 -25 -17q-8 0 -36.5 13t-28.5 23q7 187 7 334q0 102 -14 264h-29q-135 0 -202 -8z" />
<glyph unicode="&#x3a1;" horiz-adv-x="545" d="M289 620q-61 0 -99 -10q0 -85 5 -380q3 -200 14 -229q-12 -17 -25 -17q-8 0 -35.5 13t-27.5 23l-2 583q-14 26 -78 41q0 14 10 19q83 -5 146 -5q10 0 36.5 1t48.5 0.5t45 -3.5q91 -10 136.5 -62.5t45.5 -125.5q0 -77 -57.5 -129.5t-138.5 -52.5q-26 0 -43 15 q-3 3 -5.5 12t-0.5 13q17 -8 44 -8q52 0 86 43.5t34 104.5q0 64 -39 109t-100 45z" />
<glyph unicode="&#x3a3;" horiz-adv-x="567" d="M26 29q9 7 25 18.5t26.5 19t14.5 11.5q47 43 131.5 118t109.5 98q-40 70 -145.5 186.5t-155.5 161.5q0 14 10 19q50 -3 109 -3q56 1 139.5 3t129.5 3q30 -38 55 -80q-1 -3 -2.5 -6.5t-2.5 -5t-3 -3.5t-5 -3q-60 34 -94 45.5t-90 11.5q-47 0 -114 -8q10 -12 102.5 -109.5 t128.5 -151.5q21 -31 19 -47q-55 -51 -159 -143.5t-120 -104.5q43 -15 147 -15q96 0 156 25q25 11 49 26t28 23q5 -2 9 -10t4 -13q0 -12 -31.5 -54.5t-57.5 -42.5h-331q-63 0 -82 31z" />
<glyph unicode="&#x3a4;" horiz-adv-x="562" d="M344 621h-45q0 -49 6 -391q3 -200 14 -229q-12 -17 -25 -17q-8 0 -35.5 13t-27.5 23l5 601h-72q-41 0 -72.5 -20t-31.5 -65q-2 -4 -12 -7t-15 0q-9 23 -28 103q39 29 116 29h180q84 0 172 1q37 -38 69 -116q-1 -7 -11 -12.5t-17 -3.5q-61 91 -170 91z" />
<glyph unicode="&#x3a5;" horiz-adv-x="548" d="M552 624q-92 -55 -174.5 -213.5t-82.5 -226.5q0 -144 15 -183q-12 -17 -25 -17q-8 0 -35.5 13t-27.5 23q0 49 12 160q0 3 1 10t2 10q-96 391 -181 391q-36 0 -56 -26q-4 0 -11 12q-3 6 -3 11q10 33 36 56.5t52 23.5q24 0 51 -37.5t50.5 -97t43.5 -125.5t34 -131 q32 114 95 223t126 163q5 3 37.5 -6.5t34.5 -11.5q10 -10 6 -21z" />
<glyph unicode="&#x3a6;" horiz-adv-x="640" d="M42 319q-3 87 64 152.5t174 78.5q-3 46 -8 97q2 5 10 11t12 6q20 0 44.5 -12.5t24.5 -24.5q0 -2 -1 -11.5t-2.5 -28.5t-2.5 -35q104 -8 171 -68t70 -145q3 -88 -64 -153.5t-175 -78.5q7 -88 13 -106q-12 -17 -25 -17q-8 0 -36.5 13t-28.5 23q2 35 3 86q-105 8 -172.5 68 t-70.5 145zM353 468q0 -190 1 -250q0 -35 3 -77q68 13 113 66t45 122t-45.5 122.5t-114.5 65.5q-2 -34 -2 -49zM282 516q-68 -14 -112.5 -66.5t-44.5 -120.5q0 -69 46 -122.5t115 -65.5q3 96 3 213q0 54 -7 162z" />
<glyph unicode="&#x3a7;" horiz-adv-x="532" d="M533 4q-1 -4 -4.5 -8t-6.5 -6l-3 -2q-69 8 -91 30q-78 80 -172 261q-43 -70 -108.5 -160t-93.5 -119q-8 -6 -19 -6q-10 0 -26.5 8.5t-16.5 21.5q40 25 110 112t130 187q-82 184 -132 267q-15 24 -42 24q-24 0 -44 -17q-3 6 -3 16q5 17 29.5 35t45.5 18q46 0 74 -40 q35 -48 116 -227q70 121 154 233q9 8 28 17t33 15l14 5q7 0 15.5 -4.5t8.5 -8.5q-37 -30 -104 -114t-128 -191q44 -97 110 -193t126 -154z" />
<glyph unicode="&#x3a8;" horiz-adv-x="704" d="M116 491q-2 6 -6 17q-13 37 -20.5 55t-22.5 34.5t-34 16.5q-24 0 -44 -17q-3 6 -3 16q5 18 28 35.5t44 17.5q39 0 65 -40t59 -146q42 -132 148 -143v17q0 114 -17 293q2 5 10 11t12 6q20 0 44.5 -12.5t24.5 -24.5q0 -1 -2.5 -28t-5 -65t-2.5 -66v-129q46 12 78 56.5 t61 117.5q31 77 57.5 114.5t67.5 37.5q17 0 36 -11.5t24 -20.5q0 -14 -7 -15q-11 3 -31 3q-11 0 -19.5 -7.5t-16 -22t-13 -29t-12.5 -34.5t-12 -32q-39 -92 -87.5 -140.5t-125.5 -58.5q0 -16 0.5 -42t0.5 -37q1 -56 6.5 -129t11.5 -88q-12 -17 -25 -17q-8 0 -36.5 13 t-28.5 23q6 144 7 278q-76 4 -128 50.5t-86 142.5z" />
<glyph unicode="&#x3a9;" horiz-adv-x="710" d="M344 667q129 0 216 -96t87 -236q0 -89 -48 -161.5t-127 -113.5q14 -6 73 -6q61 0 124 43q10 0 10 -15q-5 -12 -16.5 -28t-39 -35t-59.5 -19h-129q-22 31 -22 51q0 10 11 24q135 88 135 274q0 126 -58.5 202t-147.5 76q-53 0 -96 -28t-68 -71.5t-38.5 -91.5t-13.5 -93 q0 -108 38 -175.5t96 -97.5q31 -39 31 -51t-24 -19h-175q-9 4 -37.5 30t-33.5 34q4 11 19 11q7 -2 24 -8.5t32 -10t34 -4.5q15 -1 34 0.5t30 3.5l11 1q-72 31 -119.5 115t-47.5 181q0 131 87 222.5t208 91.5z" />
<glyph unicode="&#x3aa;" horiz-adv-x="182" d="M209 468q0 -190 1 -250q1 -56 6.5 -129t11.5 -88q-12 -17 -25 -17q-8 0 -36.5 13t-28.5 23q7 187 7 334q0 114 -17 293q2 5 10 11t12 6q20 0 44.5 -12.5t24.5 -24.5q0 -1 -2.5 -28t-5 -65t-2.5 -66zM210 778q0 21 14.5 35.5t35.5 14.5t35.5 -14.5t14.5 -35.5t-14.5 -35.5 t-35.5 -14.5t-35.5 14.5t-14.5 35.5zM29 778q0 21 14.5 35.5t35.5 14.5t35.5 -14.5t14.5 -35.5t-14.5 -35.5t-35.5 -14.5t-35.5 14.5t-14.5 35.5z" />
<glyph unicode="&#x3ab;" horiz-adv-x="548" d="M552 624q-92 -55 -174.5 -213.5t-82.5 -226.5q0 -144 15 -183q-12 -17 -25 -17q-8 0 -35.5 13t-27.5 23q0 49 12 160q0 3 1 10t2 10q-96 391 -181 391q-36 0 -56 -26q-4 0 -11 12q-3 6 -3 11q10 33 36 56.5t52 23.5q24 0 51 -37.5t50.5 -97t43.5 -125.5t34 -131 q32 114 95 223t126 163q5 3 37.5 -6.5t34.5 -11.5q10 -10 6 -21zM317 778q0 21 14.5 35.5t35.5 14.5t35.5 -14.5t14.5 -35.5t-14.5 -35.5t-35.5 -14.5t-35.5 14.5t-14.5 35.5zM136 778q0 21 14.5 35.5t35.5 14.5t35.5 -14.5t14.5 -35.5t-14.5 -35.5t-35.5 -14.5t-35.5 14.5 t-14.5 35.5z" />
<glyph unicode="&#x3ac;" horiz-adv-x="503" d="M276 711q26 0 26 -23q0 -33 -44.5 -108.5t-54.5 -79.5h-3q-3 0 -7.5 3t-4.5 6q0 10 14.5 74.5t27.5 102.5q3 8 18 16.5t28 8.5zM330 133q7 -38 20 -49.5t35 -11.5q23 0 48 17t30 28q5 -2 9 -10t4 -13q0 -16 -23.5 -56.5t-55.5 -40.5q-31 0 -58 34t-31 72q-49 -70 -69 -87 q-30 -25 -68 -25q-61 0 -95.5 44t-34.5 128q0 31 10 74t29.5 89.5t55.5 78.5t81 32q40 0 74.5 -46t34.5 -112q12 29 24 61t22 60t13 36q15 0 35.5 -17.5t20.5 -36.5q0 -36 -38 -116q-11 -22 -29 -55.5t-31 -55.5zM235 369q-37 0 -69 -42t-48.5 -100t-16.5 -112q0 -43 13 -64 t31 -21q32 0 69 41t59.5 85.5t22.5 62.5q0 34 -2 57.5t-8 46.5t-19 34.5t-32 11.5z" />
<glyph unicode="&#x3ad;" horiz-adv-x="349" d="M242 711q26 0 26 -23q0 -33 -44.5 -108.5t-54.5 -79.5h-3q-3 0 -7.5 3t-4.5 6q0 10 14.5 74.5t27.5 102.5q3 8 18 16.5t28 8.5zM296 363q-28 11 -62 11q-134 0 -134 -79q0 -21 16.5 -38.5t30.5 -18.5q51 22 75 22q12 0 18 -4q23 -21 23 -41q0 -17 -8 -17 q-62 0 -116.5 -23.5t-54.5 -65.5q0 -29 21.5 -42t52.5 -13q85 0 164 56q6 0 6 -8q0 -11 -4 -25q-14 -31 -51.5 -56.5t-90.5 -25.5q-60 0 -98 32.5t-38 84.5q0 67 67 106q-26 10 -42.5 36.5t-16.5 53.5q0 55 37.5 91t89.5 36q39 0 70.5 -14.5t45.5 -30.5q6 -18 -1 -27z" />
<glyph unicode="&#x3ae;" horiz-adv-x="488" d="M347 711q26 0 26 -23q0 -33 -44.5 -108.5t-54.5 -79.5h-3q-3 0 -7.5 3t-4.5 6q0 10 14.5 74.5t27.5 102.5q3 8 18 16.5t28 8.5zM26 332q-4 0 -8.5 7.5t-4.5 13.5q10 33 36.5 56.5t56.5 23.5q22 0 37.5 -22t21 -46t11.5 -64q60 139 140 139q43 0 69.5 -41t31.5 -109 q3 -43 4.5 -157.5t5 -210.5t13.5 -131q-11 -18 -25 -18q-9 0 -36.5 17t-26.5 28q1 18 8.5 100.5t13 175.5t5.5 172q0 45 -13.5 71t-39.5 26q-40 0 -76.5 -52t-58.5 -121v-54v-122q-13 -20 -24 -20q-9 0 -32.5 14t-23.5 23q0 35 26 157l14 59q0 115 -68 115q-17 0 -33.5 -10 t-23.5 -20z" />
<glyph unicode="&#x3af;" horiz-adv-x="227" d="M151 711q26 0 26 -23q0 -33 -44.5 -108.5t-54.5 -79.5h-3q-3 0 -7.5 3t-4.5 6q0 10 14.5 74.5t27.5 102.5q3 8 18 16.5t28 8.5zM126 -3q-59 0 -59 92v327q12 17 25 17q7 0 30 -15.5t23 -25.5q-3 -36 -8.5 -95.5t-8 -102.5t-2.5 -88q0 -49 48 -49q19 0 28 5q7 -6 7 -14 q-5 -12 -30 -31.5t-53 -19.5z" />
<glyph unicode="&#x3b0;" horiz-adv-x="406" d="M131 534q17 0 28.5 -11.5t11.5 -28.5t-11.5 -28.5t-28.5 -11.5t-29 11.5t-12 28.5t12 28.5t29 11.5zM325 534q16 0 27.5 -11.5t11.5 -28.5q0 -16 -11.5 -28t-27.5 -12q-17 0 -29 11.5t-12 28.5t12 28.5t29 11.5zM275 658q23 0 23 -23t-21 -70t-42.5 -83.5t-25.5 -38.5h-3 q-3 0 -7 3t-4 7q0 9 13 75.5t25 104.5q3 8 16.5 16.5t25.5 8.5zM35 410q-2 2 -2 12t4 10q26 0 65 -28t39 -82q0 -13 -27 -79t-27 -102q0 -83 82 -83q49 0 95 52t46 156q0 51 -18.5 93t-39.5 65q0 6 7 10q7 0 34 -17.5t32 -25.5q40 -59 40 -170q0 -105 -48.5 -166t-129.5 -61 q-60 0 -107 51.5t-47 134.5q0 32 18.5 91.5t18.5 84.5q0 32 -35 54z" />
<glyph unicode="&#x3b1;" horiz-adv-x="503" d="M330 133q7 -38 20 -49.5t35 -11.5q23 0 48 17t30 28q5 -2 9 -10t4 -13q0 -16 -23.5 -56.5t-55.5 -40.5q-31 0 -58 34t-31 72q-49 -70 -69 -87q-30 -25 -68 -25q-61 0 -95.5 44t-34.5 128q0 31 10 74t29.5 89.5t55.5 78.5t81 32q40 0 74.5 -46t34.5 -112q12 29 24 61 t22 60t13 36q15 0 35.5 -17.5t20.5 -36.5q0 -36 -38 -116q-11 -22 -29 -55.5t-31 -55.5zM235 369q-37 0 -69 -42t-48.5 -100t-16.5 -112q0 -43 13 -64t31 -21q32 0 69 41t59.5 85.5t22.5 62.5q0 34 -2 57.5t-8 46.5t-19 34.5t-32 11.5z" />
<glyph unicode="&#x3b2;" horiz-adv-x="473" d="M166 94q42 -36 96 -36q53 0 85.5 35.5t32.5 112.5q0 47 -25.5 87t-52.5 46q-1 0 -12 -5q-31 -27 -62 -32q-17 8 -26 20q-11 14 -11 28q0 10 16 18q120 56 120 184q0 38 -20.5 62t-55.5 24q-128 0 -128 -262q0 -25 6 -187.5t6 -188.5q1 -52 8.5 -123.5t13.5 -87.5 q-12 -17 -25 -17q-8 0 -34 13t-26 23v593q0 147 43 219.5t122 72.5q37 0 63.5 -16.5t40.5 -44.5t20.5 -58t6.5 -64q0 -82 -47 -142q50 -21 81 -68.5t31 -121.5q0 -80 -42 -132t-110 -52q-44 0 -75.5 26t-42.5 49q-4 16 3 25z" />
<glyph unicode="&#x3b3;" horiz-adv-x="452" d="M0 353q10 33 36.5 56.5t56.5 23.5q61 -1 95.5 -80t46.5 -198q3 -39 3 -72q8 17 25.5 51t26.5 52.5t21.5 47.5t22.5 56q29 82 29 132q0 4 4.5 9t6.5 5q10 0 25 -33t15 -48q0 -47 -35 -129q-40 -93 -131 -242q-1 -5 -5.5 -76t-9.5 -105q-2 -13 -11 -21t-19 -8q-11 0 -31 24 t-20 38q0 15 19.5 83.5t40.5 120.5q0 44 -5 92q-8 74 -22.5 123.5t-34 70.5t-36 28.5t-36.5 7.5q-18 0 -39 -10t-27 -18q-4 0 -8 7t-4 12z" />
<glyph unicode="&#x3b4;" horiz-adv-x="423" d="M88 650q0 16 20 30t51 10q46 -6 112 -61t86 -88q17 -27 17 -48q0 -2 -2 -5t-4.5 -5t-3.5 -1q-25 35 -91 88.5t-103 53.5q-17 0 -17 -17q0 -31 21 -67t76 -102q70 -82 92 -120q42 -71 42 -140q0 -76 -46 -130t-127 -54q-48 0 -83 21t-53 54.5t-26 66.5t-8 64 q0 95 33.5 145t89.5 77q52 -5 68 -14q-7 9 -33.5 40.5t-35.5 43t-28 37.5t-26 42t-14 37.5t-7 41.5zM253 376q-59 0 -109.5 -63.5t-50.5 -143.5q0 -56 24 -89t74 -33q53 0 92 44.5t39 125.5q0 86 -69 159z" />
<glyph unicode="&#x3b5;" horiz-adv-x="349" d="M293 363q-28 11 -62 11q-134 0 -134 -79q0 -21 16.5 -38.5t30.5 -18.5q51 22 75 22q12 0 18 -4q23 -21 23 -41q0 -17 -8 -17q-62 0 -116.5 -23.5t-54.5 -65.5q0 -29 21.5 -42t52.5 -13q85 0 164 56q6 0 6 -8q0 -11 -4 -25q-14 -31 -51.5 -56.5t-90.5 -25.5 q-60 0 -98 32.5t-38 84.5q0 67 67 106q-26 10 -42.5 36.5t-16.5 53.5q0 55 37.5 91t89.5 36q39 0 70.5 -14.5t45.5 -30.5q6 -18 -1 -27z" />
<glyph unicode="&#x3b6;" horiz-adv-x="382" d="M301 -104q-21 0 -21 11q18 10 34 31.5t16 47.5t-37 26q-16 0 -64 -8q-40 -7 -71 -7q-61 0 -86 35t-25 100q0 158 146 404q-5 0 -12.5 1t-27.5 6t-35 11.5t-27.5 20.5t-12.5 31q0 52 88 78q14 0 14 -10q-14 -8 -28 -29t-14 -37q0 -27 23.5 -38t47.5 -11q39 53 83 93.5 t65 40.5q9 0 19.5 -19t10.5 -29q0 -22 -21 -37q-5 -4 -37.5 -27t-47.5 -35q-58 -46 -127 -174.5t-69 -218.5q0 -29 7 -47.5t20.5 -26t25 -9.5t27.5 -2q26 0 71 9q54 9 71 9q35 0 52.5 -17t17.5 -41q0 -42 -24.5 -78.5t-51.5 -53.5z" />
<glyph unicode="&#x3b7;" horiz-adv-x="488" d="M26 332q-4 0 -8.5 7.5t-4.5 13.5q10 33 36.5 56.5t56.5 23.5q22 0 37.5 -22t21 -46t11.5 -64q60 139 140 139q43 0 69.5 -41t31.5 -109q3 -43 4.5 -157.5t5 -210.5t13.5 -131q-11 -18 -25 -18q-9 0 -36.5 17t-26.5 28q1 18 8.5 100.5t13 175.5t5.5 172q0 45 -13.5 71 t-39.5 26q-40 0 -76.5 -52t-58.5 -121v-54v-122q-13 -20 -24 -20q-9 0 -32.5 14t-23.5 23q0 35 26 157l14 59q0 115 -68 115q-17 0 -33.5 -10t-23.5 -20z" />
<glyph unicode="&#x3b8;" horiz-adv-x="468" d="M234 369q63 0 119 6q-7 281 -100 281q-48 0 -83.5 -83.5t-45.5 -199.5q27 -4 110 -4zM237 695q79 0 132.5 -102.5t53.5 -238.5q0 -147 -53 -253t-133 -106q-81 0 -135.5 100t-54.5 245q0 146 55 250.5t135 104.5zM352 323q-46 6 -118 6q-79 0 -113 -7v-5q0 -49 4 -94 t14 -90t30.5 -72t49.5 -27q54 0 90.5 82.5t42.5 206.5z" />
<glyph unicode="&#x3b9;" horiz-adv-x="227" d="M126 -3q-59 0 -59 92v327q12 17 25 17q7 0 30 -15.5t23 -25.5q-3 -36 -8.5 -95.5t-8 -102.5t-2.5 -88q0 -49 48 -49q19 0 28 5q7 -6 7 -14q-5 -12 -30 -31.5t-53 -19.5z" />
<glyph unicode="&#x3ba;" horiz-adv-x="474" d="M446 49q-31 -53 -88 -53q-34 0 -71.5 40t-60 80.5t-37.5 78.5q-5 -10 -5 -15q0 -2 -0.5 -10.5t-0.5 -21.5q0 -59 -10 -134q-13 -20 -24 -20q-9 0 -31 14t-22 23q0 30 33 149l14 61q0 64 -12.5 92.5t-45.5 28.5q-17 0 -33.5 -10t-23.5 -20q-4 0 -8.5 8t-4.5 13 q10 33 36.5 56.5t56.5 23.5q10 0 18 -5t13.5 -15.5t9.5 -20.5t7 -27t4.5 -28t4 -30.5t3.5 -28.5q25 58 78 108t102 50q16 0 52 -13t36 -24t-1 -13q-77 0 -134.5 -46.5t-91.5 -111.5q23 -56 80 -111t104 -55q27 0 52 15q8 -7 1 -28z" />
<glyph unicode="&#x3bb;" horiz-adv-x="482" d="M95 595q-4 0 -8.5 7.5t-4.5 13.5q10 33 36.5 56.5t56.5 23.5q18 0 33.5 -14t27.5 -45.5t20 -58t16.5 -76.5t11.5 -73t10 -75q20 -154 52 -225q33 -71 100 -71q14 0 24 10q8 0 8 -22q-31 -49 -73 -49q-16 0 -30 7t-25.5 21t-21 29.5t-17 39t-13.5 42t-11.5 45.5t-8.5 43.5 t-7 42.5t-6 35q-24 -48 -81 -144.5t-81 -127.5q-15 -20 -25.5 -27t-29.5 -7q-15 0 -30.5 11.5t-17.5 24.5q59 23 245 392q-8 84 -41 139t-69 55q-22 0 -40 -23z" />
<glyph unicode="&#x3bc;" horiz-adv-x="493" d="M468 96q4 0 8 -7.5t4 -12.5q-10 -33 -36.5 -56.5t-56.5 -23.5q-17 0 -30 18.5t-20 45.5t-10.5 47t-4.5 35q-15 -34 -25.5 -54.5t-28 -46t-40.5 -38t-50 -12.5q-45 0 -63 110v-59.5t3.5 -126.5t13.5 -122q-12 -20 -24 -20q-9 0 -31 14t-22 23q0 32 6.5 180t14.5 214 q0 12 -2 47.5t-2 46.5v119q12 20 24 20q9 0 31 -14t22 -23q0 -46 -23 -154l-5 -23q0 -66 13 -112.5t38 -46.5q37 0 73 50t58 113v71v119q13 20 24 20q9 0 31 -14t22 -23q0 -8 -23 -154l-10 -51q0 -56 18.5 -92.5t51.5 -36.5q28 0 51 30z" />
<glyph unicode="&#x3bd;" horiz-adv-x="416" d="M9 346q-4 0 -6.5 10.5t-0.5 15.5q16 34 42 51.5t55 8.5q49 -14 73 -86.5t24 -157.5q0 -20 0.5 -46t0.5 -31q0 -1 1.5 -1.5t2.5 0.5q61 60 103.5 144.5t53.5 167.5q3 14 8 14q3 0 6.5 -8.5t6 -24t2.5 -31.5q0 -52 -32.5 -141.5t-81.5 -162t-87 -72.5q-4 0 -10 4.5t-6 9.5 q0 55 -1.5 94t-7 88t-16 81t-30 57.5t-46.5 33.5q-28 8 -54 -18z" />
<glyph unicode="&#x3be;" horiz-adv-x="402" d="M80 119q0 -22 10.5 -38t32.5 -16q30 0 86 10q55 11 84 11q34 0 51.5 -17t17.5 -41q0 -43 -25 -79t-49 -53q-6 0 -14 3.5t-8 10.5q50 29 50 76q0 26 -36 26q-13 0 -61 -8q-52 -8 -78 -8q-48 0 -73 32t-25 84q0 55 29.5 107.5t74.5 81.5q-29 10 -52 38.5t-23 72.5 q0 82 75 148q-3 0 -8 0.5t-18 3.5t-23 7.5t-18 15t-8 23.5q0 25 19.5 45.5t34 26.5t26.5 10q17 0 17 -11q-12 -7 -23 -25t-11 -30q0 -19 11.5 -29.5t27.5 -10.5q108 87 157 87q27 0 27 -52q0 -14 -36.5 -34t-73.5 -30q-44 -26 -85 -71t-41 -94q0 -25 18.5 -44t43.5 -19 q99 55 141 55q23 0 23 -16q0 -19 -6.5 -38t-14.5 -25q-46 -7 -100 -29t-100.5 -65t-46.5 -92z" />
<glyph unicode="&#x3bf;" horiz-adv-x="465" d="M96 189q0 -68 34 -102t83 -34q68 0 111 54t43 136q0 62 -32.5 97t-85.5 35q-67 0 -110 -55.5t-43 -130.5zM41 221q0 98 50.5 157t133.5 59q85 0 142 -70.5t57 -165.5q0 -88 -51.5 -148t-133.5 -60q-91 0 -144.5 68t-53.5 160z" />
<glyph unicode="&#x3c0;" horiz-adv-x="474" d="M172 362q-59 0 -85.5 -13.5t-40.5 -42.5q-5 -5 -15 -1q-4 10 -4 31q0 30 13 51t34 30.5t40 13t39 3.5q42 0 102.5 -6.5t110.5 -6.5q77 0 102 23q16 0 18 -9q0 -8 -6.5 -26t-31.5 -39.5t-62 -21.5q-25 0 -50 2q10 -165 22 -225q7 -35 26 -50t39 -15q19 0 32 9q7 -5 7 -17 q0 -9 -23.5 -32t-47.5 -23q-33 0 -52.5 25.5t-23.5 65.5q-12 119 -10 265q-22 2 -100 7q-7 -82 -25.5 -210.5t-32.5 -149.5q-11 -3 -21 -3q-16 0 -34.5 16t-18.5 24q43 77 65 143.5t34 181.5z" />
<glyph unicode="&#x3c1;" horiz-adv-x="466" d="M147 -211q-12 -17 -25 -17q-8 0 -34 13t-26 23q-2 417 1 444q11 90 55 137.5t105 47.5q89 0 146 -67t57 -164q0 -92 -49.5 -152t-125.5 -60q-46 0 -82 23t-53 50q0 -72 11.5 -165t19.5 -113zM225 56q57 0 100.5 50t43.5 134q0 75 -35.5 105t-82.5 30q-48 0 -79.5 -33 t-44 -78.5t-12.5 -99.5q0 -40 4 -48q27 -60 106 -60z" />
<glyph unicode="&#x3c2;" horiz-adv-x="409" d="M353 350q-47 20 -78 20q-79 0 -136 -60t-57 -163q0 -80 79 -80q20 0 66 10.5t70 10.5q36 0 55 -16t19 -43q0 -79 -76 -133q-21 0 -21 11q17 10 33.5 32t16.5 48q0 27 -39 27q-15 0 -60 -8.5t-72 -8.5q-62 0 -86 39.5t-24 122.5q0 121 58.5 200t127.5 79q90 0 129 -58 q2 -6 0.5 -17.5t-5.5 -12.5z" />
<glyph unicode="&#x3c3;" horiz-adv-x="490" d="M428 348q-41 0 -75 7q19 -19 40 -60.5t21 -87.5q0 -99 -46.5 -157t-128.5 -57q-91 0 -144.5 68t-53.5 160q0 98 50 157t133 58q44 0 94 -7.5t90 -7.5q77 0 102 23q16 0 18 -9q0 -8 -6.5 -26t-31.5 -39.5t-62 -21.5zM249 375q-69 0 -111 -51.5t-42 -133.5q0 -68 33 -102.5 t84 -34.5q68 0 106 52t38 136q0 38 -15.5 73.5t-37.5 49.5q-17 11 -55 11z" />
<glyph unicode="&#x3c4;" horiz-adv-x="415" d="M164 362q-58 0 -85 -13.5t-41 -42.5q-5 -5 -15 -1q-4 10 -4 31q0 30 13 51t34 30.5t40 13t39 3.5q33 0 89.5 -6.5t69.5 -6.5q68 0 93 23q16 0 18 -9q0 -8 -6.5 -26t-31.5 -39.5t-62 -21.5q-3 0 -82 9q-20 -75 -20 -209q0 -47 18 -67.5t40 -20.5q19 0 32 9q6 -5 6 -15 q0 -5 -10 -18t-31 -26t-43 -13q-29 0 -50.5 27t-21.5 64q0 68 44 272q-24 2 -33 2z" />
<glyph unicode="&#x3c5;" horiz-adv-x="406" d="M35 410q-2 2 -2 12t4 10q26 0 65 -28t39 -82q0 -13 -27 -79t-27 -102q0 -83 82 -83q49 0 95 52t46 156q0 51 -18.5 93t-39.5 65q0 6 7 10q7 0 34 -17.5t32 -25.5q40 -59 40 -170q0 -105 -48.5 -166t-129.5 -61q-60 0 -107 51.5t-47 134.5q0 32 18.5 91.5t18.5 84.5 q0 32 -35 54z" />
<glyph unicode="&#x3c6;" horiz-adv-x="594" d="M325 -11q1 -53 8.5 -119t13.5 -81q-12 -17 -25 -17q-8 0 -34 13t-26 23v182q-96 9 -160 67t-64 137q0 91 60.5 164.5t107.5 73.5q25 0 52 -11t27 -28q-60 -6 -131 -70.5t-71 -144.5q0 -122 171 -122h8v85q0 152 31.5 221.5t103.5 69.5q61 0 109 -61t48 -145 q0 -103 -71.5 -165t-157.5 -72zM319 60q70 7 127 61t57 144q0 53 -24 83t-71 30q-50 0 -71.5 -62.5t-21.5 -153.5q0 -26 4 -102z" />
<glyph unicode="&#x3c7;" horiz-adv-x="445" d="M432 -176q-31 -50 -73 -50q-15 0 -28.5 6t-24.5 19.5t-20 26.5t-16.5 35.5t-13 38t-11.5 42.5t-8.5 40t-7.5 39.5t-6 32.5q-126 -174 -139 -279q-8 -2 -13 -2q-16 0 -33 20t-17 28q19 113 186 317q-2 31 -11 67t-24 73t-38.5 61.5t-50.5 24.5q-26 0 -46 -25 q-4 0 -8.5 7.5t-4.5 12.5q9 29 36.5 52t56.5 23q44 0 75 -77.5t48 -185.5q82 123 123 257q6 6 10 6q3 0 12 -10t17.5 -27t8.5 -31q0 -34 -48 -116t-109 -163q19 -129 49 -188q33 -66 92 -65h2q19 0 29 10q3 0 5 -7.5t1 -12.5z" />
<glyph unicode="&#x3c8;" horiz-adv-x="571" d="M153 345q0 -34 -23 -94t-23 -87q0 -60 34.5 -89t94.5 -29q12 0 19 1v107q0 112 -5.5 225.5t-10.5 129.5q27 23 53 23q25 0 25 -14q-9 -252 -9 -356q0 -51 3 -108q77 18 122 77t45 140q0 18 -4.5 36.5t-10.5 32t-16 28.5t-16.5 23t-16.5 19.5t-12 13.5q0 8 9 8 q8 0 25.5 -10t26.5 -20q69 -84 69 -168q0 -100 -66 -166t-150 -75q1 -52 9.5 -120.5t14.5 -83.5q-12 -17 -25 -17q-7 0 -33.5 13t-26.5 23l-1 185q-76 2 -142.5 62t-66.5 141q0 27 20 78t20 82q0 15 -13.5 35t-23.5 26q-2 2 -0.5 8t4.5 7q26 0 63.5 -22.5t37.5 -64.5z" />
<glyph unicode="&#x3c9;" horiz-adv-x="597" d="M401 61q47 0 72 42.5t25 99.5q0 77 -40.5 138.5t-76.5 83.5q0 9 5 9q28 -2 44 -12q39 -29 82.5 -103.5t43.5 -148.5q0 -84 -41 -129.5t-99 -45.5q-43 0 -74.5 31t-40.5 64q-37 -96 -121 -96q-64 0 -101.5 52.5t-37.5 127.5q0 99 34.5 167.5t68.5 93.5q13 0 30 -13 q22 -18 22 -36q0 -2 -15 -15q-36 -30 -67.5 -94t-31.5 -121q0 -44 19 -73.5t57 -29.5q52 0 77 44.5t25 106.5q0 47 -4 69q7 15 17 15t30.5 -13.5t22.5 -20.5q0 -9 -3.5 -53t-3.5 -60q0 -24 22.5 -52t59.5 -28z" />
<glyph unicode="&#x3ca;" horiz-adv-x="227" d="M186 593q19 0 32.5 -14t13.5 -33t-14 -32t-33 -13t-33 13.5t-14 32.5t14.5 32.5t33.5 13.5zM3 593q19 0 32.5 -14t13.5 -33t-14 -32t-33 -13t-33 13.5t-14 32.5t14.5 32.5t33.5 13.5zM126 -3q-59 0 -59 92v327q12 17 25 17q7 0 30 -15.5t23 -25.5q-3 -36 -8.5 -95.5 t-8 -102.5t-2.5 -88q0 -49 48 -49q19 0 28 5q7 -6 7 -14q-5 -12 -30 -31.5t-53 -19.5z" />
<glyph unicode="&#x3cb;" horiz-adv-x="406" d="M270 620q19 0 32.5 -14t13.5 -33t-14 -32t-33 -13t-33 13.5t-14 32.5t14.5 32.5t33.5 13.5zM87 620q19 0 32.5 -14t13.5 -33t-14 -32t-33 -13t-33 13.5t-14 32.5t14.5 32.5t33.5 13.5zM35 410q-2 2 -2 12t4 10q26 0 65 -28t39 -82q0 -13 -27 -79t-27 -102q0 -83 82 -83 q49 0 95 52t46 156q0 51 -18.5 93t-39.5 65q0 6 7 10q7 0 34 -17.5t32 -25.5q40 -59 40 -170q0 -105 -48.5 -166t-129.5 -61q-60 0 -107 51.5t-47 134.5q0 32 18.5 91.5t18.5 84.5q0 32 -35 54z" />
<glyph unicode="&#x3cc;" horiz-adv-x="465" d="M278 711q26 0 26 -23q0 -33 -44.5 -108.5t-54.5 -79.5h-3q-3 0 -7.5 3t-4.5 6q0 10 14.5 74.5t27.5 102.5q3 8 18 16.5t28 8.5zM96 189q0 -68 34 -102t83 -34q68 0 111 54t43 136q0 62 -32.5 97t-85.5 35q-67 0 -110 -55.5t-43 -130.5zM41 221q0 98 50.5 157t133.5 59 q85 0 142 -70.5t57 -165.5q0 -88 -51.5 -148t-133.5 -60q-91 0 -144.5 68t-53.5 160z" />
<glyph unicode="&#x3cd;" horiz-adv-x="406" d="M244 711q26 0 26 -23q0 -33 -44.5 -108.5t-54.5 -79.5h-3q-3 0 -7.5 3t-4.5 6q0 10 14.5 74.5t27.5 102.5q3 8 18 16.5t28 8.5zM35 410q-2 2 -2 12t4 10q26 0 65 -28t39 -82q0 -13 -27 -79t-27 -102q0 -83 82 -83q49 0 95 52t46 156q0 51 -18.5 93t-39.5 65q0 6 7 10 q7 0 34 -17.5t32 -25.5q40 -59 40 -170q0 -105 -48.5 -166t-129.5 -61q-60 0 -107 51.5t-47 134.5q0 32 18.5 91.5t18.5 84.5q0 32 -35 54z" />
<glyph unicode="&#x3ce;" horiz-adv-x="597" d="M347 711q26 0 26 -23q0 -33 -44.5 -108.5t-54.5 -79.5h-3q-3 0 -7.5 3t-4.5 6q0 10 14.5 74.5t27.5 102.5q3 8 18 16.5t28 8.5zM401 61q47 0 72 42.5t25 99.5q0 77 -40.5 138.5t-76.5 83.5q0 9 5 9q28 -2 44 -12q39 -29 82.5 -103.5t43.5 -148.5q0 -84 -41 -129.5 t-99 -45.5q-43 0 -74.5 31t-40.5 64q-37 -96 -121 -96q-64 0 -101.5 52.5t-37.5 127.5q0 99 34.5 167.5t68.5 93.5q13 0 30 -13q22 -18 22 -36q0 -2 -15 -15q-36 -30 -67.5 -94t-31.5 -121q0 -44 19 -73.5t57 -29.5q52 0 77 44.5t25 106.5q0 47 -4 69q7 15 17 15t30.5 -13.5 t22.5 -20.5q0 -9 -3.5 -53t-3.5 -60q0 -24 22.5 -52t59.5 -28z" />
<glyph unicode="&#x3cf;" horiz-adv-x="498" d="M364 -193q-29 0 -51 29.5t-26 54.5q0 8 11 15q24 -36 61 -36q28 0 49 12.5t34 35.5t20.5 44t13.5 50q-26 -16 -58 -16q-47 0 -93.5 53t-77 123t-47.5 143q-73 -134 -70 -217q5 -78 12 -97q-12 -17 -25 -17q-8 0 -36.5 13t-28.5 23q7 187 7 334q0 114 -17 293q2 5 10 11 t12 6q20 0 44.5 -12.5t24.5 -24.5q0 -1 -2.5 -28t-5 -65t-2.5 -66v-210q41 117 121 234t140 168q5 3 39 -6.5t36 -11.5q10 -10 6 -21q-57 -34 -124.5 -109.5t-120.5 -162.5q31 -119 104.5 -205t130.5 -86q10 0 19 1.5t15.5 4.5t10.5 5.5t7.5 5.5t4.5 3q2 0 3.5 -11.5 t-0.5 -16.5q-3 -16 -4 -22.5t-8.5 -36.5t-14.5 -49t-20 -47t-27 -45t-34 -30t-43 -13z" />
<glyph unicode="&#x3d0;" horiz-adv-x="414" d="M208 368q39 0 70 -15t49.5 -37t31 -49.5t17 -50.5t4.5 -42q0 -84 -35.5 -132t-96.5 -48q-19 0 -40.5 6t-50.5 27t-52 54.5t-39 96t-16 143.5q0 161 52.5 267.5t149.5 106.5q51 0 75 -31t24 -69q0 -44 -28 -75.5t-65.5 -45t-80.5 -16.5q-4 0 -23 5t-23 8q-2 2 0.5 6.5 t5.5 4.5q77 0 125.5 34t48.5 84q0 21 -10 33.5t-38 12.5q-49 0 -89.5 -53t-61.5 -132t-22 -163q18 32 51.5 51t66.5 19zM98 195q13 -69 42.5 -101t80.5 -32q62 0 93.5 40.5t31.5 86.5q0 49 -30.5 79.5t-83.5 30.5q-42 0 -84 -31.5t-50 -72.5z" />
<glyph unicode="&#x3d1;" horiz-adv-x="468" d="M351 387q0 124 -34.5 186.5t-91.5 62.5q-41 0 -69.5 -38t-28.5 -89q0 -26 10 -47t29.5 -33.5t38.5 -21t45.5 -12.5t42 -5.5t37.5 -1.5zM28 165q-4 0 -8.5 8t-4.5 13q10 33 36.5 56.5t56.5 23.5q7 0 12 -2t9 -7.5t7 -10.5t5.5 -14.5t4 -17t3 -20.5t2 -21t1.5 -23t2 -23 q6 -73 46 -73q48 0 97 76.5t52 189.5q-29 5 -58 13t-70 26t-71.5 41t-52 60.5t-21.5 81.5q0 65 33 109t102 44q42 0 78.5 -32.5t59.5 -82t36.5 -100.5t17.5 -97q4 0 13.5 -0.5t13.5 -1.5q5 -8 12 -28.5t7 -27.5q0 -13 -8 -17q-9 0 -38 3q-7 -135 -60.5 -225.5t-121.5 -90.5 q-69 0 -91 90q0 2 -3.5 16l-5 20t-5.5 19t-7.5 19.5t-8 15t-10.5 12t-12 3.5q-31 0 -50 -25z" />
<glyph unicode="&#x3d2;" horiz-adv-x="570" d="M237 116v121q0 167 -48 279t-125 112q-34 0 -56 -22q-4 1 -9.5 5.5t-6.5 9.5q13 18 39.5 31.5t55.5 13.5q53 0 95.5 -27t68 -70.5t40 -88.5t19.5 -90q5 48 32.5 110.5t74 114t92.5 51.5q33 0 56 -26q5 -13 5 -31q0 -24 -11.5 -36.5t-24.5 -12.5q-7 0 -14 3t-11 7 l-9.5 9.5t-8.5 7.5q-13 11 -28 11q-30 0 -66 -62.5t-56 -146.5q-17 -75 -17 -194v-79q0 -58 5 -74q2 -7 28 -11.5t41 -4.5q3 -4 3.5 -14.5t-3.5 -14.5q-102 5 -117 5t-118 -5q-4 4 -3.5 14.5t3.5 14.5q15 0 41 4.5t28 11.5q5 16 5 74z" />
<glyph unicode="&#x3d3;" horiz-adv-x="705" d="M372 116v121q0 167 -48 279t-125 112q-34 0 -56 -22q-4 1 -9.5 5.5t-6.5 9.5q13 18 39.5 31.5t55.5 13.5q53 0 95.5 -27t68 -70.5t40 -88.5t19.5 -90q5 48 32.5 110.5t74 114t92.5 51.5q33 0 56 -26q5 -13 5 -31q0 -24 -11.5 -36.5t-24.5 -12.5q-7 0 -14 3t-11 7 l-9.5 9.5t-8.5 7.5q-13 11 -28 11q-30 0 -66 -62.5t-56 -146.5q-17 -75 -17 -194v-79q0 -58 5 -74q2 -7 28 -11.5t41 -4.5q3 -4 3.5 -14.5t-3.5 -14.5q-103 5 -117 5q-15 0 -118 -5q-4 4 -3.5 14.5t3.5 14.5q15 0 41 4.5t28 11.5q5 16 5 74zM80 693q26 0 26 -23 q0 -33 -44.5 -108.5t-54.5 -79.5h-3q-3 0 -7.5 3t-4.5 6q0 10 14.5 74.5t27.5 102.5q3 8 18 16.5t28 8.5z" />
<glyph unicode="&#x3d4;" horiz-adv-x="570" d="M336 778q0 21 14.5 35.5t35.5 14.5t35.5 -14.5t14.5 -35.5t-14.5 -35.5t-35.5 -14.5t-35.5 14.5t-14.5 35.5zM155 778q0 21 14.5 35.5t35.5 14.5t35.5 -14.5t14.5 -35.5t-14.5 -35.5t-35.5 -14.5t-35.5 14.5t-14.5 35.5zM237 116v121q0 167 -48 279t-125 112 q-34 0 -56 -22q-4 1 -9.5 5.5t-6.5 9.5q13 18 39.5 31.5t55.5 13.5q53 0 95.5 -27t68 -70.5t40 -88.5t19.5 -90q5 48 32.5 110.5t74 114t92.5 51.5q33 0 56 -26q5 -13 5 -31q0 -24 -11.5 -36.5t-24.5 -12.5q-7 0 -14 3t-11 7l-9.5 9.5t-8.5 7.5q-13 11 -28 11 q-30 0 -66 -62.5t-56 -146.5q-17 -75 -17 -194v-79q0 -58 5 -74q2 -7 28 -11.5t41 -4.5q3 -4 3.5 -14.5t-3.5 -14.5q-102 5 -117 5t-118 -5q-4 4 -3.5 14.5t3.5 14.5q15 0 41 4.5t28 11.5q5 16 5 74z" />
<glyph unicode="&#x3d5;" horiz-adv-x="591" d="M324 -12q1 -52 9 -118t14 -81q-12 -17 -25 -17q-8 0 -34 13t-26 23v180q-90 5 -156.5 73.5t-66.5 157.5q0 92 64 154.5t160 76.5q-7 197 -14 220q27 23 53 23q24 0 24 -14q-2 -101 -3 -226q113 -10 171 -70.5t58 -161.5q0 -53 -22.5 -97t-58 -71t-73 -43.5t-74.5 -21.5z M264 382q-82 -14 -129.5 -74t-47.5 -121q0 -39 17.5 -67t46 -42t57 -20t57.5 -6q3 88 3 170q0 40 -4 160zM321 387q0 -18 -1.5 -72.5t-1.5 -84.5q0 -74 3 -173q43 4 85.5 26t75 67t32.5 101q0 70 -53.5 103t-139.5 33z" />
<glyph unicode="&#x3d6;" horiz-adv-x="549" d="M385 61q50 0 80 53t30 136q0 40 -15 83.5t-45 85.5t-85 69t-125 27q-107 0 -153 -26q-6 5 -6 13q0 7 18 28.5t27 26.5q45 21 108 21q135 0 228 -115.5t93 -269.5q0 -86 -42 -142t-98 -56q-43 0 -74.5 31t-40.5 64q-37 -96 -121 -96q-64 0 -101.5 52.5t-37.5 127.5 q0 99 34.5 167.5t68.5 93.5q13 0 30 -13q22 -18 22 -36q0 -2 -15 -15q-36 -30 -67.5 -94t-31.5 -121q0 -44 19 -73.5t57 -29.5q52 0 77 44.5t25 106.5q0 47 -4 69q7 15 17 15t30.5 -13.5t22.5 -20.5q0 -9 -3.5 -53t-3.5 -60q0 -24 22.5 -52t59.5 -28z" />
<glyph unicode="&#x3d7;" horiz-adv-x="474" d="M47 332q-2 0 -7 5.5t-5 9.5q10 34 36.5 60t55.5 26q35 -1 54.5 -60t10.5 -151l83 90q14 32 51 78.5t55 46.5q15 0 29.5 -16.5t14.5 -33.5q0 -15 -8 -21q-46 -35 -112 -107q-17 -32 -17 -66q0 -58 26 -95t61 -32q30 3 54 37q4 0 9 -6.5t5 -9.5q-11 -80 -74.5 -160.5 t-119.5 -80.5q-38 0 -54.5 31.5t-16.5 66.5q1 5 5 9t8 4q0 -1 3.5 -7t6.5 -11t9 -12.5t12.5 -12.5t16 -8.5t20.5 -3.5q76 0 128 98q-15 -6 -25 -8q-43 -5 -76.5 34.5t-33.5 131.5q0 55 10 74q-1 -1 -33.5 -37t-47.5 -58q-48 -91 -80 -123q-18 -18 -29 -18q-15 0 -27 27 t-2 49q4 9 21 26t46 44.5t51 53.5q5 78 -9 122t-47 44q-31 0 -58 -30z" />
<glyph unicode="&#x3d8;" horiz-adv-x="718" d="M357 667q130 0 221 -97t91 -251q0 -129 -82 -222t-199 -105q5 -164 18 -202q-12 -17 -25 -17q-8 0 -36.5 13t-28.5 23q3 84 5 183q-118 13 -195 106t-77 239q0 139 90.5 234.5t217.5 95.5zM362 627q-69 0 -122 -48.5t-78 -119.5t-25 -150q0 -111 57 -195.5t154 -84.5 q68 0 122.5 46.5t82.5 116.5t28 147q0 114 -59.5 201t-159.5 87z" />
<glyph unicode="&#x3d9;" horiz-adv-x="473" d="M41 221q0 98 50.5 157t133.5 59q85 0 142 -70.5t57 -165.5q0 -83 -45.5 -141.5t-119.5 -65.5q3 -57 10.5 -124.5t12.5 -80.5q-12 -17 -25 -17q-7 0 -33.5 13t-26.5 23l4 189q-75 14 -117.5 78.5t-42.5 145.5zM96 189q0 -70 34.5 -103t82.5 -33q68 0 111 54t43 136 q0 61 -32.5 96.5t-85.5 35.5q-67 0 -110 -55.5t-43 -130.5z" />
<glyph unicode="&#x3da;" horiz-adv-x="606" d="M368 664q46 0 136 -8.5t120 -8.5q74 0 99 23q19 0 21 -9q0 -5 -15 -26.5t-41 -43.5t-49 -22q-24 0 -111.5 10t-144.5 10q-38 0 -75.5 -10t-78 -37t-71 -67t-50.5 -106.5t-20 -150.5q0 -81 42 -116t90 -35q38 0 119.5 25t112.5 25q44 0 66 -24t22 -59q0 -75 -60 -129.5 t-136 -71.5q-10 0 -19 5.5t-9 14.5q52 7 106 49t54 88q0 50 -52 50q-21 0 -90.5 -23.5t-109.5 -23.5q-61 0 -101.5 36.5t-56.5 88t-16 114.5q0 102 22.5 181.5t56 125.5t78.5 75.5t84 39.5t77 10z" />
<glyph unicode="&#x3db;" horiz-adv-x="559" d="M229 438q45 0 107 -8.5t92 -8.5q77 0 102 23q16 0 18 -9q0 -5 -13.5 -25.5t-38.5 -41t-48 -20.5q-28 0 -95 10t-101 10q-72 0 -124 -59.5t-52 -161.5q0 -45 28 -62.5t62 -17.5q30 0 79.5 21.5t71.5 21.5q33 0 47 -22t14 -50q0 -50 -33.5 -86.5t-90.5 -55.5q-5 0 -13 4 t-8 9q43 14 71 42t28 57q0 12 -9 20t-26 8q-13 0 -58 -19.5t-81 -19.5q-61 0 -90 44.5t-29 117.5q0 121 60.5 200t129.5 79z" />
<glyph unicode="&#x3dc;" horiz-adv-x="453" d="M90 291q0 76 -3 154t-5 118l-3 40q-14 29 -37 39q0 14 10 19q50 -3 109 -3q54 1 118.5 3t115.5 3q30 -38 55 -80q-1 -3 -2.5 -6.5t-2.5 -5t-3 -3.5t-5 -3q-53 30 -89 39.5t-97 9.5q-29 0 -96 -8q0 -50 2 -252h25q80 0 155 29q8 -6 18 -17.5t16.5 -21.5t15.5 -24.5 t10 -16.5q1 -5 -4.5 -11t-10.5 -8q-52 24 -115 24q-75 0 -109 -2v-90q1 -56 6.5 -128.5t11.5 -87.5q-12 -17 -25 -17q-8 0 -36.5 13t-28.5 23q4 124 4 271z" />
<glyph unicode="&#x3dd;" horiz-adv-x="389" d="M154 -211q-12 -17 -25 -17q-7 0 -33.5 13t-26.5 23v558q0 32 30 56q16 12 90 14q115 3 175 16q19 -4 22 -13q0 -8 -24.5 -41.5t-37.5 -33.5q-12 0 -93 5t-106 5q-18 0 -18 -29q0 -37 6 -159q65 0 155 20q22 -5 23 -9q0 -8 -21.5 -34t-36.5 -26q-10 0 -29.5 1t-46.5 2.5 t-41 2.5q4 -74 18 -206t20 -148z" />
<glyph unicode="&#x3de;" horiz-adv-x="518" d="M438 377q6 -3 18.5 -9t19 -11t12.5 -14q4 -12 -3 -22q-105 -96 -103 -193q0 -31 7.5 -56.5t19 -47t12.5 -23.5q-12 -17 -25 -17q-6 0 -33.5 12t-32.5 21q-6 10 -13.5 38.5t-7.5 50.5q0 80 67 162q-71 -44 -154 -44q-70 0 -120.5 40.5t-51.5 106.5q0 95 70 167 q81 85 195 125q13 -4 31 -16.5t26 -25.5q0 -13 -3 -17q-63 -24 -122 -56t-109 -80t-50 -92q0 -40 29 -64.5t88 -24.5q23 0 46 4t39 8.5t40 16t34 17.5t38 22.5t36 21.5z" />
<glyph unicode="&#x3df;" horiz-adv-x="456" d="M-13 591q-3 0 -7 7t-4 12q14 34 44.5 58t60.5 24q31 0 38 -43.5t-3 -112.5l-35 -330l265 166q17 10 27 10q9 0 17.5 -8t8.5 -21q0 -9 -8 -78.5t-17.5 -153.5t-12.5 -110q-1 -6 -5 -42t-4 -52q0 -29 11 -47.5t31 -18.5q32 0 55 23q10 0 10 -21q-14 -33 -44 -56.5 t-60 -23.5q-31 0 -38 43.5t2 112.5q2 17 17.5 159t20.5 193l-284 -183q-6 -2 -9 -2q-10 0 -17.5 12.5t-7.5 31.5q1 23 17 161t18 153q9 74 9 94q0 68 -45 68q-26 0 -51 -25z" />
<glyph unicode="&#x3e0;" horiz-adv-x="746" d="M-6 635q-5 2 -1.5 14t10.5 18q26 3 62 3.5t106 -8t134 -28.5t135 -68t119 -117q49 -70 82 -149t45.5 -141t16.5 -116t2.5 -82t-3.5 -32q-4 -10 -17 -10q-14 0 -31 9.5t-23 16.5q0 187 -58 344l-286 -228q-19 2 -32 19q-4 5 2 11l301 237q-13 33 -43 81q-18 28 -42 55 l-300 -238q-19 2 -32 19q-4 5 2 11l301 237q-40 38 -89 66t-97.5 42t-90 23t-82 10.5t-58.5 1.5t-33 -1z" />
<glyph unicode="&#x3e1;" horiz-adv-x="456" d="M18 415q-3 17 5 24q12 0 36 -4.5t63.5 -17.5t80.5 -34t83.5 -58t75.5 -84t54 -118t21 -155q0 -95 -19 -149q-4 -10 -17 -10q-15 0 -30.5 9.5t-20.5 19.5q23 82 23 168q0 40 -3 70l-258 -117q-13 2 -25 17q-6 8 2 11l273 125q-11 58 -38 104l-256 -117q-13 2 -25 17 q-6 8 2 11l261 119q-32 47 -79.5 82t-94 52.5t-72 24.5t-42.5 10z" />
<glyph unicode="&#x3e2;" horiz-adv-x="858" d="M423 139q-54 -145 -177 -145q-93 0 -141 76.5t-48 193.5q0 126 31 225t68 145q24 16 74 30.5t60 0.5q-58 -51 -108 -157t-50 -227q0 -112 30.5 -182.5t86.5 -70.5q40 0 67.5 27.5t40.5 72.5t18.5 88t5.5 90q0 36 -8.5 139.5t-11.5 120.5q12 21 43.5 38.5t42.5 17.5 q9 0 16 -2.5t10.5 -5t6.5 -8.5t4 -9t2 -9.5t1 -7.5q0 -13 -11 -162t-11 -173q0 -46 10.5 -92.5t37 -84.5t64.5 -38q57 0 93.5 79t36.5 161q0 36 -4 71t-9 62.5t-14.5 56.5t-17 47.5t-19.5 43t-18 34.5t-17.5 29.5t-13.5 22.5q45 39 95 25q33 -24 64.5 -148t31.5 -215 q0 -252 -113.5 -389t-308.5 -137q-83 0 -150.5 22.5t-108.5 56.5q6 7 46 7q82 -41 185 -41q286 0 345 222q-33 -49 -105 -49q-52 0 -94.5 43t-57.5 105z" />
<glyph unicode="&#x3e3;" horiz-adv-x="623" d="M311 90q-37 -96 -123 -96q-64 0 -105.5 54t-41.5 128q0 141 75 233q16 10 55.5 19.5t46.5 -0.5q-39 -33 -71.5 -99.5t-32.5 -141.5q0 -74 19.5 -117.5t57.5 -43.5q27 0 44 16t23.5 47t8.5 54t2 59q0 24 -4.5 85.5t-6.5 71.5q9 14 35 27.5t34 13.5q27 0 34 -30 q0 -9 -9 -95t-9 -102q0 -31 6 -62t22.5 -57t39.5 -26q39 0 61.5 48t22.5 102q0 27 -2.5 52t-8 46.5t-10.5 37t-13.5 33t-12.5 25t-13.5 22.5t-10.5 16q16 13 41 18t38 2q65 -93 65 -267q0 -151 -82.5 -246t-212.5 -95q-113 0 -176 52q5 5 31 5q52 -25 117 -25q77 0 143 43 t89 119q-20 -24 -66 -24q-35 0 -62.5 28.5t-37.5 69.5z" />
<glyph unicode="&#x3e4;" horiz-adv-x="551" d="M387 657q15 0 117 5q4 -4 3.5 -14.5t-3.5 -14.5q-15 0 -41 -4.5t-28 -11.5q-5 -16 -5 -74v-427q0 -58 5 -74q2 -7 28 -11.5t41 -4.5q3 -4 3.5 -14.5t-3.5 -14.5q-102 5 -117 5t-118 -5q-4 4 -3.5 14.5t3.5 14.5q15 0 41 4.5t28 11.5q5 16 5 74v165q-35 -27 -96 -27 q-42 0 -79 12.5t-70 39t-52 74t-19 110.5q0 69 33 125q23 21 70 39q35 13 35 0q-52 -77 -52 -167q0 -98 42.5 -149.5t99.5 -51.5q32 0 60 18.5t28 55.5v183q0 58 -5 74q-2 7 -28 11.5t-41 4.5q-3 4 -3.5 14.5t3.5 14.5q103 -5 118 -5z" />
<glyph unicode="&#x3e5;" horiz-adv-x="446" d="M347 310v-194q0 -58 5 -74q2 -7 25.5 -11.5t37.5 -4.5q3 -4 3.5 -14.5t-3.5 -14.5q-102 5 -107 5q-4 0 -106 -5q-4 4 -3.5 14.5t3.5 14.5q14 0 37.5 4.5t25.5 11.5q5 16 5 74v72q-35 -24 -84 -24q-64 0 -111.5 40t-47.5 116q0 46 14 76q11 11 49 26t45 6 q-30 -35 -30 -107q0 -122 100 -122q24 0 44.5 10t20.5 26v75q0 58 -5 74q-2 7 -25.5 11.5t-37.5 4.5q-3 4 -3.5 14.5t3.5 14.5q103 -5 106 -5q5 0 107 5q4 -4 3.5 -14.5t-3.5 -14.5q-14 0 -37.5 -4.5t-25.5 -11.5q-5 -16 -5 -74z" />
<glyph unicode="&#x3e6;" horiz-adv-x="611" d="M351 429q97 0 162.5 -76.5t65.5 -188.5q0 -123 -58 -197t-158 -116q-97 -41 -233 -41q-13 0 11 18q26 18 52 25q60 -4 111.5 10t94.5 47t67.5 95t24.5 146q0 44 -7 82.5t-24 75.5t-51 58.5t-82 21.5q-42 0 -81.5 -34.5t-39.5 -68.5v-170q0 -58 5 -74q2 -7 28 -11.5 t41 -4.5q3 -4 3.5 -14.5t-3.5 -14.5q-102 5 -117 5t-118 -5q-4 4 -3.5 14.5t3.5 14.5q15 0 41 4.5t28 11.5q5 16 5 74v427q0 58 -5 74q-2 7 -28 11.5t-41 4.5q-3 4 -3.5 14.5t3.5 14.5q103 -5 118 -5t117 5q4 -4 3.5 -14.5t-3.5 -14.5q-15 0 -41 -4.5t-28 -11.5 q-5 -16 -5 -74v-193q19 32 60 55.5t85 23.5z" />
<glyph unicode="&#x3e7;" horiz-adv-x="504" d="M302 362q-35 26 -78 26q-42 0 -74.5 -25t-32.5 -64q0 -21 15 -35t36 -14q82 0 134 112zM342 319q-75 -98 -174 -98q-40 0 -64 22.5t-24 58.5q0 39 22 71t57 49t76 17q47 0 89 -19q7 23 11 44q26 20 70 40t54 11q-9 -15 -19.5 -33.5t-18.5 -34t-18.5 -33.5t-18.5 -33 q75 -69 75 -173q0 -110 -46.5 -163.5t-119.5 -53.5q-48 0 -93.5 11t-70.5 11q-24 0 -53 -16.5t-35 -16.5q-11 0 8 24q40 41 78 45q28 0 73 -9t74 -9q51 0 78 47.5t27 110.5q0 74 -37 130z" />
<glyph unicode="&#x3e8;" horiz-adv-x="525" d="M443 45q-54 -54 -171 -54q-95 0 -162.5 56.5t-67.5 146.5q0 25 9 48.5t15 29.5l55 22q55 22 116 51t112.5 79.5t51.5 103.5q0 44 -28 66t-73 22q-51 0 -109 -44.5t-99 -101.5q-8 0 -14 5.5t-6 9.5q0 11 13 60.5t26 64.5q20 19 67 37.5t102 18.5q77 0 134 -59.5t57 -139.5 q0 -45 -34 -87.5t-82 -72t-104.5 -53.5t-97 -36t-63.5 -16q0 -70 43 -118t127 -48q64 0 116 48.5t71 106.5q2 6 7.5 8.5t10.5 0.5t5 -7q0 -34 -9 -80t-18 -68z" />
<glyph unicode="&#x3e9;" horiz-adv-x="361" d="M191 438q55 0 91 -37.5t36 -82.5t-31 -83.5t-75.5 -61.5t-79.5 -35.5t-56 -16.5q0 -39 29 -62.5t70 -23.5q43 0 75.5 29t45.5 67q6 5 12.5 4t6.5 -6q0 -22 -6.5 -53.5t-12.5 -45.5q-13 -13 -21 -19.5t-29 -12.5t-51 -6q-64 0 -111.5 37t-47.5 95q0 17 7 36.5t14 27.5 l34 13q34 13 72 30t70 47.5t32 62.5q0 24 -17 39.5t-44 15.5q-33 0 -69.5 -29t-64.5 -68q-5 0 -9 3.5t-4 6.5q0 10 7 48.5t16 48.5q11 11 45.5 21.5t65.5 10.5z" />
<glyph unicode="&#x3ea;" horiz-adv-x="570" d="M423 63l-179 323q-1 1 -19.5 -32t-43.5 -80.5t-50 -95.5t-43 -82l-17 -33h352zM220 428l-55 102q-51 92 -98 92q-24 0 -36 -10q-3 1 -7.5 5.5t-4.5 8.5q8 12 31 23.5t39 11.5q53 0 93.5 -37t83.5 -115q15 32 26.5 52t32 47t45.5 41t55 14q42 0 61 -23q8 -26 -3.5 -49.5 t-30.5 -23.5q-23 0 -37 21q-6 10 -8 12.5t-9.5 7t-17.5 4.5q-17 0 -36 -31.5t-56 -110.5q222 -391 251 -456q0 -4 -2.5 -9t-4.5 -5h-521q-2 0 -5 6.5t-3 9.5z" />
<glyph unicode="&#x3eb;" horiz-adv-x="444" d="M323 46l-130 205l-119 -205h249zM100 435q36 0 61 -19t54 -67q50 87 119 87q24 0 42 -18q8 -23 -3 -44.5t-26 -21.5q-21 0 -35 22q-9 14 -21 14q-8 0 -25.5 -21.5t-31.5 -48.5q166 -254 194 -309q0 -9 -4 -9h-402q-5 0 -5 11q113 197 157 273l-43 68q-33 51 -53 51 q-18 0 -35 -11q-12 4 -12 15q31 28 69 28z" />
<glyph unicode="&#x3ec;" horiz-adv-x="755" d="M467 630q-151 0 -236.5 -90.5t-85.5 -219.5q0 -117 60 -204t164 -87t166 76.5t62 182.5q0 77 -40.5 133t-109.5 56q-43 0 -52 -3q-6 2 -6 10q0 9 36.5 23t52.5 14q28 0 61.5 -13.5t68.5 -40t58 -75.5t23 -112q0 -115 -90.5 -200.5t-229.5 -85.5q-138 0 -229 88t-91 246 q0 77 33 143.5t83.5 108t109 65t111.5 23.5q41 0 97 -3t97 -6t44 -3q58 0 91 19q14 -3 17 -10q0 -14 -17 -44.5t-46 -30.5q-22 0 -77.5 20t-124.5 20z" />
<glyph unicode="&#x3ed;" horiz-adv-x="503" d="M522 431q0 -11 -22 -38.5t-50 -27.5q-33 0 -96 19t-91 19q-68 0 -103 -61t-35 -134q0 -82 37.5 -131t95.5 -49q50 0 82 37t32 104q0 48 -27.5 86t-63.5 38q-35 0 -52 -8q-6 4 -6 10q0 7 29 20t45 13q66 0 111.5 -40.5t45.5 -119.5q0 -80 -59 -127t-139 -47 q-85 0 -150 54.5t-65 144.5q0 97 61.5 170.5t145.5 73.5q29 0 71.5 -6.5t75.5 -6.5q72 0 109 21q13 -3 18 -14z" />
<glyph unicode="&#x3ee;" horiz-adv-x="618" d="M310 657q14 0 117 5q4 -4 3.5 -14.5t-3.5 -14.5q-15 0 -41 -4.5t-28 -11.5q-5 -16 -5 -74v-36h137q30 0 60 15q12 6 19 2q12 -105 26 -172q-8 -8 -19 -7q-11 0 -14 5q-11 55 -35.5 88.5t-60.5 33.5h-113v-356q0 -58 5 -74q2 -7 28 -11.5t41 -4.5q3 -4 3.5 -14.5 t-3.5 -14.5q-103 5 -117 5q-16 0 -118 -5q-4 4 -3.5 14.5t3.5 14.5q15 0 41 4.5t28 11.5q5 16 5 74v356h-113q-36 0 -60.5 -33.5t-35.5 -88.5q-3 -5 -14 -5q-11 -1 -19 7q14 67 26 172q8 4 23 -3q28 -14 56 -14h137v36q0 58 -5 74q-2 7 -28 11.5t-41 4.5q-3 4 -3.5 14.5 t3.5 14.5q103 -5 118 -5z" />
<glyph unicode="&#x3ef;" horiz-adv-x="432" d="M143 279q-63 0 -86 -106q-3 -4 -13 -4q-10 -1 -17 6q13 59 23 149q9 5 21 -2q22 -10 51 -10h55q0 56 -5 72q-2 7 -25.5 11.5t-37.5 4.5q-3 4 -3.5 14.5t3.5 14.5q102 -5 106 -5q5 0 107 5q4 -4 3.5 -14.5t-3.5 -14.5q-14 0 -37.5 -4.5t-25.5 -11.5q-5 -16 -5 -72h57 q32 0 54 10q12 5 17 2q9 -81 24 -149q-7 -7 -18 -6q-9 0 -12 4q-23 106 -87 106h-35v-163q0 -58 5 -74q2 -7 25.5 -11.5t37.5 -4.5q3 -4 3.5 -14.5t-3.5 -14.5q-102 5 -107 5q-4 0 -106 -5q-4 4 -3.5 14.5t3.5 14.5q14 0 37.5 4.5t25.5 11.5q5 16 5 74v163h-34z" />
<glyph unicode="&#x3f0;" horiz-adv-x="473" d="M47 332q-2 0 -7 5.5t-5 9.5q10 34 36.5 60t55.5 26q35 -1 54.5 -60t10.5 -151l83 90q14 32 51 78.5t55 46.5q15 0 29.5 -16.5t14.5 -33.5q0 -15 -8 -21q-46 -35 -112 -107q-17 -32 -17 -66q0 -58 26 -95t61 -32q30 3 54 37q4 0 9 -6.5t5 -9.5q-5 -35 -28.5 -63t-52.5 -32 q-43 -5 -76.5 34.5t-33.5 131.5q0 55 10 74q-1 -1 -33.5 -37t-47.5 -58q-48 -91 -80 -123q-18 -18 -29 -18q-15 0 -27 27t-2 49q4 9 21 26t46 44.5t51 53.5q5 78 -9 122t-47 44q-31 0 -58 -30z" />
<glyph unicode="&#x3f1;" horiz-adv-x="480" d="M232 437q89 0 148 -67.5t59 -163.5q0 -92 -51 -152t-128 -60q-47 0 -86.5 24t-56.5 50q1 -15 1 -42t1 -50.5t5 -53.5q3 -27 22 -48.5t46 -21.5q23 0 91 11q63 9 91 -1q9 -3 27.5 -21.5t18.5 -23.5q0 -13 -8 -18q-33 3 -57 3q-19 0 -61.5 -8t-68.5 -8q-133 0 -155 248 q-7 81 -7 127q0 81 15 138.5t41 86t53 40t60 11.5zM234 56q58 0 103 50t45 134q0 77 -37 106t-85 29q-70 0 -105 -63t-35 -148q0 -36 4 -48q24 -60 110 -60z" />
<glyph unicode="&#x3f2;" horiz-adv-x="427" d="M366 350q-8 7 -39.5 14t-68.5 7q-72 0 -121 -58.5t-49 -133.5q0 -37 13.5 -62.5t35.5 -37.5t42 -16.5t42 -4.5q91 0 167 59q7 0 7 -7q0 -18 -10 -38q-41 -77 -154 -77q-83 0 -136.5 61.5t-53.5 142.5q0 111 58 175t137 64q85 0 131 -58q10 -23 -1 -30z" />
<glyph unicode="&#x3f3;" horiz-adv-x="240" d="M93 45v257q0 40 -5 52q-7 18 -65 18q-2 2 -2.5 12t2.5 14q85 12 143 42q4 0 7.5 -6t3.5 -10q-7 -49 -7 -66v-34v-256q0 -68 -17 -123t-45 -89t-55 -54.5t-56 -32.5q-9 6 -13 15q-2 5 0 7q35 25 55 47.5t37 75.5t17 131zM67 593q0 21 14.5 35.5t35.5 14.5t35.5 -14.5 t14.5 -35.5t-14.5 -35.5t-35.5 -14.5t-35.5 14.5t-14.5 35.5z" />
<glyph unicode="&#x3f4;" horiz-adv-x="746" d="M357 633q-54 0 -96 -25t-66 -66.5t-36 -90.5t-12 -101v-4h450q-11 117 -75 202t-165 85zM372 667q135 0 230.5 -96t95.5 -243q0 -139 -96.5 -238.5t-229.5 -99.5q-134 0 -229 96t-95 242q0 140 96 239.5t228 99.5zM599 310h-450q11 -116 74.5 -201t164.5 -85q54 0 96 25 t66 67t36.5 91t12.5 102v1z" />
<glyph unicode="&#x3f5;" d="M366 350q-8 7 -39.5 14t-68.5 7q-59 0 -104 -41t-60 -101q124 4 192 20q22 -5 23 -9q0 -8 -21.5 -34t-36.5 -26q-9 0 -39 2.5t-67.5 6t-55.5 4.5q0 -3 -0.5 -7t-0.5 -7q0 -37 13.5 -62.5t35.5 -37.5t42 -16.5t42 -4.5q91 0 167 59q7 0 7 -7q0 -18 -10 -38 q-41 -77 -154 -77q-83 0 -136.5 61.5t-53.5 142.5q0 111 58 175t137 64q85 0 131 -58q10 -23 -1 -30z" />
<glyph unicode="&#x3f6;" horiz-adv-x="425" d="M59 83q8 -7 39.5 -14t68.5 -7q59 0 104 41t60 101q-124 -4 -192 -20q-22 5 -23 9q0 8 21.5 34t36.5 26q9 0 39 -2.5t67.5 -6t55.5 -4.5q0 2 0.5 7t0.5 7q0 37 -13.5 62.5t-35.5 37.5t-42 16.5t-42 4.5q-91 0 -167 -59q-7 0 -7 7q0 18 10 38q41 77 154 77 q83 0 136.5 -61.5t53.5 -142.5q0 -111 -58 -175t-137 -64q-85 0 -131 58q-10 23 1 30z" />
<glyph unicode="&#x3f7;" horiz-adv-x="480" d="M336 315q-1 62 -38.5 108t-97.5 46q-46 0 -84 -10q1 -48 3 -133t2 -96q3 -200 14 -229q-12 -17 -25 -17q-8 0 -35.5 13t-27.5 23q5 204 5 334q0 114 -17 293q2 5 10 11t12 6q20 0 44.5 -12.5t24.5 -24.5q0 -2 -2 -22.5t-4 -52t-3 -57.5q4 1 36.5 6t39 4.5t45.5 -0.5 q90 -10 134 -63t45 -125q1 -77 -57 -129.5t-139 -52.5q-26 0 -43 15q-3 3 -5.5 12t-0.5 13q17 -8 44 -8q52 0 86 43.5t34 104.5z" />
<glyph unicode="&#x3f8;" horiz-adv-x="484" d="M237 437q89 0 148 -67.5t59 -163.5q0 -92 -51 -152t-128 -60q-47 0 -84.5 23.5t-54.5 49.5q0 -72 11.5 -165t19.5 -113q-12 -17 -25 -17q-8 0 -34 13t-26 23q1 417 1 444q0 90 -3.5 190t-8 160.5t-6.5 67.5q27 23 53 23q24 0 24 -14l-5 -293q46 51 110 51zM239 56 q58 0 103 50t45 134q0 77 -37 106t-85 29q-70 0 -105 -63t-35 -148q0 -36 4 -48q24 -60 110 -60z" />
<glyph unicode="&#x3f9;" horiz-adv-x="667" d="M588 31q-84 -37 -204 -37q-145 0 -239.5 96t-94.5 232q0 143 96.5 244t241.5 101q115 0 212 -21q20 -112 22 -122q0 -3 -4 -5t-8.5 -3t-7.5 -1q-6 0 -10 1q-5 19 -12 33t-26.5 36.5t-61 35.5t-99.5 13q-106 0 -175 -89.5t-69 -201.5q0 -82 28 -151.5t91 -116.5t152 -47 q119 0 202 71q6 -3 6 -9q0 -8 -16 -31t-24 -28z" />
<glyph unicode="&#x3fa;" horiz-adv-x="705" d="M614 467q20 -220 23 -250q6 -57 17.5 -128.5t18.5 -85.5q-10 -19 -23 -20q-7 -1 -37.5 12t-31.5 23q-2 33 -8 137t-12 190q-11 131 -24 205q-29 -116 -140 -391q-2 -4 -5.5 -8t-5.5 -6l-3 -2q-63 2 -85 24q-27 44 -112 190q-13 23 -27 49.5t-28 54.5t-20 39 q-17 -230 -18 -249q-7 -165 17 -257q-6 -14 -16 -16q-17 5 -39.5 17.5t-30.5 28.5q5 37 9.5 75t7.5 69t6 71t4.5 64t2.5 65t1.5 58.5t1 60t0.5 53v54.5v48q0 6 5 15t11 9q18 0 55 -37q48 -105 114 -221q95 -166 124 -208q102 222 153 435q2 9 9 18.5t11 9.5q13 0 36.5 -14 t27.5 -23q0 -3 2 -28.5t4.5 -64.5t4.5 -66z" />
<glyph unicode="&#x3fb;" horiz-adv-x="563" d="M514 -2q-12 0 -30.5 43t-30.5 90q-19 79 -30 167q-8 -50 -32 -113t-56 -100q-9 0 -25 10t-25 23q-42 58 -73 202q-6 -113 -45.5 -235.5t-98.5 -186.5q-6 -6 -19 -6q-8 0 -27 14.5t-19 22.5q56 61 91.5 135t45.5 117.5t18 99.5q5 33 8 68t4 56t2 26q3 12 33 -13 q19 -16 24 -28q2 -10 6 -34q18 -111 65 -200q26 38 52.5 119t39.5 153q2 4 16 -5.5t26.5 -23.5t12.5 -20q0 -29 1 -50q6 -84 34 -173q10 -32 27.5 -60t28.5 -38q5 -5 -5.5 -32.5t-18.5 -27.5z" />
<glyph unicode="&#x3fc;" horiz-adv-x="473" d="M230 56q58 0 103 45.5t45 124.5q0 72 -39.5 110.5t-82.5 38.5q-48 0 -79.5 -33t-43.5 -78.5t-12 -99.5q0 -25 1 -35q3 -29 30.5 -51t77.5 -22zM136 -136q7 -64 12 -75q-12 -17 -25 -17q-7 0 -33.5 13t-26.5 23v56h-50q-5 0 -5 13q0 18 6 27h49q0 338 1 348 q11 89 56.5 137t107.5 48q88 0 145.5 -73t57.5 -167q0 -87 -49.5 -145t-125.5 -58q-82 0 -131 61q1 -18 1 -55q0 -28 6 -96h114q6 0 6 -10q0 -16 -6 -30h-110z" />
<glyph unicode="&#x3fd;" horiz-adv-x="667" d="M79 31q-8 5 -24 28t-16 31q0 6 6 9q83 -71 212 -71q64 0 115.5 26.5t82 69t46.5 91.5t16 99q0 130 -69 225t-177 95q-47 0 -83.5 -10t-55.5 -22t-32.5 -31.5t-17 -29.5t-7.5 -25q-4 -1 -10 -1q-21 0 -20 9l22 122q97 21 212 21q148 0 243 -96t95 -238q0 -131 -95.5 -235 t-238.5 -104q-120 0 -204 37z" />
<glyph unicode="&#x3fe;" horiz-adv-x="665" d="M588 31q-84 -37 -204 -37q-145 0 -239.5 96t-94.5 232q0 143 96.5 244t241.5 101q115 0 212 -21q20 -112 22 -122q0 -3 -4 -5t-8.5 -3t-7.5 -1q-6 0 -10 1q-5 19 -12 33t-26.5 36.5t-61 35.5t-99.5 13q-106 0 -175 -89.5t-69 -201.5q0 -82 28 -151.5t91 -116.5t152 -47 q119 0 202 71q6 -3 6 -9q0 -8 -16 -31t-24 -28zM346 322q0 26 14.5 42t39.5 16q24 0 41 -16t17 -41q0 -23 -16.5 -39t-39.5 -16q-24 0 -40 15.5t-16 38.5z" />
<glyph unicode="&#x3ff;" horiz-adv-x="665" d="M226 322q0 26 14.5 42t39.5 16q24 0 41 -16t17 -41q0 -23 -16.5 -39t-39.5 -16q-24 0 -40 15.5t-16 38.5zM77 31q-8 5 -24 28t-16 31q0 6 6 9q83 -71 212 -71q64 0 115.5 26.5t82 69t46.5 91.5t16 99q0 130 -69 225t-177 95q-47 0 -83.5 -10t-55.5 -22t-32.5 -31.5 t-17 -29.5t-7.5 -25q-4 -1 -10 -1q-21 0 -20 9l22 122q97 21 212 21q148 0 243 -96t95 -238q0 -131 -95.5 -235t-238.5 -104q-120 0 -204 37z" />
<glyph unicode="&#x2000;" horiz-adv-x="469" />
<glyph unicode="&#x2001;" horiz-adv-x="939" />
<glyph unicode="&#x2002;" horiz-adv-x="469" />
<glyph unicode="&#x2003;" horiz-adv-x="939" />
<glyph unicode="&#x2004;" horiz-adv-x="313" />
<glyph unicode="&#x2005;" horiz-adv-x="234" />
<glyph unicode="&#x2006;" horiz-adv-x="156" />
<glyph unicode="&#x2007;" horiz-adv-x="156" />
<glyph unicode="&#x2008;" horiz-adv-x="117" />
<glyph unicode="&#x2009;" horiz-adv-x="187" />
<glyph unicode="&#x200a;" horiz-adv-x="52" />
<glyph unicode="&#x202f;" horiz-adv-x="187" />
<glyph unicode="&#x205f;" horiz-adv-x="234" />
<glyph unicode="&#x25fc;" horiz-adv-x="430" d="M0 430h430v-430h-430v430z" />
</font>
</defs>
</svg>
