<?xml version="1.0" standalone="no"?>
<!DOCTYPE svg PUBLIC "-//W3C//DTD SVG 1.1//EN" "http://www.w3.org/Graphics/SVG/1.1/DTD/svg11.dtd">
<svg xmlns="http://www.w3.org/2000/svg">
<defs >
<font id="SourceSansPro" horiz-adv-x="454" ><font-face
    font-family="Source Sans Pro"
    units-per-em="1000"
    panose-1="2 11 4 3 3 4 3 9 2 4"
    ascent="984"
    descent="-273"
    alphabetic="0" />
<glyph unicode=" " glyph-name="space" horiz-adv-x="189" />
<glyph unicode="!" glyph-name="exclam" horiz-adv-x="253" d="M95 179L174 600L187 672H228L214 600L127 179H95ZM76 -12Q60 -12 51 -2T42 23Q42 43 56 59T91 76Q107 76 115 66T123 39Q123 19 110 4T76 -12Z" />
<glyph unicode="&quot;" glyph-name="quotedbl" horiz-adv-x="347" d="M132 464L156 600L169 672H210L196 600L163 464H132ZM266 464L290 600L303 672H344L330 600L297 464H266Z" />
<glyph unicode="#" glyph-name="numbersign" horiz-adv-x="464" d="M41 0L108 214H27L36 250H118L170 420H87L97 456H182L243 650H278L217 456H357L418 650H453L392 456H473L463 420H381L329 250H412L403 214H317L250 0H216L283 214H142L75 0H41ZM153 250H295L347
420H205L153 250Z" />
<glyph unicode="$" glyph-name="dollar" horiz-adv-x="462" d="M146 -110L166 -10Q120 -2 83 24T23 79L51 107Q74 75 111 50T197 24Q228 24 255 34T302 63T333 108T344 165Q344 206 328 235T288 288T235 331T182 373T141 422T125 488Q125 524 138 554T173 605T227
639T294 652L314 750H350L329 649Q365 641 395 619T445 567L415 542Q395 573 365 594T296 616Q268 616 245 607T204 583T176 545T166 495Q166 460 182 436T222 390T275 350T328 306T369 250T385 173Q385 134 372 101T334 42T275 3T201 -12L182 -110H146Z" />
<glyph unicode="%" glyph-name="percent" horiz-adv-x="768" d="M180 258Q151 258 130 269T94 301T73 348T66 406Q66 449 77 496T110 582T165 646T242 672Q271 672 292 661T328 629T349 583T356 525Q356 481 345 434T312 348T256 284T180 258ZM182 289Q216 289
241 311T284 368T310 443T319 519Q319 570 301 605T240 641Q206 641 181 619T138 562T112 487T103 411Q103 360 121 325T182 289ZM131 -12L621 672H657L167 -12H131ZM551 -12Q522 -12 501 -1T465 31T444 78T437 136Q437 179 448 226T481 312T536 376T613 402Q642
402 663 391T699 359T720 313T727 255Q727 211 716 164T683 78T627 14T551 -12ZM553 19Q587 19 612 41T655 98T681 173T690 249Q690 300 672 335T611 371Q577 371 552 349T509 292T483 217T474 141Q474 90 492 55T553 19Z" />
<glyph unicode="&amp;" glyph-name="ampersand" horiz-adv-x="553" d="M168 -12Q135 -12 107 -2T59 28T28 74T16 136Q16 176 30 209T69 269T125 320T189 365Q172 425 172 480Q172 523 185 558T220 619T270 657T330 671Q354 671 371 664T399 643T416 614T422 578Q422
539 406 508T363 449T303 399T234 353Q254 290 288 230T364 123Q409 169 443 224T507 344H547Q515 275 476 212T388 98Q415 72 440 52T491 22L472 -12Q420 9 358 69Q316 31 269 10T168 -12ZM211 484Q211 461 214 437T224 387Q255 406 284 426T335 468T370 515T384
572Q384 598 371 617T327 637Q302 637 281 626T244 594T220 545T211 484ZM177 23Q218 23 258 43T335 95Q293 143 258 204T200 330Q171 311 146 291T101 249T70 200T58 143Q58 89 91 56T177 23Z" />
<glyph unicode="&apos;" glyph-name="quotesingle" horiz-adv-x="213" d="M132 464L156 600L169 672H210L196 600L163 464H132Z" />
<glyph unicode="(" glyph-name="parenleft" horiz-adv-x="268" d="M126 -175Q101 -110 86 -30T70 134Q70 221 86 299T132 450T205 592T302 730L328 713Q221 582 165 437T108 127Q108 90 111 51T119 -26T134 -99T155 -165L126 -175Z" />
<glyph unicode=")" glyph-name="parenright" horiz-adv-x="270" d="M-26 -175L-51 -157Q55 -26 111 119T168 429Q168 466 165 505T157 582T143 655T122 721L150 730Q176 666 191 586T206 422Q206 334 190 256T144 105T71 -37T-26 -175Z" />
<glyph unicode="*" glyph-name="asterisk" horiz-adv-x="382" d="M177 473L157 491L222 574L139 619L150 644L243 612L265 712L293 710L285 609L381 623L386 596L288 568L326 476L301 461L253 546L177 473Z" />
<glyph unicode="+" glyph-name="plus" horiz-adv-x="462" d="M226 108V314H48V348H227V548H263V348H442V314H263V108H226Z" />
<glyph unicode="," glyph-name="comma" horiz-adv-x="213" d="M-24 -151L-33 -121Q9 -103 35 -73T67 -7H62Q46 -7 36 2T26 28Q26 45 38 60T72 76Q91 76 101 63T111 27Q111 -3 101 -30T72 -81T30 -123T-24 -151Z" />
<glyph unicode="-" glyph-name="hyphen" horiz-adv-x="287" d="M36 232L43 269H253L245 232H36Z" />
<glyph unicode="." glyph-name="period" horiz-adv-x="213" d="M55 -12Q39 -12 31 -2T22 23Q22 43 36 59T71 76Q87 76 94 66T102 39Q102 19 89 4T55 -12Z" />
<glyph unicode="/" glyph-name="slash" horiz-adv-x="347" d="M-73 -160L397 710H433L-38 -160H-73Z" />
<glyph unicode="0" glyph-name="zero" horiz-adv-x="462" d="M190 -12Q152 -12 125 5T80 52T54 119T45 198Q45 278 64 359T118 505T198 610T299 651Q336 651 363 633T408 586T434 518T443 439Q443 359 424 279T371 134T291 29T190 -12ZM191 24Q221 24 248 42T299
91T342 163T374 249T395 343T403 435Q403 471 397 504T378 561T345 601T296 616Q251 616 212 576T145 475T101 341T85 202Q85 167 91 135T110 78T143 39T191 24Z" />
<glyph unicode="1" glyph-name="one" horiz-adv-x="462" d="M30 0L38 36H181L289 571H176L182 599Q220 604 253 614T310 639H344L222 36H359L353 0H30Z" />
<glyph unicode="2" glyph-name="two" horiz-adv-x="462" d="M-9 0L-5 27Q101 118 177 184T301 303T372 401T395 495Q395 520 388 541T366 579T329 605T275 615Q240 615 203 598T129 544L105 573Q148 610 189 630T279 651Q356 651 396 609T436 502Q436 447 414
399T346 298T230 183T64 37H374L368 0H-9Z" />
<glyph unicode="3" glyph-name="three" horiz-adv-x="462" d="M177 -12Q143 -12 115 -2T64 23T24 58T-5 95L24 118Q36 101 51 85T85 55T128 33T181 24Q220 24 253 36T310 69T347 120T361 183Q361 211 350 235T314 278T252 306T159 316L167 351Q232 351 276 365T348
402T387 451T399 502Q399 552 372 583T284 615Q251 615 212 600T145 558L121 588Q157 617 200 634T289 651Q365 651 402 613T440 510Q440 448 400 400T285 333V329Q338 313 370 277T402 188Q402 143 386 107T339 44T268 3T177 -12Z" />
<glyph unicode="4" glyph-name="four" horiz-adv-x="462" d="M287 0H247L285 189H8L12 215L377 639H415L332 225H421L414 189H325L287 0ZM67 225H292L339 458Q344 483 351 514T367 577H363Q343 550 323 526T284 479L67 225Z" />
<glyph unicode="5" glyph-name="five" horiz-adv-x="462" d="M174 -12Q139 -12 112 -3T62 22T24 55T-3 93L27 116Q37 100 50 84T80 54T122 33T179 24Q215 24 248 38T307 79T348 143T364 225Q364 297 328 331T232 366Q197 366 172 357T117 331L95 348L175 639H450L442
603H204L142 377Q161 387 185 394T239 401Q311 401 358 359T405 233Q405 177 386 132T336 55T262 6T174 -12Z" />
<glyph unicode="6" glyph-name="six" horiz-adv-x="462" d="M216 -12Q178 -12 148 4T96 48T64 114T52 198Q52 295 74 378T134 522T224 617T338 651Q386 651 416 630T466 574L435 551Q417 583 393 599T335 615Q293 615 255 592T185 526T131 426T99 300Q134 341
178 360T258 380Q331 380 371 334T412 214Q412 167 397 126T355 54T293 6T216 -12ZM219 23Q249 23 277 38T326 78T359 135T372 204Q372 268 342 306T252 344Q239 344 221 340T182 326T138 299T94 254Q93 241 93 229T92 202Q92 163 100 130T125 74T165 37T219 23Z"
/>
<glyph unicode="7" glyph-name="seven" horiz-adv-x="462" d="M132 0Q153 94 178 175T240 329T324 469T440 603H112L120 639H498L493 611Q418 539 366 468T278 323T219 169T177 0H132Z" />
<glyph unicode="8" glyph-name="eight" horiz-adv-x="462" d="M215 -12Q180 -12 148 -2T90 29T50 81T34 154Q34 192 47 223T82 279T132 322T190 355V359Q161 386 147 414T132 483Q132 523 146 554T185 606T240 639T307 651Q336 651 363 642T410 615T443 569T456
505Q456 472 447 445T420 395T379 354T328 319V315Q340 306 356 293T385 261T408 221T418 173Q418 130 402 96T358 37T293 1T215 -12ZM299 334Q321 347 342 364T380 402T407 447T417 501Q417 529 408 550T383 587T347 609T304 617Q278 617 254 608T212 582T182
541T171 486Q171 457 180 435T205 395T246 363T299 334ZM216 22Q246 22 275 31T327 60T364 105T378 167Q378 200 364 224T328 268T275 304T214 338Q183 321 158 303T114 264T85 216T74 158Q74 125 86 100T117 57T163 31T216 22Z" />
<glyph unicode="9" glyph-name="nine" horiz-adv-x="462" d="M237 295Q250 295 269 299T309 313T353 342T395 387Q396 400 396 412T397 438Q397 477 389 509T364 565T324 602T270 616Q240 616 212 601T163 561T129 504T116 436Q116 371 146 333T237 295ZM150 -12Q103
-12 73 9T22 65L54 88Q71 56 95 40T153 24Q195 24 234 47T304 113T358 213T390 339Q355 298 311 279T231 259Q158 259 117 305T76 425Q76 472 91 513T133 585T195 633T272 651Q311 651 341 636T393 592T425 526T437 441Q437 343 415 261T355 117T264 22T150 -12Z"
/>
<glyph unicode=":" glyph-name="colon" horiz-adv-x="213" d="M123 378Q107 378 99 388T90 413Q90 433 104 449T139 466Q155 466 162 456T170 429Q170 409 157 394T123 378ZM55 -12Q39 -12 31 -2T22 23Q22 43 36 59T71 76Q87 76 94 66T102 39Q102 19 89 4T55 -12Z" />
<glyph unicode=";" glyph-name="semicolon" horiz-adv-x="213" d="M123 378Q107 378 99 388T90 413Q90 433 104 449T139 466Q155 466 162 456T170 429Q170 409 157 394T123 378ZM-24 -151L-33 -121Q9 -103 35 -73T67 -7H62Q46 -7 36 2T26 28Q26 45 38 60T72 76Q91
76 101 63T111 27Q111 -3 101 -30T72 -81T30 -123T-24 -151Z" />
<glyph unicode="&lt;" glyph-name="less" horiz-adv-x="462" d="M442 150L46 312V348L442 510V472L219 382L96 332V328L219 279L442 189V150Z" />
<glyph unicode="=" glyph-name="equal" horiz-adv-x="462" d="M48 414V448H442V414H48ZM48 469V503H442V469H48Z" />
<glyph unicode="&gt;" glyph-name="greater" horiz-adv-x="462" d="M48 150V189L271 279L394 328V332L271 382L48 472V510L444 348V312L48 150Z" />
<glyph unicode="?" glyph-name="question" horiz-adv-x="388" d="M144 183Q146 226 162 260T201 322T251 376T301 426T339 480T354 543Q354 592 328 619T256 646Q222 646 190 630T135 587L110 614Q136 642 175 662T260 682Q323 682 359 648T395 551Q395 510 380
478T342 417T292 364T241 311T200 252T181 180L144 183ZM130 -12Q114 -12 106 -2T97 23Q97 43 111 59T146 76Q162 76 169 66T177 39Q177 19 164 4T130 -12Z" />
<glyph unicode="@" glyph-name="at" horiz-adv-x="783" d="M336 -145Q273 -145 220 -124T128 -63T68 34T46 164Q46 264 81 350T176 498T311 595T467 631Q534 631 586 610T673 550T727 459T746 342Q746 273 730 219T686 128T624 72T553 52Q517 52 496 73T467 128H465Q440
99 412 80T350 60Q329 60 309 68T274 92T250 133T240 190Q240 233 255 274T296 349T356 402T431 422Q455 422 474 409T506 371H508L521 414H552L504 201Q498 176 498 155T504 119T524 94T560 85Q587 85 613 102T661 151T696 229T710 335Q710 393 695 441T648 525T571
579T464 598Q392 598 324 566T202 476T115 340T82 171Q82 104 101 52T154 -37T236 -93T339 -112Q381 -112 416 -103T484 -75L499 -103Q459 -126 418 -135T336 -145ZM355 94Q381 94 407 111T459 163L498 336Q481 367 464 378T430 389Q396 389 368 371T320 325T288
263T277 197Q277 143 300 119T355 94Z" />
<glyph unicode="A" glyph-name="A" horiz-adv-x="488" d="M210 391L142 264H370L355 391Q350 446 344 501T332 616H328Q299 556 270 502T210 391ZM-48 0L315 659H362L443 0H400L374 229H123L0 0H-48Z" />
<glyph unicode="B" glyph-name="B" horiz-adv-x="571" d="M39 0L170 659H332Q425 659 475 622T525 516Q525 480 511 451T475 401T427 368T376 351V347Q400 341 422 330T462 302T490 262T500 207Q500 154 481 115T426 51T342 13T234 0H39ZM154 367H266Q375 367
428 407T482 512Q482 565 442 594T315 623H206L154 367ZM88 36H219Q273 36 317 45T392 74T441 126T458 204Q458 260 413 296T282 332H148L88 36Z" />
<glyph unicode="C" glyph-name="C" horiz-adv-x="540" d="M281 -12Q225 -12 184 7T114 62T72 144T58 248Q58 321 81 396T147 533T252 632T392 671Q448 671 485 644T546 578L514 555Q494 589 464 611T389 634Q321 634 268 598T177 507T121 384T101 254Q101 205
112 163T145 91T203 43T286 25Q332 25 369 42T442 89L465 61Q424 27 381 8T281 -12Z" />
<glyph unicode="D" glyph-name="D" horiz-adv-x="577" d="M39 0L170 659H279Q347 659 398 641T483 589T534 508T551 403Q551 317 528 244T461 116T351 31T199 0H39ZM88 36H200Q273 36 330 65T427 143T487 259T508 400Q508 450 494 491T451 561T379 607T277 623H205L88
36Z" />
<glyph unicode="E" glyph-name="E" horiz-adv-x="489" d="M39 0L170 659H518L510 622H205L154 368H412L404 331H148L88 37H402L394 0H39Z" />
<glyph unicode="F" glyph-name="F" horiz-adv-x="455" d="M39 0L170 659H518L510 622H205L152 355H410L402 318H146L82 0H39Z" />
<glyph unicode="G" glyph-name="G" horiz-adv-x="575" d="M291 -12Q232 -12 189 7T116 60T73 143T58 248Q58 323 81 398T147 534T255 633T402 671Q430 671 453 664T496 643T530 614T557 578L525 555Q505 589 475 611T399 634Q328 634 273 598T179 507T121 384T101
254Q101 207 111 165T145 92T206 43T296 25Q341 25 374 39T431 75L473 286H321L329 322H522L467 54Q432 24 389 6T291 -12Z" />
<glyph unicode="H" glyph-name="H" horiz-adv-x="605" d="M39 0L170 659H213L154 368H494L553 659H596L464 0H421L488 331H148L82 0H39Z" />
<glyph unicode="I" glyph-name="I" horiz-adv-x="227" d="M39 0L170 659H213L82 0H39Z" />
<glyph unicode="J" glyph-name="J" horiz-adv-x="436" d="M150 -12Q90 -12 54 16T1 90L34 110Q61 25 151 25Q208 25 243 66T292 177L388 659H431L334 172Q319 88 272 38T150 -12Z" />
<glyph unicode="K" glyph-name="K" horiz-adv-x="532" d="M39 0L170 659H213L142 301H144L522 659H573L323 416L474 0H429L290 388L130 238L82 0H39Z" />
<glyph unicode="L" glyph-name="L" horiz-adv-x="440" d="M39 0L170 659H213L90 37H383L375 0H39Z" />
<glyph unicode="M" glyph-name="M" horiz-adv-x="684" d="M39 0L170 659H232L296 273L321 127H325L400 273L614 659H675L543 0H501L589 436Q598 478 608 525T629 613H626L547 470L330 74H293L224 470L201 613H197Q189 571 182 525T167 436L80 0H39Z" />
<glyph unicode="N" glyph-name="N" horiz-adv-x="605" d="M39 0L170 659H216L391 191L437 57H441Q449 105 456 154T473 251L554 659H597L465 0H421L248 466L200 605H196Q188 556 180 508T162 413L81 0H39Z" />
<glyph unicode="O" glyph-name="O" horiz-adv-x="618" d="M277 -12Q223 -12 183 8T115 64T75 151T61 262Q61 308 70 356T98 449T144 535T206 605T283 653T374 671Q428 671 468 651T536 595T576 508T590 397Q590 351 581 303T553 210T507 124T445 54T368 6T277
-12ZM280 25Q343 25 393 60T477 150T529 269T547 392Q547 446 537 490T506 567T451 616T371 634Q308 634 259 599T175 509T123 390T105 267Q105 213 115 169T146 92T201 43T280 25Z" />
<glyph unicode="P" glyph-name="P" horiz-adv-x="531" d="M39 0L170 659H343Q434 659 486 623T539 506Q539 450 519 409T463 341T375 300T260 286H138L82 0H39ZM146 322H256Q375 322 435 367T496 502Q496 567 453 595T325 623H205L146 322Z" />
<glyph unicode="Q" glyph-name="Q" horiz-adv-x="618" d="M280 25Q343 25 393 60T477 150T529 269T547 392Q547 446 537 490T506 567T451 616T371 634Q308 634 259 599T175 509T123 390T105 267Q105 213 115 169T146 92T201 43T280 25ZM445 -153Q372 -153 316
-119T241 -9Q196 -3 162 19T106 77T72 160T61 262Q61 308 70 356T98 449T144 535T206 605T283 653T374 671Q428 671 468 651T536 595T576 508T590 397Q590 329 569 258T509 127T413 29T284 -12Q299 -65 343 -90T448 -115Q472 -115 496 -109L501 -146Q474 -153 445
-153Z" />
<glyph unicode="R" glyph-name="R" horiz-adv-x="531" d="M39 0L170 659H336Q425 659 477 625T530 514Q530 469 515 433T471 370T405 326T320 304L445 0H397L275 301H142L82 0H39ZM150 337H265Q372 337 429 383T487 510Q487 572 445 597T317 623H205L150 337Z" />
<glyph unicode="S" glyph-name="S" horiz-adv-x="493" d="M227 -12Q158 -12 105 16T16 100L49 123Q81 76 125 51T232 25Q268 25 298 36T351 66T387 114T400 177Q400 219 377 248T315 301L230 351Q210 363 191 378T158 411T136 452T127 501Q127 535 141 566T180
620T240 657T317 671Q377 671 422 645T495 582L466 556Q440 588 402 611T311 634Q279 634 253 623T209 593T181 552T171 506Q171 461 197 433T258 385L341 337Q388 309 416 273T444 182Q444 138 428 103T382 42T313 2T227 -12Z" />
<glyph unicode="T" glyph-name="T" horiz-adv-x="497" d="M176 0L300 620H98L106 659H553L545 620H343L219 0H176Z" />
<glyph unicode="U" glyph-name="U" horiz-adv-x="600" d="M90 269L168 659H211L134 273Q128 250 126 230T124 192Q124 112 162 69T277 25Q308 25 337 37T392 75T436 142T468 242L551 659H594L509 236Q495 167 471 120T417 44T349 1T273 -12Q182 -12 132 38T81
184Q81 204 83 224T90 269Z" />
<glyph unicode="V" glyph-name="V" horiz-adv-x="463" d="M145 0L83 659H125L159 269Q164 215 169 160T179 48H183Q210 102 238 159T294 269L497 659H541L195 0H145Z" />
<glyph unicode="W" glyph-name="W" horiz-adv-x="734" d="M106 0L107 659H150L148 270Q146 216 146 162T144 54H148Q173 108 198 162T246 270L427 659H471L484 270Q488 162 490 54H494Q537 162 584 270L745 659H789L508 0H454L440 453Q440 492 440 530T440 608H436Q421
568 404 531T369 453L160 0H106Z" />
<glyph unicode="X" glyph-name="X" horiz-adv-x="459" d="M-36 0L222 343L109 659H154L223 459Q231 436 237 416T252 372H255Q290 418 324 464L467 659H513L270 337L393 0H348L275 209Q266 233 258 258T240 309H238Q217 283 197 256T160 203L10 0H-36Z" />
<glyph unicode="Y" glyph-name="Y" horiz-adv-x="433" d="M140 0L194 269L85 659H129L184 451Q194 415 202 381T221 309H225Q249 344 272 380T320 451L464 659H510L237 269L183 0H140Z" />
<glyph unicode="Z" glyph-name="Z" horiz-adv-x="505" d="M1 0L7 26L472 622H147L155 659H531L526 633L63 37H422L414 0H1Z" />
<glyph unicode="[" glyph-name="bracketleft" horiz-adv-x="270" d="M15 -152L187 708H338L335 680H214L54 -124H173L166 -152H15Z" />
<glyph unicode="\" glyph-name="backslash" horiz-adv-x="347" d="M229 -160L89 710H121L261 -160H229Z" />
<glyph unicode="]" glyph-name="bracketright" horiz-adv-x="270" d="M-60 -152L-54 -124H65L228 680H107L112 708H265L93 -152H-60Z" />
<glyph unicode="^" glyph-name="asciicircum" horiz-adv-x="464" d="M90 288L234 670H268L413 288H377L301 491L253 623H251L204 491L128 288H90Z" />
<glyph unicode="_" glyph-name="underscore" horiz-adv-x="484" d="M-29 -115L-21 -81H436L429 -115H-29Z" />
<glyph unicode="`" glyph-name="grave" horiz-adv-x="508" d="M365 570L246 731L283 758L392 590L365 570Z" />
<glyph unicode="a" glyph-name="a" horiz-adv-x="527" d="M184 -12Q121 -12 83 32T44 161Q44 230 66 290T124 396T208 466T305 492Q347 492 378 471T429 414H432L451 480H485L389 0H354L365 76H361Q324 38 279 13T184 -12ZM193 24Q240 24 285 51T373 128L423 369Q397
416 368 436T304 456Q261 456 222 432T152 367T104 275T86 169Q86 96 114 60T193 24Z" />
<glyph unicode="b" glyph-name="b" horiz-adv-x="526" d="M75 0H40L184 719H225L183 510L162 413H164Q202 444 247 468T341 492Q405 492 443 448T481 319Q481 250 459 190T401 84T317 14T221 -12Q178 -12 148 9T97 66H94L75 0ZM332 456Q292 456 244 431T155 367L103
111Q129 64 158 44T221 24Q264 24 303 48T373 113T422 206T440 312Q440 384 411 420T332 456Z" />
<glyph unicode="c" glyph-name="c" horiz-adv-x="430" d="M212 -12Q134 -12 88 37T42 178Q42 248 64 305T123 404T206 469T301 492Q343 492 371 476T422 434L396 406Q374 432 353 444T298 456Q257 456 219 434T150 375T102 289T84 184Q84 106 117 65T217 24Q253
24 284 39T341 74L362 44Q336 24 299 6T212 -12Z" />
<glyph unicode="d" glyph-name="d" horiz-adv-x="528" d="M432 415L451 510L493 719H534L389 0H354L365 76H361Q324 38 279 13T184 -12Q121 -12 83 32T44 161Q44 230 66 290T124 396T208 466T305 492Q347 492 378 471T428 415H432ZM193 24Q240 24 285 51T373 128L423
369Q397 416 368 436T304 456Q261 456 222 432T152 367T104 275T86 169Q86 96 114 60T193 24Z" />
<glyph unicode="e" glyph-name="e" horiz-adv-x="471" d="M42 186Q42 254 64 310T121 407T201 470T292 492Q331 492 358 480T403 445T428 391T436 322Q436 296 432 274T423 238H88Q78 181 86 141T114 74T164 36T231 23Q263 23 294 37T351 70L370 40Q341 19 304
4T225 -12Q141 -12 92 38T42 186ZM94 271H392Q398 299 398 328Q398 352 393 375T374 417T340 446T288 457Q256 457 226 444T169 405T124 346T94 271Z" />
<glyph unicode="f" glyph-name="f" horiz-adv-x="256" d="M73 444L79 476L143 480L165 590Q180 662 214 696T297 731Q322 731 339 725T372 709L354 678Q343 685 330 690T297 695Q261 695 238 665T206 590L184 480H290L282 444H176L88 0H47L135 444H73Z" />
<glyph unicode="g" glyph-name="g" horiz-adv-x="521" d="M167 -231Q115 -231 76 -211T4 -165L27 -135Q54 -160 89 -177T169 -195Q240 -195 280 -149T337 -26L361 86Q320 46 277 22T183 -2Q121 -2 83 41T44 169Q44 236 66 294T124 397T205 466T299 492Q341 492
372 471T422 414H426L445 480H479L374 -41Q356 -130 304 -180T167 -231ZM191 35Q231 35 278 61T367 132L417 369Q390 416 361 436T298 456Q257 456 219 432T152 368T104 278T86 176Q86 105 114 70T191 35Z" />
<glyph unicode="h" glyph-name="h" horiz-adv-x="504" d="M40 0L184 719H225L171 453L158 403H162Q209 442 250 467T336 492Q398 492 424 460T450 375Q450 357 449 344T442 310L380 0H339L401 304Q405 326 407 339T409 366Q409 411 389 433T323 455Q291 455 249
432T153 354L82 0H40Z" />
<glyph unicode="i" glyph-name="i" horiz-adv-x="220" d="M40 0L137 480H178L82 0H40ZM183 596Q169 596 160 605T150 629Q150 649 162 661T192 674Q206 674 215 665T225 640Q225 621 213 609T183 596Z" />
<glyph unicode="j" glyph-name="j" horiz-adv-x="220" d="M-57 -229Q-79 -229 -93 -225T-120 -213L-104 -180Q-95 -186 -85 -189T-57 -193Q-27 -193 -9 -166T21 -93L137 480H178L64 -88Q50 -154 22 -191T-57 -229ZM184 596Q170 596 160 605T150 629Q150 649 162
661T192 674Q206 674 216 665T226 640Q226 621 213 609T184 596Z" />
<glyph unicode="k" glyph-name="k" horiz-adv-x="447" d="M40 0L184 719H225L120 190H123L407 480H457L269 285L385 0H342L238 258L107 125L82 0H40Z" />
<glyph unicode="l" glyph-name="l" horiz-adv-x="232" d="M92 -12Q72 -12 60 -1T48 31Q48 42 53 62L184 719H225L94 59Q92 51 92 47T92 39Q92 24 106 24Q110 24 112 24T123 28L126 -5Q118 -9 111 -10T92 -12Z" />
<glyph unicode="m" glyph-name="m" horiz-adv-x="782" d="M40 0L137 480H171L160 404H164Q205 442 247 467T324 492Q354 492 374 484T408 463T427 431T435 392Q485 440 530 466T610 492Q670 492 696 460T723 375Q723 357 722 344T715 310L653 0H611L673 304Q678
326 679 339T681 366Q681 411 662 433T598 455Q575 455 532 432T438 354L367 0H326L387 304Q392 326 393 339T395 366Q395 411 376 433T312 455Q289 455 246 432T153 354L82 0H40Z" />
<glyph unicode="n" glyph-name="n" horiz-adv-x="510" d="M40 0L137 480H171L160 404H164Q209 442 250 467T336 492Q398 492 424 460T450 375Q450 357 449 344T442 310L380 0H339L401 304Q405 326 407 339T409 366Q409 411 389 433T323 455Q291 455 249 432T153
354L82 0H40Z" />
<glyph unicode="o" glyph-name="o" horiz-adv-x="504" d="M206 -12Q132 -12 88 37T44 178Q44 245 65 302T121 402T202 468T297 492Q372 492 416 443T460 302Q460 235 439 178T382 78T301 12T206 -12ZM210 24Q249 24 286 46T352 105T400 191T418 297Q418 375 386
415T294 456Q255 456 218 434T151 375T103 289T85 184Q85 106 117 65T210 24Z" />
<glyph unicode="p" glyph-name="p" horiz-adv-x="524" d="M92 65L71 -43L38 -217H-3L137 480H171L161 412H165Q203 444 247 468T341 492Q405 492 443 448T481 319Q481 250 459 190T401 84T317 14T221 -12Q179 -12 147 10T94 65H92ZM332 456Q292 456 244 431T155
366L103 107Q129 62 158 43T221 24Q264 24 303 48T373 113T422 206T440 312Q440 384 411 420T332 456Z" />
<glyph unicode="q" glyph-name="q" horiz-adv-x="527" d="M339 -43L365 78H363Q326 40 280 14T184 -12Q121 -12 83 32T44 161Q44 230 66 290T124 396T208 466T305 492Q347 492 378 471T429 414H432L451 480H485L346 -217H304L339 -43ZM193 24Q233 24 281 51T373
128L423 369Q397 416 368 436T304 456Q261 456 222 432T152 367T104 275T86 169Q86 96 114 60T193 24Z" />
<glyph unicode="r" glyph-name="r" horiz-adv-x="317" d="M40 0L137 480H171L156 389H160Q190 432 227 462T311 492Q321 492 331 491T354 484L338 445Q331 448 323 450T300 453Q262 453 220 418T145 318L82 0H40Z" />
<glyph unicode="s" glyph-name="s" horiz-adv-x="389" d="M159 -12Q133 -12 109 -5T64 16T26 44T-1 77L28 99Q48 67 83 45T164 23Q189 23 211 31T250 53T277 85T287 124Q287 138 283 150T269 175T241 199T195 227Q131 262 105 290T78 357Q78 387 90 412T123 455T171
482T229 492Q270 492 303 476T362 434L335 408Q315 428 290 442T228 457Q205 457 185 450T150 429T127 399T118 363Q118 346 125 333T145 308T173 287T207 267Q246 246 269 228T306 194T323 163T327 131Q327 98 314 72T279 27T226 -2T159 -12Z" />
<glyph unicode="t" glyph-name="t" horiz-adv-x="299" d="M174 -12Q146 -12 127 -5T95 16T78 46T73 83Q73 97 74 107T77 131L142 444H67L73 476L151 480L184 617H219L191 480H321L313 444H183L118 129Q116 120 115 111T114 91Q114 58 128 41T182 24Q199 24 213
29T240 41L251 10Q237 2 217 -5T174 -12Z" />
<glyph unicode="u" glyph-name="u" horiz-adv-x="518" d="M475 480L379 0H345L355 78H351Q307 40 266 14T181 -12Q119 -12 93 20T66 105Q66 123 67 136T74 170L136 480H177L116 176Q111 154 110 141T108 114Q108 69 128 47T193 25Q225 25 267 49T363 126L434 480H475Z" />
<glyph unicode="v" glyph-name="v" horiz-adv-x="419" d="M134 0L58 480H99L145 177Q151 142 155 106T165 35H169Q187 70 206 106T244 177L407 480H450L187 0H134Z" />
<glyph unicode="w" glyph-name="w" horiz-adv-x="683" d="M110 0L69 480H110L134 166Q137 133 139 101T144 36H148Q163 68 177 100T206 166L350 480H400L422 166Q424 133 425 101T429 36H433Q447 68 461 100T492 166L638 480H678L452 0H396L376 299Q374 334 373
371T369 442H365Q350 408 335 371T303 299L166 0H110Z" />
<glyph unicode="x" glyph-name="x" horiz-adv-x="393" d="M-47 0L177 254L82 480H125L175 359Q183 336 190 318T206 279H210Q227 299 244 318T279 359L384 480H430L227 245L329 0H286L235 130Q226 153 217 176T196 221H192Q175 199 156 178T115 132L1 0H-47Z" />
<glyph unicode="y" glyph-name="y" horiz-adv-x="419" d="M-31 -219Q-39 -219 -51 -217T-78 -207L-62 -174Q-46 -183 -28 -183Q15 -183 52 -147T119 -49L140 -8L59 480H100L147 179Q152 144 157 107T167 36H171Q189 71 207 107T246 179L408 480H450L154 -59Q138
-89 120 -118T79 -169T29 -205T-31 -219Z" />
<glyph unicode="z" glyph-name="z" horiz-adv-x="391" d="M-10 0L-6 25L352 444H107L115 480H413L409 455L50 36H332L324 0H-10Z" />
<glyph unicode="{" glyph-name="braceleft" horiz-adv-x="268" d="M131 -152Q88 -152 68 -135T48 -76Q48 -49 57 -11T76 68T96 146T105 208Q105 218 103 227T93 245T71 258T35 263L42 293Q68 293 85 300T114 319T131 345T140 375Q149 423 156 475T175 578Q182
616 192 641T218 681T253 702T302 708H337L332 680H302Q257 680 238 654T207 574Q199 529 192 481T176 384Q166 339 150 313T101 278V274Q123 265 130 250T137 218Q137 191 129 152T110 73T91 -5T82 -68Q82 -96 95 -110T144 -124H172L165 -152H131Z" />
<glyph unicode="|" glyph-name="bar" horiz-adv-x="217" d="M99 -250V750H132V-250H99Z" />
<glyph unicode="}" glyph-name="braceright" horiz-adv-x="270" d="M-61 -152L-55 -124H-25Q20 -124 39 -99T69 -20Q78 25 85 73T101 170Q110 216 127 242T176 278V282Q153 291 146 306T139 338Q139 364 147 402T166 481T185 559T194 622Q194 651 182 665T133
680H104L111 708H145Q189 708 209 690T229 632Q229 605 220 566T201 486T181 408T172 346Q172 337 174 328T184 311T205 298T242 293L234 263Q208 263 191 256T162 237T145 211T136 181Q127 133 120 80T102 -24Q94 -62 84 -86T58 -125T23 -146T-25 -152H-61Z" />
<glyph unicode="~" glyph-name="asciitilde" horiz-adv-x="462" d="M326 269Q299 269 276 283T233 314T193 345T153 359Q131 359 113 345T76 296L49 312Q70 354 97 373T154 393Q181 393 204 379T247 348T287 317T327 303Q349 303 367 317T404 366L431 350Q410
308 383 289T326 269Z" />
<glyph unicode="&#xa0;" glyph-name="uni00A0" horiz-adv-x="189" />
<glyph unicode="&#xa1;" glyph-name="exclamdown" horiz-adv-x="253" d="M23 -192L37 -120L125 302H157L77 -120L64 -192H23ZM160 404Q144 404 137 414T129 441Q129 461 142 476T176 492Q192 492 200 482T209 457Q209 438 195 421T160 404Z" />
<glyph unicode="&#xa2;" glyph-name="cent" horiz-adv-x="462" d="M123 296Q123 229 149 187T227 137L304 524Q272 521 240 503T181 456T139 386T123 296ZM198 -11L220 101Q155 109 118 156T81 288Q81 349 101 398T155 483T229 538T311 561L332 667H366L345 560Q383
555 409 537T455 496L427 469Q407 493 388 507T338 524L261 135Q299 137 330 151T387 185L404 153Q375 135 340 118T254 99L232 -11H198Z" />
<glyph unicode="&#xa3;" glyph-name="sterling" horiz-adv-x="462" d="M7 0L12 24Q87 63 123 128T159 270Q159 275 159 281T158 293H63L71 323L156 327Q154 356 152 385T149 440Q149 490 162 529T201 596T260 637T336 652Q385 652 416 627T466 570L434 547Q417
576 392 596T333 616Q301 616 275 604T230 568T200 514T189 443Q189 417 192 387T197 327H358L351 293H199V277Q199 200 174 144T96 41V37H369L363 0H7Z" />
<glyph unicode="&#xa4;" glyph-name="currency" horiz-adv-x="462" d="M34 127L13 153L87 218Q81 234 78 252T74 294Q74 340 90 380T135 452L87 516L114 538L161 475Q187 495 217 507T279 519Q311 519 336 508T379 475L453 540L474 514L398 447Q413 415 413 369Q413
325 398 287T357 218L412 145L386 124L332 194Q306 171 274 158T208 144Q141 144 106 190L34 127ZM211 179Q241 179 270 193T322 232T359 290T373 363Q373 423 348 454T275 485Q245 485 216 471T164 432T127 374T113 301Q113 241 138 210T211 179Z" />
<glyph unicode="&#xa5;" glyph-name="yen" horiz-adv-x="462" d="M161 0L194 168H34L41 197H201L215 272H54L61 301H207L111 640H153L205 443Q213 410 222 376T239 304H243Q268 342 290 376T335 443L460 640H503L277 301H423L416 272H256L242 197H402L395 168H235L202
0H161Z" />
<glyph unicode="&#xa6;" glyph-name="brokenbar" horiz-adv-x="217" d="M99 278V750H132V278H99ZM99 -250V218H132V-250H99Z" />
<glyph unicode="&#xa7;" glyph-name="section" horiz-adv-x="460" d="M99 350Q99 314 119 291T169 249T231 214T288 174Q331 191 354 214T377 285Q377 321 358 345T310 389T250 426T194 467Q150 450 125 423T99 350ZM176 -48Q133 -48 94 -30T23 22L49 51Q75 22
109 5T179 -13Q200 -13 219 -6T253 14T275 45T284 84Q284 115 268 136T226 173T172 204T118 237T77 281T60 343Q60 398 91 435T172 492Q164 504 160 518T155 549Q155 580 165 604T194 646T237 672T291 681Q334 681 369 661T431 612L403 585Q381 611 352 628T289
646Q271 646 255 640T225 622T203 594T195 556Q195 528 211 508T252 471T305 438T358 401T399 355T416 292Q416 233 388 202T308 149Q324 123 324 91Q324 62 313 37T282 -7T235 -37T176 -48Z" />
<glyph unicode="&#xa8;" glyph-name="dieresis" horiz-adv-x="508" d="M252 598Q238 598 230 606T222 628Q222 647 233 659T259 671Q273 671 281 663T289 639Q289 622 278 610T252 598ZM423 598Q409 598 401 606T393 628Q393 647 404 659T430 671Q444 671 452
663T460 639Q460 622 449 610T423 598Z" />
<glyph unicode="&#xa9;" glyph-name="copyright" horiz-adv-x="661" d="M298 -12Q240 -12 193 8T111 65T58 152T39 265Q39 336 64 405T135 529T248 618T395 652Q453 652 500 632T582 576T635 488T654 376Q654 305 629 236T557 111T445 22T298 -12ZM300 17Q373
17 433 49T535 132T601 246T624 372Q624 429 608 475T561 555T489 606T393 624Q320 624 260 592T158 509T92 395T69 269Q69 212 85 166T132 86T204 35T300 17ZM323 124Q261 124 222 161T183 273Q183 328 201 372T249 447T313 494T384 511Q419 511 440 497T479 460L454
438Q439 457 423 467T380 478Q353 478 324 463T272 422T234 360T219 280Q219 218 248 188T327 157Q360 157 387 171T440 203L457 176Q427 154 397 139T323 124Z" />
<glyph unicode="&#xaa;" glyph-name="ordfeminine" horiz-adv-x="348" d="M90 514Q90 559 105 599T144 668T200 714T266 731Q290 731 310 720T345 682H349L361 723H388L326 406H297L306 457H302Q277 430 248 414T184 398Q142 398 116 427T90 514ZM191 428Q220
428 251 448T310 499L339 646Q322 677 304 689T265 701Q239 701 214 686T169 645T137 586T125 519Q125 472 143 450T191 428Z" />
<glyph unicode="&#xab;" glyph-name="guillemotleft" horiz-adv-x="382" d="M142 72L40 236L47 276L205 430L224 410L78 251L166 87L142 72ZM284 72L182 236L189 276L347 430L366 410L220 251L308 87L284 72Z" />
<glyph unicode="&#xac;" glyph-name="logicalnot" horiz-adv-x="462" d="M405 108V314H48V348H442V108H405Z" />
<glyph unicode="&#xad;" glyph-name="uni00AD" horiz-adv-x="287" d="M36 232L43 269H253L245 232H36Z" />
<glyph unicode="&#xae;" glyph-name="registered" horiz-adv-x="384" d="M224 330Q192 330 164 341T114 374T81 426T68 493Q68 534 83 572T124 641T185 689T262 707Q294 707 322 695T372 662T405 610T418 543Q418 501 403 463T362 395T300 348T224 330ZM226 356Q259
356 289 370T341 410T376 468T389 539Q389 600 355 640T260 680Q226 680 197 665T145 625T110 567T97 497Q97 436 131 396T226 356ZM164 418L206 623H263Q292 623 308 608T324 565Q324 541 310 524T274 499L303 418H272L247 492H209L193 418H164ZM215 518H240Q265
518 279 529T294 562Q294 578 285 587T257 597H229L215 518Z" />
<glyph unicode="&#xaf;" glyph-name="overscore" horiz-adv-x="508" d="M215 606L221 640H459L454 606H215Z" />
<glyph unicode="&#xb0;" glyph-name="degree" horiz-adv-x="292" d="M201 450Q159 450 132 478T105 551Q105 578 114 602T139 644T176 673T223 684Q265 684 292 656T319 583Q319 556 310 532T285 490T248 461T201 450ZM203 479Q222 479 237 487T264 510T281 543T287
579Q287 611 270 633T221 655Q202 655 187 647T160 624T142 591T136 555Q136 523 154 501T203 479Z" />
<glyph unicode="&#xb1;" glyph-name="plusminus" horiz-adv-x="462" d="M226 115V317H48V352H227V548H263V352H442V317H263V115H226ZM48 0V35H442V0H48Z" />
<glyph unicode="&#xb2;" glyph-name="two.sups" horiz-adv-x="346" d="M87 406L91 434Q158 482 204 519T280 587T322 646T336 704Q336 739 318 757T262 776Q238 776 214 761T170 723L148 746Q171 771 201 789T266 808Q316 808 344 781T373 708Q373 675 360 644T318
582T248 515T148 437H338L333 406H87Z" />
<glyph unicode="&#xb3;" glyph-name="three.sups" horiz-adv-x="346" d="M210 394Q164 394 132 418T83 474L111 492Q125 464 149 445T211 425Q250 425 279 446T308 510Q308 543 279 568T189 593L196 622Q233 622 258 630T300 651T324 680T332 712Q332 741 313
759T260 777Q213 777 167 740L150 767Q201 808 264 808Q310 808 339 784T368 714Q368 677 342 647T271 604Q309 593 327 567T345 515Q345 486 334 464T305 426T262 402T210 394Z" />
<glyph unicode="&#xb4;" glyph-name="acute" horiz-adv-x="508" d="M300 580L279 605L437 750L464 716L300 580Z" />
<glyph unicode="&#xb5;" glyph-name="uni00B5" horiz-adv-x="514" d="M174 480L113 176Q108 154 107 141T105 114Q105 69 125 47T190 25Q222 25 264 49T360 126L431 480H472L376 0H341L352 78H348Q306 40 266 15T184 -11Q149 -11 123 3T85 54L68 -42L38 -198H-3L133
480H174Z" />
<glyph unicode="&#xb6;" glyph-name="paragraph" horiz-adv-x="492" d="M291 -80L439 659H480L332 -80H291ZM298 242Q253 242 213 253T142 285T93 339T75 414Q75 475 97 521T156 597T240 643T337 659H388L304 242H298Z" />
<glyph unicode="&#xb7;" glyph-name="middot" horiz-adv-x="213" d="M114 286Q98 286 90 296T81 321Q81 341 95 357T130 374Q146 374 153 364T161 337Q161 317 148 302T114 286Z" />
<glyph unicode="&#xb8;" glyph-name="cedilla" horiz-adv-x="508" d="M90 -219L88 -191Q150 -189 180 -173T211 -132Q211 -111 195 -101T143 -87L200 2H235L193 -67Q228 -76 239 -89T250 -125Q249 -170 206 -193T90 -219Z" />
<glyph unicode="&#xb9;" glyph-name="one.sups" horiz-adv-x="344" d="M203 406L268 734H177L182 759Q220 765 243 773T288 796H316L239 406H203Z" />
<glyph unicode="&#xba;" glyph-name="ordmasculine" horiz-adv-x="342" d="M173 398Q122 398 93 430T63 523Q63 570 78 608T117 674T173 716T236 731Q288 731 317 699T347 606Q347 559 332 521T293 455T237 413T173 398ZM176 428Q203 428 227 442T271 480T301
535T313 602Q313 650 293 675T234 701Q207 701 183 687T139 649T109 594T97 527Q97 479 117 454T176 428Z" />
<glyph unicode="&#xbb;" glyph-name="guillemotright" horiz-adv-x="382" d="M40 72L21 92L167 251L78 415L103 430L205 266L197 226L40 72ZM182 72L163 92L309 251L220 415L245 430L347 266L339 226L182 72Z" />
<glyph unicode="&#xbc;" glyph-name="onequarter" horiz-adv-x="730" d="M153 270L218 598H127L132 623Q170 629 193 637T238 660H266L189 270H153ZM120 -12L610 672H646L156 -12H120ZM547 0L570 116H399L403 138L627 390H658L609 145H667L660 116H603L580 0H547ZM446
145H576L594 237L619 338H615L544 256L446 145Z" />
<glyph unicode="&#xbd;" glyph-name="onehalf" horiz-adv-x="749" d="M149 270L214 598H123L128 623Q166 629 189 637T234 660H262L185 270H149ZM92 -12L582 672H618L128 -12H92ZM407 0L411 28Q478 76 524 113T600 181T642 240T656 298Q656 333 638 351T582 370Q558
370 534 355T490 317L468 340Q491 365 521 383T586 402Q636 402 664 375T693 302Q693 269 680 238T638 176T568 109T468 31H658L653 0H407Z" />
<glyph unicode="&#xbe;" glyph-name="threequarters" horiz-adv-x="749" d="M177 258Q131 258 99 282T50 338L78 356Q92 328 116 309T178 289Q217 289 246 310T275 374Q275 407 246 432T156 457L163 486Q200 486 225 494T267 515T291 544T299 576Q299 605 280
623T227 641Q180 641 134 604L117 631Q168 672 231 672Q277 672 306 648T335 578Q335 541 309 511T238 468Q276 457 294 431T312 379Q312 350 301 328T272 290T229 266T177 258ZM160 -12L650 672H686L196 -12H160ZM568 0L591 116H420L424 138L648 390H679L630 145H688L681
116H624L601 0H568ZM467 145H597L615 237L640 338H636L565 256L467 145Z" />
<glyph unicode="&#xbf;" glyph-name="questiondown" horiz-adv-x="388" d="M129 -200Q66 -200 31 -166T-5 -69Q-5 -28 10 4T48 65T98 118T148 171T189 230T208 302L245 299Q243 256 227 222T188 160T138 106T88 56T50 2T35 -61Q35 -110 61 -137T133 -164Q167 -164
199 -148T255 -105L279 -132Q253 -160 214 -180T129 -200ZM243 406Q227 406 220 416T212 443Q212 463 225 478T259 494Q275 494 283 484T292 459Q292 439 278 423T243 406Z" />
<glyph unicode="&#xc0;" glyph-name="Agrave" horiz-adv-x="488" d="M210 391L142 264H370L355 391Q350 446 344 501T332 616H328Q299 556 270 502T210 391ZM-48 0L315 659H362L443 0H400L374 229H123L0 0H-48ZM358 702L242 826L274 854L382 723L358 702Z" />
<glyph unicode="&#xc1;" glyph-name="Aacute" horiz-adv-x="488" d="M210 391L142 264H370L355 391Q350 446 344 501T332 616H328Q299 556 270 502T210 391ZM-48 0L315 659H362L443 0H400L374 229H123L0 0H-48ZM325 712L308 736L454 848L478 813L325 712Z" />
<glyph unicode="&#xc2;" glyph-name="Acircumflex" horiz-adv-x="488" d="M210 391L142 264H370L355 391Q350 446 344 501T332 616H328Q299 556 270 502T210 391ZM-48 0L315 659H362L443 0H400L374 229H123L0 0H-48ZM225 707L206 726L339 839H383L476 726L453
709L360 807H356L225 707Z" />
<glyph unicode="&#xc3;" glyph-name="Atilde" horiz-adv-x="488" d="M210 391L142 264H370L355 391Q350 446 344 501T332 616H328Q299 556 270 502T210 391ZM-48 0L315 659H362L443 0H400L374 229H123L0 0H-48ZM415 718Q389 718 373 730T342 758T315 786T282 799Q260
799 242 778T213 721L183 724Q191 773 219 803T289 834Q314 834 331 822T361 794T388 767T422 754Q445 754 462 775T491 832L521 829Q513 780 485 749T415 718Z" />
<glyph unicode="&#xc4;" glyph-name="Adieresis" horiz-adv-x="488" d="M210 391L142 264H370L355 391Q350 446 344 501T332 616H328Q299 556 270 502T210 391ZM-48 0L315 659H362L443 0H400L374 229H123L0 0H-48ZM256 723Q242 723 234 731T226 753Q226 771 237
783T263 795Q277 795 285 787T293 764Q293 747 282 735T256 723ZM427 723Q413 723 405 731T397 753Q397 771 408 783T434 795Q448 795 456 787T464 764Q464 747 453 735T427 723Z" />
<glyph unicode="&#xc5;" glyph-name="Aring" horiz-adv-x="488" d="M210 391L142 264H370L355 391Q350 446 344 501T332 616H328Q299 556 270 502T210 391ZM-48 0L315 659H362L443 0H400L374 229H123L0 0H-48ZM341 701Q311 701 288 720T265 777Q265 796 272 813T293
842T323 862T361 869Q391 869 414 851T437 794Q437 774 430 758T409 728T379 708T341 701ZM343 727Q369 727 388 745T407 791Q407 843 359 843Q333 843 314 825T295 779Q295 755 307 741T343 727Z" />
<glyph unicode="&#xc6;" glyph-name="AE" horiz-adv-x="782" d="M200 253H395L469 622H465Q423 563 382 506T298 389L200 253ZM-32 0L449 659H810L802 622H511L460 368H705L697 331H454L394 37H695L687 0H345L388 217H174L18 0H-32Z" />
<glyph unicode="&#xc7;" glyph-name="Ccedilla" horiz-adv-x="540" d="M281 -12Q225 -12 184 7T114 62T72 144T58 248Q58 321 81 396T147 533T252 632T392 671Q448 671 485 644T546 578L514 555Q494 589 464 611T389 634Q321 634 268 598T177 507T121 384T101
254Q101 205 112 163T145 91T203 43T286 25Q332 25 369 42T442 89L465 61Q424 27 381 8T281 -12ZM151 -219L149 -191Q211 -189 241 -173T272 -132Q272 -111 256 -101T204 -87L261 2H296L254 -67Q289 -76 300 -89T311 -125Q310 -170 267 -193T151 -219Z" />
<glyph unicode="&#xc8;" glyph-name="Egrave" horiz-adv-x="489" d="M39 0L170 659H518L510 622H205L154 368H412L404 331H148L88 37H402L394 0H39ZM374 702L258 826L290 854L398 723L374 702Z" />
<glyph unicode="&#xc9;" glyph-name="Eacute" horiz-adv-x="489" d="M39 0L170 659H518L510 622H205L154 368H412L404 331H148L88 37H402L394 0H39ZM341 712L324 736L470 848L494 813L341 712Z" />
<glyph unicode="&#xca;" glyph-name="Ecircumflex" horiz-adv-x="489" d="M39 0L170 659H518L510 622H205L154 368H412L404 331H148L88 37H402L394 0H39ZM241 707L222 726L355 839H399L492 726L469 709L376 807H372L241 707Z" />
<glyph unicode="&#xcb;" glyph-name="Edieresis" horiz-adv-x="489" d="M39 0L170 659H518L510 622H205L154 368H412L404 331H148L88 37H402L394 0H39ZM272 723Q258 723 250 731T242 753Q242 771 253 783T279 795Q293 795 301 787T309 764Q309 747 298 735T272
723ZM443 723Q429 723 421 731T413 753Q413 771 424 783T450 795Q464 795 472 787T480 764Q480 747 469 735T443 723Z" />
<glyph unicode="&#xcc;" glyph-name="Igrave" horiz-adv-x="227" d="M39 0L170 659H213L82 0H39ZM217 702L101 826L133 854L241 723L217 702Z" />
<glyph unicode="&#xcd;" glyph-name="Iacute" horiz-adv-x="227" d="M39 0L170 659H213L82 0H39ZM184 712L167 736L313 848L337 813L184 712Z" />
<glyph unicode="&#xce;" glyph-name="Icircumflex" horiz-adv-x="227" d="M39 0L170 659H213L82 0H39ZM84 707L65 726L198 839H242L335 726L312 709L219 807H215L84 707Z" />
<glyph unicode="&#xcf;" glyph-name="Idieresis" horiz-adv-x="227" d="M39 0L170 659H213L82 0H39ZM115 723Q101 723 93 731T85 753Q85 771 96 783T122 795Q136 795 144 787T152 764Q152 747 141 735T115 723ZM286 723Q272 723 264 731T256 753Q256 771 267 783T293
795Q307 795 315 787T323 764Q323 747 312 735T286 723Z" />
<glyph unicode="&#xd0;" glyph-name="Eth" horiz-adv-x="595" d="M52 334L59 363L130 365L188 659H297Q365 659 416 641T501 589T552 508T569 403Q569 317 546 244T479 116T369 31T217 0H57L123 334H52ZM106 36H218Q291 36 348 65T445 143T505 259T526 400Q526
450 512 491T469 561T397 607T295 623H223L172 365H336L329 334H165L106 36Z" />
<glyph unicode="&#xd1;" glyph-name="Ntilde" horiz-adv-x="605" d="M39 0L170 659H216L391 191L437 57H441Q449 105 456 154T473 251L554 659H597L465 0H421L248 466L200 605H196Q188 556 180 508T162 413L81 0H39ZM467 718Q441 718 425 730T394 758T367 786T334
799Q312 799 294 778T265 721L235 724Q243 773 271 803T341 834Q366 834 383 822T413 794T440 767T474 754Q497 754 514 775T543 832L573 829Q565 780 537 749T467 718Z" />
<glyph unicode="&#xd2;" glyph-name="Ograve" horiz-adv-x="618" d="M277 -12Q223 -12 183 8T115 64T75 151T61 262Q61 308 70 356T98 449T144 535T206 605T283 653T374 671Q428 671 468 651T536 595T576 508T590 397Q590 351 581 303T553 210T507 124T445 54T368
6T277 -12ZM280 25Q343 25 393 60T477 150T529 269T547 392Q547 446 537 490T506 567T451 616T371 634Q308 634 259 599T175 509T123 390T105 267Q105 213 115 169T146 92T201 43T280 25ZM420 702L304 826L336 854L444 723L420 702Z" />
<glyph unicode="&#xd3;" glyph-name="Oacute" horiz-adv-x="618" d="M277 -12Q223 -12 183 8T115 64T75 151T61 262Q61 308 70 356T98 449T144 535T206 605T283 653T374 671Q428 671 468 651T536 595T576 508T590 397Q590 351 581 303T553 210T507 124T445 54T368
6T277 -12ZM280 25Q343 25 393 60T477 150T529 269T547 392Q547 446 537 490T506 567T451 616T371 634Q308 634 259 599T175 509T123 390T105 267Q105 213 115 169T146 92T201 43T280 25ZM387 712L370 736L516 848L540 813L387 712Z" />
<glyph unicode="&#xd4;" glyph-name="Ocircumflex" horiz-adv-x="618" d="M277 -12Q223 -12 183 8T115 64T75 151T61 262Q61 308 70 356T98 449T144 535T206 605T283 653T374 671Q428 671 468 651T536 595T576 508T590 397Q590 351 581 303T553 210T507 124T445
54T368 6T277 -12ZM280 25Q343 25 393 60T477 150T529 269T547 392Q547 446 537 490T506 567T451 616T371 634Q308 634 259 599T175 509T123 390T105 267Q105 213 115 169T146 92T201 43T280 25ZM287 707L268 726L401 839H445L538 726L515 709L422 807H418L287
707Z" />
<glyph unicode="&#xd5;" glyph-name="Otilde" horiz-adv-x="618" d="M277 -12Q223 -12 183 8T115 64T75 151T61 262Q61 308 70 356T98 449T144 535T206 605T283 653T374 671Q428 671 468 651T536 595T576 508T590 397Q590 351 581 303T553 210T507 124T445 54T368
6T277 -12ZM280 25Q343 25 393 60T477 150T529 269T547 392Q547 446 537 490T506 567T451 616T371 634Q308 634 259 599T175 509T123 390T105 267Q105 213 115 169T146 92T201 43T280 25ZM477 718Q451 718 435 730T404 758T377 786T344 799Q322 799 304 778T275
721L245 724Q253 773 281 803T351 834Q376 834 393 822T423 794T450 767T484 754Q507 754 524 775T553 832L583 829Q575 780 547 749T477 718Z" />
<glyph unicode="&#xd6;" glyph-name="Odieresis" horiz-adv-x="618" d="M277 -12Q223 -12 183 8T115 64T75 151T61 262Q61 308 70 356T98 449T144 535T206 605T283 653T374 671Q428 671 468 651T536 595T576 508T590 397Q590 351 581 303T553 210T507 124T445
54T368 6T277 -12ZM280 25Q343 25 393 60T477 150T529 269T547 392Q547 446 537 490T506 567T451 616T371 634Q308 634 259 599T175 509T123 390T105 267Q105 213 115 169T146 92T201 43T280 25ZM318 723Q304 723 296 731T288 753Q288 771 299 783T325 795Q339
795 347 787T355 764Q355 747 344 735T318 723ZM489 723Q475 723 467 731T459 753Q459 771 470 783T496 795Q510 795 518 787T526 764Q526 747 515 735T489 723Z" />
<glyph unicode="&#xd7;" glyph-name="multiply" horiz-adv-x="462" d="M90 145L66 169L221 332L66 493L90 517L245 356L400 517L424 493L269 332L424 169L400 145L245 308L90 145Z" />
<glyph unicode="&#xd8;" glyph-name="Oslash" horiz-adv-x="618" d="M277 -12Q221 -12 180 9T112 69L27 -24L1 -2L94 99Q61 165 61 262Q61 308 70 356T98 449T144 535T206 605T283 653T374 671Q432 671 474 649T542 586L629 680L650 658L558 558Q575 525 582 485T590
397Q590 351 581 303T553 210T507 124T445 54T368 6T277 -12ZM105 267Q105 190 126 133L513 554Q492 592 457 613T371 634Q308 634 259 599T175 509T123 390T105 267ZM280 25Q343 25 393 60T477 150T529 269T547 392Q547 430 543 462T527 523L141 101Q162 65 196
45T280 25Z" />
<glyph unicode="&#xd9;" glyph-name="Ugrave" horiz-adv-x="600" d="M90 269L168 659H211L134 273Q128 250 126 230T124 192Q124 112 162 69T277 25Q308 25 337 37T392 75T436 142T468 242L551 659H594L509 236Q495 167 471 120T417 44T349 1T273 -12Q182 -12
132 38T81 184Q81 204 83 224T90 269ZM408 702L292 826L324 854L432 723L408 702Z" />
<glyph unicode="&#xda;" glyph-name="Uacute" horiz-adv-x="600" d="M90 269L168 659H211L134 273Q128 250 126 230T124 192Q124 112 162 69T277 25Q308 25 337 37T392 75T436 142T468 242L551 659H594L509 236Q495 167 471 120T417 44T349 1T273 -12Q182 -12
132 38T81 184Q81 204 83 224T90 269ZM375 712L358 736L504 848L528 813L375 712Z" />
<glyph unicode="&#xdb;" glyph-name="Ucircumflex" horiz-adv-x="600" d="M90 269L168 659H211L134 273Q128 250 126 230T124 192Q124 112 162 69T277 25Q308 25 337 37T392 75T436 142T468 242L551 659H594L509 236Q495 167 471 120T417 44T349 1T273 -12Q182
-12 132 38T81 184Q81 204 83 224T90 269ZM275 707L256 726L389 839H433L526 726L503 709L410 807H406L275 707Z" />
<glyph unicode="&#xdc;" glyph-name="Udieresis" horiz-adv-x="600" d="M90 269L168 659H211L134 273Q128 250 126 230T124 192Q124 112 162 69T277 25Q308 25 337 37T392 75T436 142T468 242L551 659H594L509 236Q495 167 471 120T417 44T349 1T273 -12Q182 -12
132 38T81 184Q81 204 83 224T90 269ZM306 723Q292 723 284 731T276 753Q276 771 287 783T313 795Q327 795 335 787T343 764Q343 747 332 735T306 723ZM477 723Q463 723 455 731T447 753Q447 771 458 783T484 795Q498 795 506 787T514 764Q514 747 503 735T477
723Z" />
<glyph unicode="&#xdd;" glyph-name="Yacute" horiz-adv-x="433" d="M140 0L194 269L85 659H129L184 451Q194 415 202 381T221 309H225Q249 344 272 380T320 451L464 659H510L237 269L183 0H140ZM283 712L266 736L412 848L436 813L283 712Z" />
<glyph unicode="&#xde;" glyph-name="Thorn" horiz-adv-x="543" d="M39 0L170 660H213L190 538H320Q411 538 462 502T514 386Q514 330 494 289T438 220T350 179T235 165H114L81 0H39ZM122 201H231Q350 201 410 246T471 381Q471 447 428 474T301 502H182L122 201Z" />
<glyph unicode="&#xdf;" glyph-name="germandbls" horiz-adv-x="524" d="M318 -12Q283 -12 247 1T182 41L205 69Q231 48 258 36T319 23Q342 23 362 31T398 52T423 85T432 127Q432 155 420 175T391 213T353 244T315 275T285 309T273 354Q273 382 283 404T310 444T345
479T380 515T406 556T417 607Q417 645 399 670T336 695Q308 695 284 682T241 645T207 590T186 524L82 0H40L148 536Q156 575 173 610T214 673T269 715T339 731Q393 731 425 701T458 610Q458 577 448 552T421 507T386 471T351 437T325 402T314 362Q314 339 325 322T355
291T393 262T431 230T460 189T472 134Q472 104 461 78T429 31T380 0T318 -12Z" />
<glyph unicode="&#xe0;" glyph-name="agrave" horiz-adv-x="527" d="M184 -12Q121 -12 83 32T44 161Q44 230 66 290T124 396T208 466T305 492Q347 492 378 471T429 414H432L451 480H485L389 0H354L365 76H361Q324 38 279 13T184 -12ZM193 24Q240 24 285 51T373
128L423 369Q397 416 368 436T304 456Q261 456 222 432T152 367T104 275T86 169Q86 96 114 60T193 24ZM360 570L241 731L278 758L387 590L360 570Z" />
<glyph unicode="&#xe1;" glyph-name="aacute" horiz-adv-x="527" d="M184 -12Q121 -12 83 32T44 161Q44 230 66 290T124 396T208 466T305 492Q347 492 378 471T429 414H432L451 480H485L389 0H354L365 76H361Q324 38 279 13T184 -12ZM193 24Q240 24 285 51T373
128L423 369Q397 416 368 436T304 456Q261 456 222 432T152 367T104 275T86 169Q86 96 114 60T193 24ZM295 580L274 605L432 750L459 716L295 580Z" />
<glyph unicode="&#xe2;" glyph-name="acircumflex" horiz-adv-x="527" d="M184 -12Q121 -12 83 32T44 161Q44 230 66 290T124 396T208 466T305 492Q347 492 378 471T429 414H432L451 480H485L389 0H354L365 76H361Q324 38 279 13T184 -12ZM193 24Q240 24 285 51T373
128L423 369Q397 416 368 436T304 456Q261 456 222 432T152 367T104 275T86 169Q86 96 114 60T193 24ZM210 572L189 593L331 737H374L465 591L440 572L352 700H348L210 572Z" />
<glyph unicode="&#xe3;" glyph-name="atilde" horiz-adv-x="527" d="M184 -12Q121 -12 83 32T44 161Q44 230 66 290T124 396T208 466T305 492Q347 492 378 471T429 414H432L451 480H485L389 0H354L365 76H361Q324 38 279 13T184 -12ZM193 24Q240 24 285 51T373
128L423 369Q397 416 368 436T304 456Q261 456 222 432T152 367T104 275T86 169Q86 96 114 60T193 24ZM407 579Q381 579 365 594T337 628T311 661T276 677Q249 677 233 650T207 582L173 584Q179 608 187 630T209 671T239 699T280 710Q307 710 322 695T351 662T377
628T411 613Q438 613 455 641T480 707L514 705Q508 682 500 660T478 619T448 590T407 579Z" />
<glyph unicode="&#xe4;" glyph-name="adieresis" horiz-adv-x="527" d="M184 -12Q121 -12 83 32T44 161Q44 230 66 290T124 396T208 466T305 492Q347 492 378 471T429 414H432L451 480H485L389 0H354L365 76H361Q324 38 279 13T184 -12ZM193 24Q240 24 285 51T373
128L423 369Q397 416 368 436T304 456Q261 456 222 432T152 367T104 275T86 169Q86 96 114 60T193 24ZM247 598Q233 598 225 606T217 628Q217 647 228 659T254 671Q268 671 276 663T284 639Q284 622 273 610T247 598ZM418 598Q404 598 396 606T388 628Q388 647
399 659T425 671Q439 671 447 663T455 639Q455 622 444 610T418 598Z" />
<glyph unicode="&#xe5;" glyph-name="aring" horiz-adv-x="527" d="M184 -12Q121 -12 83 32T44 161Q44 230 66 290T124 396T208 466T305 492Q347 492 378 471T429 414H432L451 480H485L389 0H354L365 76H361Q324 38 279 13T184 -12ZM193 24Q240 24 285 51T373
128L423 369Q397 416 368 436T304 456Q261 456 222 432T152 367T104 275T86 169Q86 96 114 60T193 24ZM328 550Q293 550 269 570T244 628Q244 650 251 669T272 704T305 728T347 737Q382 737 407 717T432 659Q432 637 425 618T403 583T370 559T328 550ZM331 576Q359
576 379 600T400 657Q400 681 386 696T345 711Q316 711 296 687T275 630Q275 605 290 591T331 576Z" />
<glyph unicode="&#xe6;" glyph-name="ae" horiz-adv-x="765" d="M38 103Q38 153 61 188T127 247T230 281T365 296Q369 314 370 326T372 353Q372 403 351 429T278 456Q244 456 208 443T136 410L121 442Q156 462 198 477T283 492Q337 492 369 465T407 380Q442 432
488 462T585 492Q624 492 651 480T696 445T721 391T729 322Q729 296 725 274T716 238H395Q386 191 391 152T414 84T459 39T523 23Q556 23 587 37T645 70L663 40Q634 19 597 4T518 -12Q465 -12 424 18T367 93Q316 43 264 16T158 -12Q134 -12 112 -5T74 17T48 52T38
103ZM401 271H685Q691 299 691 328Q691 352 686 375T667 417T633 446T581 457Q554 457 526 444T474 405T430 346T401 271ZM359 263Q296 261 244 252T156 223T99 177T79 112Q79 68 105 46T170 24Q207 24 256 48T356 126Q350 165 351 195T359 263Z" />
<glyph unicode="&#xe7;" glyph-name="ccedilla" horiz-adv-x="430" d="M212 -12Q134 -12 88 37T42 178Q42 248 64 305T123 404T206 469T301 492Q343 492 371 476T422 434L396 406Q374 432 353 444T298 456Q257 456 219 434T150 375T102 289T84 184Q84 106 117
65T217 24Q253 24 284 39T341 74L362 44Q336 24 299 6T212 -12ZM80 -219L78 -191Q140 -189 170 -173T201 -132Q201 -111 185 -101T133 -87L190 2H225L183 -67Q218 -76 229 -89T240 -125Q239 -170 196 -193T80 -219Z" />
<glyph unicode="&#xe8;" glyph-name="egrave" horiz-adv-x="471" d="M42 186Q42 254 64 310T121 407T201 470T292 492Q331 492 358 480T403 445T428 391T436 322Q436 296 432 274T423 238H88Q78 181 86 141T114 74T164 36T231 23Q263 23 294 37T351 70L370 40Q341
19 304 4T225 -12Q141 -12 92 38T42 186ZM94 271H392Q398 299 398 328Q398 352 393 375T374 417T340 446T288 457Q256 457 226 444T169 405T124 346T94 271ZM341 570L222 731L259 758L368 590L341 570Z" />
<glyph unicode="&#xe9;" glyph-name="eacute" horiz-adv-x="471" d="M42 186Q42 254 64 310T121 407T201 470T292 492Q331 492 358 480T403 445T428 391T436 322Q436 296 432 274T423 238H88Q78 181 86 141T114 74T164 36T231 23Q263 23 294 37T351 70L370 40Q341
19 304 4T225 -12Q141 -12 92 38T42 186ZM94 271H392Q398 299 398 328Q398 352 393 375T374 417T340 446T288 457Q256 457 226 444T169 405T124 346T94 271ZM276 580L255 605L413 750L440 716L276 580Z" />
<glyph unicode="&#xea;" glyph-name="ecircumflex" horiz-adv-x="471" d="M42 186Q42 254 64 310T121 407T201 470T292 492Q331 492 358 480T403 445T428 391T436 322Q436 296 432 274T423 238H88Q78 181 86 141T114 74T164 36T231 23Q263 23 294 37T351 70L370
40Q341 19 304 4T225 -12Q141 -12 92 38T42 186ZM94 271H392Q398 299 398 328Q398 352 393 375T374 417T340 446T288 457Q256 457 226 444T169 405T124 346T94 271ZM191 572L170 593L312 737H355L446 591L421 572L333 700H329L191 572Z" />
<glyph unicode="&#xeb;" glyph-name="edieresis" horiz-adv-x="471" d="M42 186Q42 254 64 310T121 407T201 470T292 492Q331 492 358 480T403 445T428 391T436 322Q436 296 432 274T423 238H88Q78 181 86 141T114 74T164 36T231 23Q263 23 294 37T351 70L370
40Q341 19 304 4T225 -12Q141 -12 92 38T42 186ZM94 271H392Q398 299 398 328Q398 352 393 375T374 417T340 446T288 457Q256 457 226 444T169 405T124 346T94 271ZM228 598Q214 598 206 606T198 628Q198 647 209 659T235 671Q249 671 257 663T265 639Q265 622
254 610T228 598ZM399 598Q385 598 377 606T369 628Q369 647 380 659T406 671Q420 671 428 663T436 639Q436 622 425 610T399 598Z" />
<glyph unicode="&#xec;" glyph-name="igrave" horiz-adv-x="220" d="M40 0L137 480H178L82 0H40ZM214 570L95 731L132 758L241 590L214 570Z" />
<glyph unicode="&#xed;" glyph-name="iacute" horiz-adv-x="220" d="M40 0L137 480H178L82 0H40ZM149 580L128 605L286 750L313 716L149 580Z" />
<glyph unicode="&#xee;" glyph-name="icircumflex" horiz-adv-x="220" d="M40 0L137 480H178L82 0H40ZM64 572L43 593L185 737H228L319 591L294 572L206 700H202L64 572Z" />
<glyph unicode="&#xef;" glyph-name="idieresis" horiz-adv-x="220" d="M40 0L137 480H178L82 0H40ZM101 598Q87 598 79 606T71 628Q71 647 82 659T108 671Q122 671 130 663T138 639Q138 622 127 610T101 598ZM272 598Q258 598 250 606T242 628Q242 647 253 659T279
671Q293 671 301 663T309 639Q309 622 298 610T272 598Z" />
<glyph unicode="&#xf0;" glyph-name="eth" horiz-adv-x="517" d="M212 -12Q176 -12 146 2T94 40T60 96T48 166Q48 219 64 268T111 356T185 418T281 442Q321 442 354 420T413 363Q411 433 393 487T344 584L195 521L185 548L326 608Q304 634 278 655T222 697L243
724Q277 703 306 678T361 622L507 684L517 657L379 599Q414 549 434 486T454 342Q454 269 437 205T389 92T312 16T212 -12ZM218 24Q260 24 295 47T355 111T396 203T413 314Q402 332 389 348T360 377T324 398T282 406Q238 406 203 386T142 333T102 258T88 171Q88
142 96 115T121 68T162 36T218 24Z" />
<glyph unicode="&#xf1;" glyph-name="ntilde" horiz-adv-x="510" d="M40 0L137 480H171L160 404H164Q209 442 250 467T336 492Q398 492 424 460T450 375Q450 357 449 344T442 310L380 0H339L401 304Q405 326 407 339T409 366Q409 411 389 433T323 455Q291 455
249 432T153 354L82 0H40ZM417 579Q391 579 375 594T347 628T321 661T286 677Q259 677 243 650T217 582L183 584Q189 608 197 630T219 671T249 699T290 710Q317 710 332 695T361 662T387 628T421 613Q448 613 465 641T490 707L524 705Q518 682 510 660T488 619T458
590T417 579Z" />
<glyph unicode="&#xf2;" glyph-name="ograve" horiz-adv-x="504" d="M206 -12Q132 -12 88 37T44 178Q44 245 65 302T121 402T202 468T297 492Q372 492 416 443T460 302Q460 235 439 178T382 78T301 12T206 -12ZM210 24Q249 24 286 46T352 105T400 191T418 297Q418
375 386 415T294 456Q255 456 218 434T151 375T103 289T85 184Q85 106 117 65T210 24ZM365 570L246 731L283 758L392 590L365 570Z" />
<glyph unicode="&#xf3;" glyph-name="oacute" horiz-adv-x="504" d="M206 -12Q132 -12 88 37T44 178Q44 245 65 302T121 402T202 468T297 492Q372 492 416 443T460 302Q460 235 439 178T382 78T301 12T206 -12ZM210 24Q249 24 286 46T352 105T400 191T418 297Q418
375 386 415T294 456Q255 456 218 434T151 375T103 289T85 184Q85 106 117 65T210 24ZM300 580L279 605L437 750L464 716L300 580Z" />
<glyph unicode="&#xf4;" glyph-name="ocircumflex" horiz-adv-x="504" d="M206 -12Q132 -12 88 37T44 178Q44 245 65 302T121 402T202 468T297 492Q372 492 416 443T460 302Q460 235 439 178T382 78T301 12T206 -12ZM210 24Q249 24 286 46T352 105T400 191T418
297Q418 375 386 415T294 456Q255 456 218 434T151 375T103 289T85 184Q85 106 117 65T210 24ZM215 572L194 593L336 737H379L470 591L445 572L357 700H353L215 572Z" />
<glyph unicode="&#xf5;" glyph-name="otilde" horiz-adv-x="504" d="M206 -12Q132 -12 88 37T44 178Q44 245 65 302T121 402T202 468T297 492Q372 492 416 443T460 302Q460 235 439 178T382 78T301 12T206 -12ZM210 24Q249 24 286 46T352 105T400 191T418 297Q418
375 386 415T294 456Q255 456 218 434T151 375T103 289T85 184Q85 106 117 65T210 24ZM412 579Q386 579 370 594T342 628T316 661T281 677Q254 677 238 650T212 582L178 584Q184 608 192 630T214 671T244 699T285 710Q312 710 327 695T356 662T382 628T416 613Q443
613 460 641T485 707L519 705Q513 682 505 660T483 619T453 590T412 579Z" />
<glyph unicode="&#xf6;" glyph-name="odieresis" horiz-adv-x="504" d="M206 -12Q132 -12 88 37T44 178Q44 245 65 302T121 402T202 468T297 492Q372 492 416 443T460 302Q460 235 439 178T382 78T301 12T206 -12ZM210 24Q249 24 286 46T352 105T400 191T418 297Q418
375 386 415T294 456Q255 456 218 434T151 375T103 289T85 184Q85 106 117 65T210 24ZM252 598Q238 598 230 606T222 628Q222 647 233 659T259 671Q273 671 281 663T289 639Q289 622 278 610T252 598ZM423 598Q409 598 401 606T393 628Q393 647 404 659T430 671Q444
671 452 663T460 639Q460 622 449 610T423 598Z" />
<glyph unicode="&#xf7;" glyph-name="divide" horiz-adv-x="462" d="M48 314V348H442V314H48ZM245 109Q229 109 219 120T209 148Q209 164 219 174T245 185Q261 185 271 175T281 148Q281 132 271 121T245 109ZM245 473Q229 473 219 484T209 512Q209 528 219 538T245
549Q261 549 271 539T281 512Q281 496 271 485T245 473Z" />
<glyph unicode="&#xf8;" glyph-name="oslash" horiz-adv-x="504" d="M206 -12Q128 -12 84 43L21 -22L0 -2L68 68Q44 111 44 178Q44 245 65 302T121 402T202 468T297 492Q337 492 369 477T422 433L488 501L509 480L438 407Q460 363 460 302Q460 234 439 177T382
77T301 12T206 -12ZM84 184Q84 135 98 99L394 404Q362 456 294 456Q255 456 217 434T150 375T102 288T84 184ZM209 24Q249 24 286 46T353 105T401 192T419 296Q419 341 407 376L112 71Q144 24 209 24Z" />
<glyph unicode="&#xf9;" glyph-name="ugrave" horiz-adv-x="518" d="M475 480L379 0H345L355 78H351Q307 40 266 14T181 -12Q119 -12 93 20T66 105Q66 123 67 136T74 170L136 480H177L116 176Q111 154 110 141T108 114Q108 69 128 47T193 25Q225 25 267 49T363
126L434 480H475ZM355 570L236 731L273 758L382 590L355 570Z" />
<glyph unicode="&#xfa;" glyph-name="uacute" horiz-adv-x="518" d="M475 480L379 0H345L355 78H351Q307 40 266 14T181 -12Q119 -12 93 20T66 105Q66 123 67 136T74 170L136 480H177L116 176Q111 154 110 141T108 114Q108 69 128 47T193 25Q225 25 267 49T363
126L434 480H475ZM290 580L269 605L427 750L454 716L290 580Z" />
<glyph unicode="&#xfb;" glyph-name="ucircumflex" horiz-adv-x="518" d="M475 480L379 0H345L355 78H351Q307 40 266 14T181 -12Q119 -12 93 20T66 105Q66 123 67 136T74 170L136 480H177L116 176Q111 154 110 141T108 114Q108 69 128 47T193 25Q225 25 267 49T363
126L434 480H475ZM205 572L184 593L326 737H369L460 591L435 572L347 700H343L205 572Z" />
<glyph unicode="&#xfc;" glyph-name="udieresis" horiz-adv-x="518" d="M475 480L379 0H345L355 78H351Q307 40 266 14T181 -12Q119 -12 93 20T66 105Q66 123 67 136T74 170L136 480H177L116 176Q111 154 110 141T108 114Q108 69 128 47T193 25Q225 25 267 49T363
126L434 480H475ZM242 598Q228 598 220 606T212 628Q212 647 223 659T249 671Q263 671 271 663T279 639Q279 622 268 610T242 598ZM413 598Q399 598 391 606T383 628Q383 647 394 659T420 671Q434 671 442 663T450 639Q450 622 439 610T413 598Z" />
<glyph unicode="&#xfd;" glyph-name="yacute" horiz-adv-x="419" d="M-31 -219Q-39 -219 -51 -217T-78 -207L-62 -174Q-46 -183 -28 -183Q15 -183 52 -147T119 -49L140 -8L59 480H100L147 179Q152 144 157 107T167 36H171Q189 71 207 107T246 179L408 480H450L154
-59Q138 -89 120 -118T79 -169T29 -205T-31 -219ZM233 580L212 605L370 750L397 716L233 580Z" />
<glyph unicode="&#xfe;" glyph-name="thorn" horiz-adv-x="524" d="M-3 -217L184 719H225L183 510L162 413H164Q202 444 247 468T341 492Q405 492 443 448T481 319Q481 250 459 190T401 84T317 14T221 -12Q179 -12 148 10T94 65H92L71 -43L38 -217H-3ZM221 24Q264
24 303 48T373 113T422 206T440 312Q440 384 411 420T332 456Q292 456 244 431T155 367L103 107Q129 62 158 43T221 24Z" />
<glyph unicode="&#xff;" glyph-name="ydieresis" horiz-adv-x="419" d="M-31 -219Q-39 -219 -51 -217T-78 -207L-62 -174Q-46 -183 -28 -183Q15 -183 52 -147T119 -49L140 -8L59 480H100L147 179Q152 144 157 107T167 36H171Q189 71 207 107T246 179L408 480H450L154
-59Q138 -89 120 -118T79 -169T29 -205T-31 -219ZM185 598Q171 598 163 606T155 628Q155 647 166 659T192 671Q206 671 214 663T222 639Q222 622 211 610T185 598ZM356 598Q342 598 334 606T326 628Q326 647 337 659T363 671Q377 671 385 663T393 639Q393 622 382
610T356 598Z" />
<glyph unicode="&#x2013;" glyph-name="endash" horiz-adv-x="462" d="M36 234L43 268H426L417 234H36Z" />
<glyph unicode="&#x2014;" glyph-name="emdash" horiz-adv-x="768" d="M36 234L43 268H733L725 234H36Z" />
<glyph unicode="&#x2018;" glyph-name="quoteleft" horiz-adv-x="213" d="M158 481Q141 481 129 494T117 531Q117 588 147 631T226 699L239 674Q198 651 177 619T155 556H159Q175 556 185 548T196 522Q196 505 186 493T158 481Z" />
<glyph unicode="&#x2019;" glyph-name="quoteright" horiz-adv-x="213" d="M126 483L113 508Q155 531 176 563T197 626H193Q177 626 167 634T156 660Q156 677 167 689T195 701Q212 701 223 688T235 651Q235 594 205 551T126 483Z" />
<glyph unicode="&#x201a;" glyph-name="quotesinglbase" horiz-adv-x="213" d="M-2 -141L-15 -116Q27 -93 48 -61T69 2H65Q49 2 39 10T28 36Q28 53 39 65T67 77Q84 77 95 64T107 27Q107 -30 77 -73T-2 -141Z" />
<glyph unicode="&#x201c;" glyph-name="quotedblleft" horiz-adv-x="347" d="M158 481Q141 481 129 494T117 531Q117 588 147 631T226 699L239 674Q198 651 177 619T155 556H159Q175 556 185 548T196 522Q196 505 186 493T158 481ZM292 481Q275 481 263 494T251
531Q251 588 281 631T360 699L373 674Q332 651 311 619T289 556H293Q309 556 319 548T330 522Q330 505 320 493T292 481Z" />
<glyph unicode="&#x201d;" glyph-name="quotedblright" horiz-adv-x="347" d="M126 483L113 508Q155 531 176 563T197 626H193Q177 626 167 634T156 660Q156 677 167 689T195 701Q212 701 223 688T235 651Q235 594 205 551T126 483ZM260 483L247 508Q289 531 310
563T331 626H327Q311 626 301 634T290 660Q290 677 301 689T329 701Q346 701 357 688T369 651Q369 594 339 551T260 483Z" />
<glyph unicode="&#x201e;" glyph-name="quotedblbase" horiz-adv-x="347" d="M-2 -141L-15 -116Q27 -93 48 -61T69 2H65Q49 2 39 10T28 36Q28 53 39 65T67 77Q84 77 95 64T107 27Q107 -30 77 -73T-2 -141ZM131 -141L118 -116Q160 -93 181 -61T202 2H198Q182 2
172 10T161 36Q161 53 172 65T200 77Q217 77 228 64T240 27Q240 -30 210 -73T131 -141Z" />
<glyph unicode="&#x2022;" glyph-name="bullet" horiz-adv-x="274" d="M129 156Q91 156 67 182T42 251Q42 273 49 295T71 334T105 362T152 373Q188 373 213 347T238 278Q238 255 231 233T209 194T174 167T129 156Z" />
<glyph unicode="&#x2039;" glyph-name="guilsinglleft" horiz-adv-x="240" d="M142 72L40 236L47 276L205 430L224 410L78 251L166 87L142 72Z" />
<glyph unicode="&#x203a;" glyph-name="guilsinglright" horiz-adv-x="240" d="M40 72L21 92L167 251L78 415L103 430L205 266L197 226L40 72Z" />
</font>
</defs>
</svg>
