<?xml version="1.0" standalone="no"?>
<!DOCTYPE svg PUBLIC "-//W3C//DTD SVG 1.1//EN" "http://www.w3.org/Graphics/SVG/1.1/DTD/svg11.dtd">
<svg xmlns="http://www.w3.org/2000/svg">
<defs >
<font id="SourceSansPro" horiz-adv-x="540" ><font-face
    font-family="Source Sans Pro"
    units-per-em="1000"
    panose-1="2 11 6 3 3 4 3 2 2 4"
    ascent="984"
    descent="-273"
    alphabetic="0" />
<glyph unicode=" " glyph-name="space" horiz-adv-x="200" />
<glyph unicode="!" glyph-name="exclam" horiz-adv-x="315" d="M119 215L103 556L100 670H216L212 556L196 215H119ZM158 -12Q126 -12 105 10T83 66Q83 100 104 122T158 144Q190 144 211 122T232 66Q232 32 211 10T158 -12Z" />
<glyph unicode="&quot;" glyph-name="quotedbl" horiz-adv-x="482" d="M104 392L82 575L78 688H196L193 575L170 392H104ZM311 392L289 575L285 688H403L400 575L377 392H311Z" />
<glyph unicode="#" glyph-name="numbersign" horiz-adv-x="513" d="M88 0L112 195H35V271H120L136 400H55V476H146L168 650H237L216 476H333L356 650H424L403 476H483V400H394L378 271H463V195H369L346 0H276L299 195H182L158 0H88ZM190 271H308L324 400H206L190 271Z" />
<glyph unicode="$" glyph-name="dollar" horiz-adv-x="513" d="M218 -110V-10Q172 -5 126 14T45 66L97 144Q132 116 168 99T245 82Q294 82 318 104T342 168Q342 201 322 223T272 263T206 297T141 336T90 390T70 469Q70 539 110 585T218 644V746H298V646Q346 640
380 619T443 568L384 501Q356 527 330 540T268 554Q227 554 204 534T181 474Q181 444 201 425T251 389T317 356T382 316T433 260T453 176Q453 104 413 56T298 -7V-110H218Z" />
<glyph unicode="%" glyph-name="percent" horiz-adv-x="841" d="M186 252Q117 252 74 306T30 460Q30 559 73 612T186 666Q255 666 298 613T342 460Q342 361 299 307T186 252ZM186 319Q218 319 238 352T259 460Q259 534 239 566T186 599Q154 599 134 567T113 460Q113
386 133 353T186 319ZM206 -12L563 666H633L277 -12H206ZM655 -12Q586 -12 543 42T499 196Q499 295 542 348T655 402Q724 402 767 349T811 196Q811 97 768 43T655 -12ZM655 55Q687 55 707 88T728 196Q728 270 708 302T655 335Q623 335 603 303T582 196Q582 122
602 89T655 55Z" />
<glyph unicode="&amp;" glyph-name="ampersand" horiz-adv-x="639" d="M237 -12Q188 -12 150 2T84 41T43 99T28 172Q28 206 38 233T65 282T105 323T153 359Q133 397 122 433T111 503Q111 537 122 566T156 618T208 653T276 666Q343 666 381 628T420 527Q420 495
408 468T376 419T331 376T278 337Q308 296 346 258T427 187Q454 223 475 266T510 361H616Q598 299 570 242T504 134Q536 114 566 101T622 82L593 -12Q555 -3 515 14T434 58Q395 26 346 7T237 -12ZM207 504Q207 481 214 458T233 408Q274 434 302 461T330 526Q330
552 318 570T277 588Q246 588 227 565T207 504ZM251 77Q278 77 304 87T356 116Q312 153 273 194T201 281Q173 258 156 234T138 179Q138 133 170 105T251 77Z" />
<glyph unicode="&apos;" glyph-name="quotesingle" horiz-adv-x="275" d="M104 392L82 575L78 688H196L193 575L170 392H104Z" />
<glyph unicode="(" glyph-name="parenleft" horiz-adv-x="324" d="M209 -178Q146 -75 112 35T77 278Q77 411 111 521T209 734L281 702Q224 605 198 497T171 278Q171 167 197 59T281 -146L209 -178Z" />
<glyph unicode=")" glyph-name="parenright" horiz-adv-x="324" d="M115 -178L43 -146Q100 -49 126 59T153 278Q153 389 127 497T43 702L115 734Q178 631 212 521T247 278Q247 145 213 35T115 -178Z" />
<glyph unicode="*" glyph-name="asterisk" horiz-adv-x="438" d="M143 384L92 421L150 519L48 564L67 624L176 599L187 712H250L261 599L371 624L390 564L287 519L345 421L294 384L219 471L143 384Z" />
<glyph unicode="+" glyph-name="plus" horiz-adv-x="513" d="M213 99V288H34V372H213V561H300V372H479V288H300V99H213Z" />
<glyph unicode="," glyph-name="comma" horiz-adv-x="275" d="M72 -182L47 -119Q96 -100 122 -68T148 2H139Q110 2 88 20T65 73Q65 105 87 124T142 144Q183 144 205 113T228 26Q228 -48 188 -102T72 -182Z" />
<glyph unicode="-" glyph-name="hyphen" horiz-adv-x="322" d="M42 210V294H280V210H42Z" />
<glyph unicode="." glyph-name="period" horiz-adv-x="275" d="M138 -12Q106 -12 85 10T63 66Q63 100 84 122T138 144Q170 144 191 122T212 66Q212 32 191 10T138 -12Z" />
<glyph unicode="/" glyph-name="slash" horiz-adv-x="344" d="M12 -160L245 710H323L90 -160H12Z" />
<glyph unicode="0" glyph-name="zero" horiz-adv-x="513" d="M256 -12Q156 -12 98 73T40 321Q40 483 98 565T256 648Q356 648 414 565T472 321Q472 159 414 74T256 -12ZM256 78Q279 78 298 90T332 132T354 207T362 321Q362 388 354 433T332 507T299 546T256 558Q233
558 214 547T180 507T158 434T150 321Q150 253 158 207T180 132T213 91T256 78Z" />
<glyph unicode="1" glyph-name="one" horiz-adv-x="513" d="M74 0V94H216V512H99V584Q147 593 181 605T246 636H332V94H457V0H74Z" />
<glyph unicode="2" glyph-name="two" horiz-adv-x="513" d="M38 0V67Q104 131 157 185T248 285T306 371T326 447Q326 498 299 527T221 557Q184 557 154 536T97 486L33 550Q77 597 123 622T236 648Q282 648 319 634T382 595T422 533T437 453Q437 411 419 368T369
280T295 188T206 91Q231 93 260 95T312 98H468V0H38Z" />
<glyph unicode="3" glyph-name="three" horiz-adv-x="513" d="M240 -12Q162 -12 110 14T24 78L79 152Q108 123 145 103T230 82Q282 82 314 107T347 178Q347 203 338 223T308 257T250 278T160 286V370Q207 370 238 377T289 398T317 431T326 472Q326 512 301 534T232
557Q194 557 164 541T104 497L45 568Q86 604 132 626T236 648Q282 648 320 637T385 605T427 552T442 480Q442 426 413 390T331 334V330Q388 315 425 275T463 172Q463 128 446 94T398 37T327 1T240 -12Z" />
<glyph unicode="4" glyph-name="four" horiz-adv-x="513" d="M299 0V164H18V242L270 636H407V253H487V164H407V0H299ZM132 253H299V397Q299 425 300 463T304 529H300Q288 504 275 480T248 430L132 253Z" />
<glyph unicode="5" glyph-name="five" horiz-adv-x="513" d="M241 -12Q164 -12 112 14T24 76L77 150Q106 123 142 103T226 82Q280 82 314 114T349 204Q349 261 317 292T232 323Q201 323 180 315T130 287L75 322L94 636H434V539H194L181 385Q201 395 220 400T265
406Q306 406 342 394T406 358T449 296T465 207Q465 155 447 114T397 45T326 3T241 -12Z" />
<glyph unicode="6" glyph-name="six" horiz-adv-x="513" d="M275 -12Q228 -12 186 6T113 63T63 160T44 299Q44 392 65 458T120 566T200 628T294 648Q352 648 393 627T464 576L402 506Q385 527 358 540T301 554Q271 554 245 542T198 503T166 430T151 319Q179 354
216 374T289 394Q330 394 364 382T423 346T461 284T475 197Q475 149 459 111T416 45T353 3T275 -12ZM273 76Q313 76 340 107T368 197Q368 254 342 282T268 310Q241 310 211 294T154 237Q163 152 194 114T273 76Z" />
<glyph unicode="7" glyph-name="seven" horiz-adv-x="513" d="M168 0Q172 85 183 155T214 290T267 414T345 539H44V636H471V566Q415 497 381 435T326 307T298 167T285 0H168Z" />
<glyph unicode="8" glyph-name="eight" horiz-adv-x="513" d="M257 -12Q210 -12 171 1T103 37T58 92T41 163Q41 193 50 217T76 262T112 298T156 326V330Q119 356 94 392T68 479Q68 518 82 549T122 602T183 636T260 648Q303 648 337 636T396 601T434 547T447 476Q447
452 440 431T420 391T393 357T362 330V326Q384 314 404 299T439 263T463 218T472 161Q472 124 457 93T413 38T345 1T257 -12ZM299 359Q325 385 338 412T352 469Q352 511 328 538T258 566Q221 566 196 544T171 479Q171 455 181 437T208 406T249 381T299 359ZM259
70Q305 70 334 95T364 165Q364 191 352 209T320 242T271 269T211 294Q181 272 162 242T142 175Q142 127 176 99T259 70Z" />
<glyph unicode="9" glyph-name="nine" horiz-adv-x="513" d="M244 326Q272 326 302 343T358 400Q349 484 317 522T238 560Q199 560 171 529T143 440Q143 383 169 355T244 326ZM217 -12Q160 -12 118 9T47 60L109 130Q127 109 154 96T211 82Q241 82 267 94T314 133T346
206T361 317Q333 282 295 263T222 243Q181 243 147 255T89 291T51 353T37 440Q37 488 53 526T96 592T159 633T237 648Q283 648 325 630T398 573T448 477T467 338Q467 245 447 179T392 71T312 8T217 -12Z" />
<glyph unicode=":" glyph-name="colon" horiz-adv-x="275" d="M138 330Q106 330 85 352T63 408Q63 442 84 464T138 486Q170 486 191 464T212 408Q212 374 191 352T138 330ZM138 -12Q106 -12 85 10T63 66Q63 100 84 122T138 144Q170 144 191 122T212 66Q212 32
191 10T138 -12Z" />
<glyph unicode=";" glyph-name="semicolon" horiz-adv-x="275" d="M138 330Q106 330 85 352T63 408Q63 442 84 464T138 486Q170 486 191 464T212 408Q212 374 191 352T138 330ZM72 -182L47 -119Q96 -100 122 -68T148 2H139Q110 2 88 20T65 73Q65 105 87 124T142
144Q183 144 205 113T228 26Q228 -48 188 -102T72 -182Z" />
<glyph unicode="&lt;" glyph-name="less" horiz-adv-x="513" d="M479 117L34 290V374L479 547V450L286 382L151 334V330L286 282L479 214V117Z" />
<glyph unicode="=" glyph-name="equal" horiz-adv-x="513" d="M34 400V484H479V400H34ZM34 433V517H479V433H34Z" />
<glyph unicode="&gt;" glyph-name="greater" horiz-adv-x="513" d="M34 117V214L227 282L362 330V334L227 382L34 450V547L479 374V290L34 117Z" />
<glyph unicode="?" glyph-name="question" horiz-adv-x="444" d="M157 215Q152 251 159 281T181 336T214 382T249 424T277 465T288 508Q288 544 267 566T207 588Q176 588 151 574T104 536L40 595Q73 633 118 657T221 682Q260 682 293 672T349 640T386 588T400
516Q400 484 389 459T360 410T324 366T289 322T264 273T258 215H157ZM208 -12Q176 -12 155 10T134 66Q134 100 155 122T208 144Q240 144 261 122T283 66Q283 32 262 10T208 -12Z" />
<glyph unicode="@" glyph-name="at" horiz-adv-x="875" d="M416 -164Q342 -164 276 -141T159 -72T80 43T50 204Q50 307 85 390T179 533T317 625T484 658Q562 658 625 633T733 563T802 454T826 314Q826 247 807 197T756 112T687 61T612 44Q569 44 539 63T502 120H500Q477
90 444 71T379 52Q324 52 289 90T253 198Q253 241 267 283T308 360T370 415T450 437Q502 437 528 388H530L543 429H616L573 218Q548 117 623 117Q646 117 669 130T710 169T739 229T750 310Q750 367 734 417T684 504T598 564T475 586Q409 586 347 559T237 483T160
364T130 208Q130 134 153 78T216 -15T310 -72T425 -91Q467 -91 508 -80T582 -50L609 -114Q521 -164 416 -164ZM403 127Q421 127 440 139T482 179L508 326Q486 361 453 361Q427 361 407 346T372 308T350 258T342 205Q342 164 358 146T403 127Z" />
<glyph unicode="A" glyph-name="A" horiz-adv-x="558" d="M217 348L194 268H361L338 348Q322 400 308 455T279 564H275Q261 509 247 455T217 348ZM-2 0L211 654H347L560 0H438L387 177H167L116 0H-2Z" />
<glyph unicode="B" glyph-name="B" horiz-adv-x="597" d="M83 0V654H292Q343 654 385 646T459 619T508 569T526 493Q526 446 502 406T435 351V347Q489 335 524 297T560 192Q560 143 541 107T489 47T409 12T309 0H83ZM199 384H282Q351 384 381 409T412 476Q412
524 380 544T284 564H199V384ZM199 90H297Q369 90 408 116T447 198Q447 250 409 273T297 297H199V90Z" />
<glyph unicode="C" glyph-name="C" horiz-adv-x="576" d="M344 -12Q282 -12 228 10T135 75T72 181T49 325Q49 405 72 468T136 576T231 643T348 666Q410 666 458 641T537 583L475 508Q449 534 419 549T351 565Q311 565 278 549T220 502T182 427T168 328Q168 216
216 153T348 89Q392 89 426 107T488 156L550 83Q510 37 459 13T344 -12Z" />
<glyph unicode="D" glyph-name="D" horiz-adv-x="625" d="M83 0V654H258Q408 654 492 573T576 330Q576 249 555 187T493 84T395 21T264 0H83ZM199 94H250Q350 94 403 151T457 330Q457 450 403 505T250 560H199V94Z" />
<glyph unicode="E" glyph-name="E" horiz-adv-x="538" d="M83 0V654H477V556H199V389H434V291H199V98H487V0H83Z" />
<glyph unicode="F" glyph-name="F" horiz-adv-x="510" d="M83 0V654H478V556H199V371H437V273H199V0H83Z" />
<glyph unicode="G" glyph-name="G" horiz-adv-x="628" d="M357 -12Q291 -12 235 10T137 75T72 181T49 325Q49 405 73 468T138 576T236 643T358 666Q428 666 476 641T556 583L494 508Q469 532 439 548T362 565Q318 565 283 549T222 502T182 427T168 328Q168 216
218 153T368 89Q396 89 421 96T462 118V259H338V354H566V66Q533 33 479 11T357 -12Z" />
<glyph unicode="H" glyph-name="H" horiz-adv-x="663" d="M83 0V654H199V391H464V654H580V0H464V290H199V0H83Z" />
<glyph unicode="I" glyph-name="I" horiz-adv-x="282" d="M83 0V654H199V0H83Z" />
<glyph unicode="J" glyph-name="J" horiz-adv-x="494" d="M219 -12Q150 -12 103 16T24 99L104 158Q124 122 150 106T206 89Q252 89 275 117T298 215V654H414V205Q414 160 403 121T368 52T307 5T219 -12Z" />
<glyph unicode="K" glyph-name="K" horiz-adv-x="597" d="M83 0V654H199V357H202L435 654H564L363 399L598 0H470L293 308L199 191V0H83Z" />
<glyph unicode="L" glyph-name="L" horiz-adv-x="502" d="M83 0V654H199V98H471V0H83Z" />
<glyph unicode="M" glyph-name="M" horiz-adv-x="745" d="M83 0V654H214L330 334Q341 303 351 271T372 206H376Q387 238 396 270T417 334L530 654H662V0H555V299Q555 322 556 349T560 403T565 457T570 507H566L513 355L406 61H337L229 355L177 507H173Q175 484
177 458T182 404T186 349T188 299V0H83Z" />
<glyph unicode="N" glyph-name="N" horiz-adv-x="656" d="M83 0V654H202L406 286L473 147H477Q473 198 468 256T462 370V654H573V0H454L250 368L183 507H179Q183 455 188 398T194 286V0H83Z" />
<glyph unicode="O" glyph-name="O" horiz-adv-x="674" d="M337 -12Q273 -12 220 11T129 79T70 187T49 330Q49 409 70 471T129 577T220 643T337 666Q401 666 454 643T545 577T605 472T626 330Q626 250 605 187T546 80T454 12T337 -12ZM337 89Q376 89 407 106T460
154T494 230T506 330Q506 440 461 502T337 565Q259 565 214 503T168 330Q168 275 180 231T214 155T267 106T337 89Z" />
<glyph unicode="P" glyph-name="P" horiz-adv-x="582" d="M83 0V654H289Q343 654 389 644T470 610T523 548T542 452Q542 398 523 358T471 292T392 253T293 240H199V0H83ZM199 333H284Q428 333 428 452Q428 514 391 537T280 561H199V333Z" />
<glyph unicode="Q" glyph-name="Q" horiz-adv-x="674" d="M337 83Q376 83 407 100T460 149T494 227T506 330Q506 440 461 502T337 565Q259 565 214 503T168 330Q168 273 180 227T214 149T267 100T337 83ZM545 -174Q447 -174 381 -127T283 -7Q230 2 187 29T113
100T66 201T49 330Q49 409 70 471T129 577T220 643T337 666Q401 666 454 643T545 577T605 472T626 330Q626 262 611 206T566 106T497 35T406 -4Q429 -43 469 -61T558 -79Q580 -79 597 -77T629 -69L650 -155Q633 -163 606 -168T545 -174Z" />
<glyph unicode="R" glyph-name="R" horiz-adv-x="592" d="M83 0V654H304Q355 654 399 644T475 612T525 552T544 460Q544 385 509 339T414 273L570 0H440L299 256H199V0H83ZM199 348H292Q359 348 394 376T430 460Q430 517 395 539T292 561H199V348Z" />
<glyph unicode="S" glyph-name="S" horiz-adv-x="545" d="M274 -12Q208 -12 147 13T38 84L106 163Q141 130 186 110T276 89Q332 89 361 112T390 173Q390 193 383 207T362 231T330 251T289 269L199 308Q175 318 152 333T109 369T79 418T67 482Q67 521 83 554T129
613T198 652T287 666Q344 666 397 644T488 583L429 509Q397 535 363 550T287 565Q240 565 212 545T184 488Q184 469 192 456T215 432T249 413T288 396L377 359Q406 347 430 331T471 294T499 246T509 182Q509 142 493 107T447 46T373 4T274 -12Z" />
<glyph unicode="T" glyph-name="T" horiz-adv-x="546" d="M215 0V556H26V654H520V556H331V0H215Z" />
<glyph unicode="U" glyph-name="U" horiz-adv-x="655" d="M328 -12Q271 -12 226 4T148 57T98 149T80 287V654H196V278Q196 225 205 189T232 130T274 99T328 89Q358 89 383 98T426 130T454 188T464 278V654H575V287Q575 206 558 150T509 57T431 5T328 -12Z" />
<glyph unicode="V" glyph-name="V" horiz-adv-x="536" d="M200 0L-4 654H119L211 325Q227 269 239 219T269 112H273Q290 169 302 219T330 325L421 654H540L337 0H200Z" />
<glyph unicode="W" glyph-name="W" horiz-adv-x="800" d="M148 0L18 654H137L194 324Q202 271 210 219T226 115H230Q241 167 251 219T273 324L353 654H454L534 324Q545 273 556 221T578 115H582Q590 168 597 220T613 324L670 654H781L656 0H512L431 344Q423 382
416 419T402 495H398Q391 457 384 420T368 344L289 0H148Z" />
<glyph unicode="X" glyph-name="X" horiz-adv-x="541" d="M13 0L199 337L25 654H154L226 509Q238 486 249 462T276 409H280Q292 438 302 462T324 509L393 654H516L342 332L528 0H399L319 154Q306 180 294 205T266 261H262Q249 231 238 206T214 154L136 0H13Z" />
<glyph unicode="Y" glyph-name="Y" horiz-adv-x="501" d="M192 0V243L-4 654H120L191 487Q205 450 219 416T249 343H253Q269 381 284 415T313 487L384 654H505L308 243V0H192Z" />
<glyph unicode="Z" glyph-name="Z" d="M40 0V70L356 556H69V654H500V584L183 98H502V0H40Z" />
<glyph unicode="[" glyph-name="bracketleft" horiz-adv-x="324" d="M90 -152V708H286V645H177V-89H286V-152H90Z" />
<glyph unicode="\" glyph-name="backslash" horiz-adv-x="344" d="M255 -160L21 710H99L333 -160H255Z" />
<glyph unicode="]" glyph-name="bracketright" horiz-adv-x="324" d="M38 -152V-89H147V645H38V708H234V-152H38Z" />
<glyph unicode="^" glyph-name="asciicircum" horiz-adv-x="513" d="M55 279L208 670H304L458 279H361L306 430L258 565H254L207 430L152 279H55Z" />
<glyph unicode="_" glyph-name="underscore" horiz-adv-x="500" d="M12 -133V-64H488V-133H12Z" />
<glyph unicode="`" glyph-name="grave" horiz-adv-x="549" d="M276 573L106 728L186 804L333 630L276 573Z" />
<glyph unicode="a" glyph-name="a" horiz-adv-x="516" d="M192 -12Q127 -12 87 27T47 132Q47 171 63 201T115 254T205 291T336 314Q335 333 331 350T316 381T288 402T246 410Q210 410 176 396T108 362L66 439Q107 465 158 484T268 503Q360 503 405 449T451 291V0H356L348
54H344Q311 26 274 7T192 -12ZM229 78Q259 78 283 92T336 132V242Q286 236 252 226T197 204T167 175T158 141Q158 108 178 93T229 78Z" />
<glyph unicode="b" glyph-name="b" horiz-adv-x="563" d="M311 -12Q277 -12 243 4T177 52H174L164 0H73V706H188V524L185 442Q216 469 252 486T327 503Q373 503 409 486T470 436T508 357T521 254Q521 191 504 142T457 58T390 6T311 -12ZM287 83Q336 83 369 125T402
252Q402 326 377 367T296 408Q244 408 188 353V124Q214 101 239 92T287 83Z" />
<glyph unicode="c" glyph-name="c" horiz-adv-x="462" d="M278 -12Q228 -12 185 5T109 55T59 136T41 245Q41 306 61 354T115 435T193 485T287 503Q335 503 369 487T431 448L375 373Q355 390 336 399T293 409Q233 409 196 365T159 245Q159 171 195 127T290 82Q319
82 344 94T391 124L438 48Q403 18 362 3T278 -12Z" />
<glyph unicode="d" glyph-name="d" horiz-adv-x="564" d="M245 -12Q152 -12 98 55T43 245Q43 305 60 353T107 434T173 485T251 503Q293 503 322 489T380 449L376 528V706H491V0H396L388 53H384Q357 26 321 7T245 -12ZM273 83Q328 83 376 138V367Q350 390 326 399T276
408Q228 408 195 366T162 246Q162 166 190 125T273 83Z" />
<glyph unicode="e" glyph-name="e" horiz-adv-x="507" d="M283 -12Q232 -12 188 5T111 56T60 136T41 245Q41 305 60 353T110 434T183 485T267 503Q317 503 355 486T418 438T457 364T470 270Q470 253 469 238T465 214H153Q161 148 199 113T298 77Q330 77 357 86T412
113L451 41Q416 18 373 3T283 -12ZM152 292H370Q370 349 346 381T270 414Q226 414 193 383T152 292Z" />
<glyph unicode="f" glyph-name="f" horiz-adv-x="317" d="M93 0V400H27V486L93 491V542Q93 580 102 612T131 668T181 705T256 718Q282 718 305 713T346 701L324 615Q297 627 270 627Q208 627 208 544V491H304V400H208V0H93Z" />
<glyph unicode="g" glyph-name="g" horiz-adv-x="520" d="M244 -217Q200 -217 163 -209T98 -185T56 -145T40 -89Q40 -58 58 -32T110 16V20Q91 32 79 52T66 102Q66 131 82 154T120 193V197Q95 216 76 249T56 327Q56 369 72 402T114 457T176 491T250 503Q270 503
288 500T322 491H498V406H408Q420 392 428 371T436 323Q436 282 422 251T382 199T323 167T250 156Q234 156 217 159T183 169Q172 159 166 149T159 122Q159 101 176 89T239 77H326Q415 77 460 49T506 -44Q506 -80 488 -112T435 -167T353 -203T244 -217ZM250 228Q285
228 310 253T335 327Q335 373 311 398T250 424Q214 424 189 399T164 327Q164 279 189 254T250 228ZM262 -142Q322 -142 358 -119T395 -63Q395 -34 373 -24T308 -14H241Q201 -14 174 -7Q136 -36 136 -72Q136 -105 169 -123T262 -142Z" />
<glyph unicode="h" glyph-name="h" horiz-adv-x="558" d="M73 0V706H188V524L184 429Q215 458 252 480T341 503Q420 503 456 453T492 308V0H377V293Q377 354 359 379T300 404Q268 404 244 389T188 343V0H73Z" />
<glyph unicode="i" glyph-name="i" horiz-adv-x="262" d="M73 0V491H188V0H73ZM131 577Q100 577 80 595T60 642Q60 671 80 689T131 708Q162 708 182 690T202 642Q202 613 182 595T131 577Z" />
<glyph unicode="j" glyph-name="j" horiz-adv-x="263" d="M34 -206Q7 -206 -12 -202T-46 -193L-24 -107Q-14 -110 -4 -112T18 -115Q51 -115 62 -93T74 -27V491H190V-25Q190 -64 182 -97T156 -154T107 -192T34 -206ZM132 577Q102 577 82 595T61 642Q61 671 81 689T132
708Q163 708 183 690T204 642Q204 613 184 595T132 577Z" />
<glyph unicode="k" glyph-name="k" horiz-adv-x="522" d="M73 0V706H186V265H189L371 491H497L329 291L514 0H389L263 213L186 125V0H73Z" />
<glyph unicode="l" glyph-name="l" horiz-adv-x="271" d="M185 -12Q123 -12 98 25T73 126V706H188V120Q188 99 196 91T213 82Q217 82 220 82T231 84L246 -2Q223 -12 185 -12Z" />
<glyph unicode="m" glyph-name="m" horiz-adv-x="843" d="M73 0V491H168L176 424H180Q211 457 247 480T330 503Q384 503 416 480T466 415Q501 453 539 478T624 503Q702 503 739 453T776 308V0H660V293Q660 354 642 379T585 404Q539 404 482 343V0H367V293Q367
354 349 379T291 404Q245 404 188 343V0H73Z" />
<glyph unicode="n" glyph-name="n" horiz-adv-x="560" d="M73 0V491H168L176 425H180Q213 457 251 480T341 503Q420 503 456 453T492 308V0H377V293Q377 354 359 379T300 404Q268 404 244 389T188 343V0H73Z" />
<glyph unicode="o" glyph-name="o" horiz-adv-x="549" d="M274 -12Q228 -12 186 5T112 55T60 136T41 245Q41 306 60 354T111 435T186 485T274 503Q320 503 362 486T437 435T488 354T508 245Q508 184 489 136T437 55T363 5T274 -12ZM274 82Q328 82 359 126T390
245Q390 320 359 364T274 409Q220 409 190 365T159 245Q159 171 189 127T274 82Z" />
<glyph unicode="p" glyph-name="p" horiz-adv-x="564" d="M73 -194V491H168L176 439H180Q211 465 249 484T328 503Q374 503 409 486T470 435T508 356T521 253Q521 190 504 141T457 58T390 6T311 -12Q279 -12 247 2T185 42L188 -40V-194H73ZM287 83Q336 83 369
125T402 252Q402 326 377 367T296 408Q244 408 188 353V124Q215 101 240 92T287 83Z" />
<glyph unicode="q" glyph-name="q" horiz-adv-x="564" d="M376 -194V-33L380 49Q353 23 318 6T245 -12Q152 -12 98 55T43 245Q43 305 60 353T107 434T173 485T251 503Q293 503 324 489T387 444H390L400 491H491V-194H376ZM273 83Q328 83 376 138V367Q350 390 326
399T276 408Q228 408 195 366T162 246Q162 166 190 125T273 83Z" />
<glyph unicode="r" glyph-name="r" horiz-adv-x="373" d="M73 0V491H168L176 404H180Q206 452 243 477T319 503Q354 503 375 493L355 393Q342 397 331 399T304 401Q275 401 243 379T188 300V0H73Z" />
<glyph unicode="s" glyph-name="s" horiz-adv-x="431" d="M210 -12Q159 -12 110 7T24 56L78 130Q111 104 143 90T214 75Q254 75 273 91T292 134Q292 149 283 160T259 181T225 197T187 213Q163 222 138 234T94 263T62 302T49 356Q49 421 97 462T228 503Q279 503
320 485T391 444L338 374Q312 393 286 404T230 416Q193 416 176 401T158 362Q158 347 166 337T189 318T221 303T260 289Q285 280 310 269T355 240T388 199T401 140Q401 108 389 81T352 33T292 0T210 -12Z" />
<glyph unicode="t" glyph-name="t" horiz-adv-x="361" d="M246 -12Q203 -12 174 1T126 37T99 93T90 166V400H20V486L96 491L110 625H206V491H331V400H206V166Q206 80 275 80Q288 80 301 83T326 91L346 6Q326 -1 301 -6T246 -12Z" />
<glyph unicode="u" glyph-name="u" horiz-adv-x="556" d="M219 -12Q140 -12 104 38T68 183V491H183V198Q183 137 201 112T259 87Q291 87 315 103T368 155V491H483V0H389L380 72H377Q345 34 308 11T219 -12Z" />
<glyph unicode="v" glyph-name="v" horiz-adv-x="495" d="M183 0L12 491H129L207 236Q217 200 227 163T248 88H252Q263 126 273 163T294 236L372 491H483L316 0H183Z" />
<glyph unicode="w" glyph-name="w" horiz-adv-x="748" d="M154 0L24 491H140L199 236Q207 201 212 166T225 95H229Q236 131 243 166T260 236L324 491H429L494 236Q503 201 511 166T527 95H531Q538 131 544 166T557 236L616 491H724L599 0H462L405 229Q397 264
390 298T375 372H371Q364 333 357 298T342 228L286 0H154Z" />
<glyph unicode="x" glyph-name="x" horiz-adv-x="481" d="M14 0L170 256L24 491H148L203 398Q214 378 225 357T248 315H252Q261 335 271 356T290 398L337 491H456L311 243L467 0H343L283 97Q271 119 259 141T233 184H229Q218 163 208 142T186 97L134 0H14Z" />
<glyph unicode="y" glyph-name="y" horiz-adv-x="495" d="M106 -202Q86 -202 71 -200T42 -192L63 -102Q70 -104 79 -106T98 -109Q137 -109 160 -86T196 -25L205 6L12 491H129L214 250Q225 218 235 183T257 112H261Q270 146 279 181T298 250L372 491H483L305 -22Q290
-64 272 -97T231 -153T177 -189T106 -202Z" />
<glyph unicode="z" glyph-name="z" horiz-adv-x="443" d="M34 0V62L266 400H60V491H410V430L179 92H418V0H34Z" />
<glyph unicode="{" glyph-name="braceleft" horiz-adv-x="324" d="M232 -152Q200 -152 177 -146T139 -123T117 -81T109 -14Q109 13 110 35T113 79T116 121T118 167Q118 181 114 194T100 218T74 236T32 243V313Q57 313 73 320T100 337T114 361T118 388Q118 413
117 434T114 477T111 520T109 570Q109 610 116 636T139 679T177 701T232 708H286V645H263Q227 645 215 628T202 565Q202 522 204 482T207 393Q207 339 191 314T140 280V276Q175 267 191 242T207 163Q207 115 205 75T202 -9Q202 -54 214 -71T263 -89H286V-152H232Z"
/>
<glyph unicode="|" glyph-name="bar" horiz-adv-x="255" d="M89 -250V750H166V-250H89Z" />
<glyph unicode="}" glyph-name="braceright" horiz-adv-x="324" d="M38 -152V-89H61Q97 -89 109 -72T122 -9Q122 34 120 74T117 163Q117 216 133 241T184 276V280Q149 289 133 314T117 393Q117 441 119 481T122 565Q122 610 110 627T61 645H38V708H92Q123 708
146 702T185 679T207 637T215 570Q215 543 214 521T211 477T208 435T206 388Q206 374 210 361T224 338T250 320T292 313V243Q267 243 251 236T224 219T210 195T206 167Q206 143 207 122T210 79T213 36T215 -14Q215 -54 208 -80T185 -123T147 -145T92 -152H38Z"
/>
<glyph unicode="~" glyph-name="asciitilde" horiz-adv-x="513" d="M343 248Q313 248 290 260T246 288T208 315T168 328Q126 328 94 269L32 315Q64 367 99 389T170 412Q200 412 223 400T267 372T305 345T345 332Q387 332 419 391L480 344Q448 293 413 271T343 248Z" />
<glyph unicode="&#xa0;" glyph-name="uni00A0" horiz-adv-x="205" />
<glyph unicode="&#xa1;" glyph-name="exclamdown" horiz-adv-x="315" d="M100 -179L103 -65L119 276H196L212 -65L216 -179H100ZM158 347Q126 347 105 369T83 426Q83 459 104 481T158 503Q190 503 211 481T232 426Q232 391 211 369T158 347Z" />
<glyph unicode="&#xa2;" glyph-name="cent" horiz-adv-x="513" d="M173 308Q173 252 198 214T269 162V455Q223 440 198 402T173 308ZM269 -37V62Q175 74 118 137T61 308Q61 360 77 402T120 476T186 526T269 553V654H335V556Q377 554 408 538T463 499L409 428Q374
459 335 463V155Q361 157 383 169T423 196L471 123Q442 97 407 82T335 61V-37H269Z" />
<glyph unicode="&#xa3;" glyph-name="sterling" horiz-adv-x="513" d="M51 0V71Q99 95 128 138T157 237Q157 248 156 257T153 278H53V347L120 352H132Q124 378 118 403T111 454Q111 499 125 535T166 596T230 634T311 648Q366 648 405 627T475 570L411 507Q392
529 371 541T321 554Q274 554 248 527T222 448Q222 423 227 400T239 352H393V278H256Q259 258 259 236Q259 191 246 161T206 102V98H476V0H51Z" />
<glyph unicode="&#xa4;" glyph-name="currency" horiz-adv-x="513" d="M82 93L23 153L85 216Q68 239 59 267T50 329Q50 363 59 391T85 443L23 506L82 566L150 496Q198 527 256 527Q314 527 362 496L431 566L490 506L427 443Q444 420 453 392T462 329Q462 296 453
268T427 216L490 153L431 93L362 163Q339 147 312 140T256 132Q228 132 201 139T151 163L82 93ZM256 214Q299 214 328 245T358 329Q358 382 329 413T256 445Q214 445 184 414T154 329Q154 277 184 246T256 214Z" />
<glyph unicode="&#xa5;" glyph-name="yen" horiz-adv-x="513" d="M198 0V152H41V212H198V271H41V330H172L18 636H137L201 485Q215 452 228 419T256 352H260Q274 386 287 419T315 485L379 636H495L340 330H472V271H314V212H472V152H314V0H198Z" />
<glyph unicode="&#xa6;" glyph-name="brokenbar" horiz-adv-x="255" d="M89 302V750H166V302H89ZM89 -250V209H166V-250H89Z" />
<glyph unicode="&#xa7;" glyph-name="section" horiz-adv-x="513" d="M140 342Q140 314 158 296T203 262T264 234T327 203Q350 215 361 232T373 275Q373 303 356 322T311 357T250 385T187 415Q164 401 152 384T140 342ZM238 -74Q184 -74 135 -54T54 4L122 64Q147
39 175 26T238 12Q273 12 291 28T310 68Q310 92 290 108T240 138T176 167T111 203T61 256T41 334Q41 375 63 408T124 463Q94 496 94 545Q94 575 104 601T136 646T187 676T258 687Q311 687 353 668T426 626L372 553Q349 573 322 586T264 600Q229 600 214 586T198
550Q198 527 218 512T269 482T335 452T401 414T451 361T472 284Q472 238 450 207T389 153Q401 137 408 118T415 73Q415 41 403 15T368 -32T312 -63T238 -74Z" />
<glyph unicode="&#xa8;" glyph-name="dieresis" horiz-adv-x="549" d="M171 578Q145 578 128 595T110 639Q110 665 127 682T171 700Q198 700 215 683T232 639Q232 613 215 596T171 578ZM377 578Q350 578 333 595T316 639Q316 665 333 682T377 700Q403 700 420
683T438 639Q438 613 421 596T377 578Z" />
<glyph unicode="&#xa9;" glyph-name="copyright" horiz-adv-x="747" d="M374 -10Q308 -10 249 13T145 80T74 185T47 324Q47 401 73 462T144 566T248 631T374 654Q440 654 499 632T602 566T673 462T700 324Q700 247 674 186T603 81T499 14T374 -10ZM374 42Q430
42 479 62T564 120T621 209T642 324Q642 387 621 438T564 526T479 583T374 603Q318 603 269 583T184 527T126 439T105 324Q105 261 126 209T183 120T269 63T374 42ZM384 126Q344 126 310 139T250 178T211 240T196 323Q196 367 211 402T253 462T314 500T385 514Q430
514 460 497T514 456L469 406Q450 424 432 433T391 443Q340 443 311 409T282 323Q282 265 310 231T387 197Q416 197 437 208T478 236L517 180Q489 157 458 142T384 126Z" />
<glyph unicode="&#xaa;" glyph-name="ordfeminine" horiz-adv-x="352" d="M133 377Q87 377 60 404T33 474Q33 527 78 555T226 593Q224 620 212 636T170 652Q147 652 123 643T75 620L45 675Q74 692 109 705T184 718Q309 718 309 577V385H242L234 420H230Q210 402
186 390T133 377ZM160 441Q177 441 193 449T226 474V544Q163 536 139 520T114 481Q114 441 160 441Z" />
<glyph unicode="&#xab;" glyph-name="guillemotleft" horiz-adv-x="456" d="M182 61L47 210V294L182 443L228 406L113 252L228 97L182 61ZM356 61L221 210V294L356 443L402 406L287 252L402 97L356 61Z" />
<glyph unicode="&#xac;" glyph-name="logicalnot" horiz-adv-x="513" d="M392 99V288H34V372H479V99H392Z" />
<glyph unicode="&#xad;" glyph-name="uni00AD" horiz-adv-x="322" d="M42 210V294H280V210H42Z" />
<glyph unicode="&#xae;" glyph-name="registered" horiz-adv-x="443" d="M221 315Q181 315 146 329T85 370T43 433T28 514Q28 558 43 595T84 658T146 699T221 714Q261 714 296 700T357 659T399 595T414 514Q414 470 399 434T358 371T296 330T221 315ZM221 358Q252
358 279 369T325 401T356 450T367 514Q367 549 356 578T326 628T279 660T221 672Q189 672 163 661T117 628T86 578T75 514Q75 479 86 451T116 402T162 370T221 358ZM144 417V616H227Q260 616 283 601T307 551Q307 534 298 519T270 496L314 417H261L228 482H194V417H144ZM194
518H217Q234 518 244 526T254 548Q254 561 246 569T218 578H194V518Z" />
<glyph unicode="&#xaf;" glyph-name="overscore" horiz-adv-x="549" d="M134 596V672H414V596H134Z" />
<glyph unicode="&#xb0;" glyph-name="degree" horiz-adv-x="348" d="M175 413Q147 413 123 423T80 451T51 494T40 549Q40 579 50 604T79 647T122 675T175 685Q203 685 227 675T270 647T299 604T310 549Q310 519 300 494T271 451T228 423T175 413ZM175 472Q207
472 226 493T246 549Q246 584 227 605T175 627Q143 627 124 606T104 549Q104 515 123 494T175 472Z" />
<glyph unicode="&#xb1;" glyph-name="plusminus" horiz-adv-x="513" d="M213 143V299H34V382H213V561H300V382H479V299H300V143H213ZM34 0V83H479V0H34Z" />
<glyph unicode="&#xb2;" glyph-name="two.sups" horiz-adv-x="372" d="M48 385V433Q132 505 179 554T226 644Q226 677 209 696T160 715Q138 715 119 701T83 663L33 709Q59 746 95 766T173 787Q235 787 272 754T310 658Q310 632 301 608T274 560T235 510T186 458H327V385H48Z"
/>
<glyph unicode="&#xb3;" glyph-name="three.sups" horiz-adv-x="372" d="M183 373Q133 373 94 394T31 451L85 493Q121 440 176 440Q204 440 223 455T243 498Q243 527 216 542T136 558V609Q179 609 203 625T228 669Q228 692 212 706T169 720Q149 720 131 708T97
677L47 721Q76 753 107 770T183 787Q209 787 232 780T274 759T302 725T313 680Q313 647 297 625T251 587Q283 576 305 553T328 492Q328 465 317 443T285 406T239 382T183 373Z" />
<glyph unicode="&#xb4;" glyph-name="acute" horiz-adv-x="549" d="M272 573L215 630L362 804L442 728L272 573Z" />
<glyph unicode="&#xb5;" glyph-name="uni00B5" horiz-adv-x="578" d="M73 -178V491H188V198Q188 139 206 113T263 87Q292 87 317 103T370 166V491H486Q485 445 484 396T481 298T479 205T478 123Q478 100 489 91T518 82Q524 82 532 83T548 88L563 2Q549 -4 533
-8T490 -12Q398 -12 382 76H378Q356 34 326 13T259 -8Q235 -8 215 -2T181 26Q181 -6 181 -31T183 -80T185 -127T190 -178H73Z" />
<glyph unicode="&#xb6;" glyph-name="paragraph" horiz-adv-x="599" d="M387 -80V654H503V-80H387ZM295 212Q241 212 195 225T114 267T60 337T40 436Q40 497 59 538T111 605T190 642T288 654H332V212H295Z" />
<glyph unicode="&#xb7;" glyph-name="middot" horiz-adv-x="275" d="M138 243Q106 243 85 265T63 321Q63 355 84 377T138 399Q170 399 191 377T212 321Q212 287 191 265T138 243Z" />
<glyph unicode="&#xb8;" glyph-name="cedilla" horiz-adv-x="549" d="M184 -233L174 -183Q235 -179 257 -169T280 -136Q280 -119 264 -108T203 -91L249 3H319L290 -62Q326 -71 345 -87T365 -135Q365 -183 318 -206T184 -233Z" />
<glyph unicode="&#xb9;" glyph-name="one.sups" horiz-adv-x="372" d="M168 385V679H82V733Q119 739 141 748T186 775H255V385H168Z" />
<glyph unicode="&#xba;" glyph-name="ordmasculine" horiz-adv-x="369" d="M184 377Q152 377 124 388T74 422T40 475T27 547Q27 587 39 619T74 673T124 706T184 718Q215 718 243 707T294 673T328 619T341 547Q341 507 329 476T294 422T244 389T184 377ZM184 444Q219
444 237 472T256 547Q256 595 238 623T184 652Q149 652 131 624T112 547Q112 500 130 472T184 444Z" />
<glyph unicode="&#xbb;" glyph-name="guillemotright" horiz-adv-x="456" d="M99 61L54 97L168 252L54 406L99 443L235 294V210L99 61ZM273 61L228 97L342 252L228 406L273 443L409 294V210L273 61Z" />
<glyph unicode="&#xbc;" glyph-name="onequarter" horiz-adv-x="795" d="M142 264V558H56V612Q93 618 115 627T160 654H229V264H142ZM183 -12L540 666H610L254 -12H183ZM640 0V95H461V139L613 390H717V154H775V95H717V0H640ZM545 154H640V209L645 322H641L596
243L545 154Z" />
<glyph unicode="&#xbd;" glyph-name="onehalf" horiz-adv-x="827" d="M142 264V558H56V612Q93 618 115 627T160 654H229V264H142ZM165 -12L522 666H592L236 -12H165ZM503 0V48Q587 120 634 169T681 259Q681 292 664 311T615 330Q593 330 574 316T538 278L488 324Q514
361 550 381T628 402Q690 402 727 369T765 273Q765 247 756 223T729 175T690 125T641 73H782V0H503Z" />
<glyph unicode="&#xbe;" glyph-name="threequarters" horiz-adv-x="807" d="M182 252Q132 252 93 273T30 330L84 372Q120 319 175 319Q203 319 222 334T242 377Q242 406 215 421T135 437V488Q178 488 202 504T227 548Q227 571 211 585T168 599Q148 599 130 587T96
556L46 600Q75 632 106 649T182 666Q208 666 231 659T273 638T301 604T312 559Q312 526 296 504T250 466Q282 455 304 432T327 371Q327 344 316 322T284 285T238 261T182 252ZM212 -12L569 666H639L283 -12H212ZM652 0V95H473V139L625 390H729V154H787V95H729V0H652ZM557
154H652V209L657 322H653L608 243L557 154Z" />
<glyph unicode="&#xbf;" glyph-name="questiondown" horiz-adv-x="444" d="M224 -191Q145 -191 95 -149T45 -25Q45 7 56 32T85 81T121 125T155 169T180 218T186 276H288Q293 239 285 210T263 155T230 109T195 67T167 26T156 -17Q156 -52 177 -74T238 -97Q268 -97
293 -83T340 -45L405 -104Q371 -142 326 -166T224 -191ZM236 347Q204 347 183 369T162 426Q162 459 183 481T236 503Q268 503 289 481T310 426Q310 391 289 369T236 347Z" />
<glyph unicode="&#xc0;" glyph-name="Agrave" horiz-adv-x="558" d="M217 348L194 268H361L338 348Q322 400 308 455T279 564H275Q261 509 247 455T217 348ZM-2 0L211 654H347L560 0H438L387 177H167L116 0H-2ZM291 688L123 805L185 881L342 746L291 688Z" />
<glyph unicode="&#xc1;" glyph-name="Aacute" horiz-adv-x="558" d="M217 348L194 268H361L338 348Q322 400 308 455T279 564H275Q261 509 247 455T217 348ZM-2 0L211 654H347L560 0H438L387 177H167L116 0H-2ZM263 688L212 746L369 881L431 805L263 688Z" />
<glyph unicode="&#xc2;" glyph-name="Acircumflex" horiz-adv-x="558" d="M217 348L194 268H361L338 348Q322 400 308 455T279 564H275Q261 509 247 455T217 348ZM-2 0L211 654H347L560 0H438L387 177H167L116 0H-2ZM118 725L215 836H339L436 725L386 692L279
780H275L168 692L118 725Z" />
<glyph unicode="&#xc3;" glyph-name="Atilde" horiz-adv-x="558" d="M217 348L194 268H361L338 348Q322 400 308 455T279 564H275Q261 509 247 455T217 348ZM-2 0L211 654H347L560 0H438L387 177H167L116 0H-2ZM350 700Q323 700 303 710T266 732T236 754T207 764Q190
764 179 751T165 707L89 713Q93 780 124 813T204 846Q231 846 251 836T288 814T318 792T347 782Q382 782 389 840L465 834Q461 767 430 734T350 700Z" />
<glyph unicode="&#xc4;" glyph-name="Adieresis" horiz-adv-x="558" d="M217 348L194 268H361L338 348Q322 400 308 455T279 564H275Q261 509 247 455T217 348ZM-2 0L211 654H347L560 0H438L387 177H167L116 0H-2ZM170 708Q144 708 128 724T111 767Q111 793 127
810T170 827Q196 827 213 810T230 767Q230 741 213 725T170 708ZM384 708Q358 708 341 724T324 767Q324 793 341 810T384 827Q410 827 426 810T443 767Q443 741 427 725T384 708Z" />
<glyph unicode="&#xc5;" glyph-name="Aring" horiz-adv-x="558" d="M217 348L194 268H361L338 348Q322 400 308 455T279 564H275Q261 509 247 455T217 348ZM-2 0L211 654H347L560 0H438L387 177H167L116 0H-2ZM277 698Q230 698 201 723T171 792Q171 836 200 861T277
887Q323 887 353 862T383 792Q383 749 353 724T277 698ZM277 744Q296 744 309 756T323 792Q323 815 310 828T277 841Q257 841 244 828T230 792Q230 769 243 757T277 744Z" />
<glyph unicode="&#xc6;" glyph-name="AE" horiz-adv-x="834" d="M297 366L246 261H394V565H390Q366 514 343 464T297 366ZM-3 0L324 654H773V556H510V389H731V291H510V98H783V0H394V170H202L119 0H-3Z" />
<glyph unicode="&#xc7;" glyph-name="Ccedilla" horiz-adv-x="576" d="M344 -12Q282 -12 228 10T135 75T72 181T49 325Q49 405 72 468T136 576T231 643T348 666Q410 666 458 641T537 583L475 508Q449 534 419 549T351 565Q311 565 278 549T220 502T182 427T168
328Q168 216 216 153T348 89Q392 89 426 107T488 156L550 83Q510 37 459 13T344 -12ZM252 -233L242 -183Q303 -179 325 -169T348 -136Q348 -119 332 -108T271 -91L317 3H387L358 -62Q394 -71 413 -87T433 -135Q433 -183 386 -206T252 -233Z" />
<glyph unicode="&#xc8;" glyph-name="Egrave" horiz-adv-x="538" d="M83 0V654H477V556H199V389H434V291H199V98H487V0H83ZM301 688L133 805L195 881L352 746L301 688Z" />
<glyph unicode="&#xc9;" glyph-name="Eacute" horiz-adv-x="538" d="M83 0V654H477V556H199V389H434V291H199V98H487V0H83ZM273 688L222 746L379 881L441 805L273 688Z" />
<glyph unicode="&#xca;" glyph-name="Ecircumflex" horiz-adv-x="538" d="M83 0V654H477V556H199V389H434V291H199V98H487V0H83ZM128 725L225 836H349L446 725L396 692L289 780H285L178 692L128 725Z" />
<glyph unicode="&#xcb;" glyph-name="Edieresis" horiz-adv-x="538" d="M83 0V654H477V556H199V389H434V291H199V98H487V0H83ZM180 708Q154 708 138 724T121 767Q121 793 137 810T180 827Q206 827 223 810T240 767Q240 741 223 725T180 708ZM394 708Q368 708 351
724T334 767Q334 793 351 810T394 827Q420 827 436 810T453 767Q453 741 437 725T394 708Z" />
<glyph unicode="&#xcc;" glyph-name="Igrave" horiz-adv-x="282" d="M83 0V654H199V0H83ZM155 688L-13 805L49 881L206 746L155 688Z" />
<glyph unicode="&#xcd;" glyph-name="Iacute" horiz-adv-x="282" d="M83 0V654H199V0H83ZM127 688L76 746L233 881L295 805L127 688Z" />
<glyph unicode="&#xce;" glyph-name="Icircumflex" horiz-adv-x="282" d="M83 0V654H199V0H83ZM-18 725L79 836H203L300 725L250 692L143 780H139L32 692L-18 725Z" />
<glyph unicode="&#xcf;" glyph-name="Idieresis" horiz-adv-x="282" d="M83 0V654H199V0H83ZM34 708Q8 708 -8 724T-25 767Q-25 793 -9 810T34 827Q60 827 77 810T94 767Q94 741 77 725T34 708ZM248 708Q222 708 205 724T188 767Q188 793 205 810T248 827Q274
827 290 810T307 767Q307 741 291 725T248 708Z" />
<glyph unicode="&#xd0;" glyph-name="Eth" horiz-adv-x="649" d="M30 311V366L107 370V654H282Q432 654 516 573T600 330Q600 249 579 187T517 84T419 21T288 0H107V311H30ZM223 94H274Q374 94 427 151T481 330Q481 450 427 505T274 560H223V370H360V311H223V94Z" />
<glyph unicode="&#xd1;" glyph-name="Ntilde" horiz-adv-x="656" d="M83 0V654H202L406 286L473 147H477Q473 198 468 256T462 370V654H573V0H454L250 368L183 507H179Q183 455 188 398T194 286V0H83ZM403 700Q376 700 356 710T319 732T289 754T260 764Q243 764
232 751T218 707L142 713Q146 780 177 813T257 846Q284 846 304 836T341 814T371 792T400 782Q435 782 442 840L518 834Q514 767 483 734T403 700Z" />
<glyph unicode="&#xd2;" glyph-name="Ograve" horiz-adv-x="674" d="M337 -12Q273 -12 220 11T129 79T70 187T49 330Q49 409 70 471T129 577T220 643T337 666Q401 666 454 643T545 577T605 472T626 330Q626 250 605 187T546 80T454 12T337 -12ZM337 89Q376 89
407 106T460 154T494 230T506 330Q506 440 461 502T337 565Q259 565 214 503T168 330Q168 275 180 231T214 155T267 106T337 89ZM351 688L183 805L245 881L402 746L351 688Z" />
<glyph unicode="&#xd3;" glyph-name="Oacute" horiz-adv-x="674" d="M337 -12Q273 -12 220 11T129 79T70 187T49 330Q49 409 70 471T129 577T220 643T337 666Q401 666 454 643T545 577T605 472T626 330Q626 250 605 187T546 80T454 12T337 -12ZM337 89Q376 89
407 106T460 154T494 230T506 330Q506 440 461 502T337 565Q259 565 214 503T168 330Q168 275 180 231T214 155T267 106T337 89ZM323 688L272 746L429 881L491 805L323 688Z" />
<glyph unicode="&#xd4;" glyph-name="Ocircumflex" horiz-adv-x="674" d="M337 -12Q273 -12 220 11T129 79T70 187T49 330Q49 409 70 471T129 577T220 643T337 666Q401 666 454 643T545 577T605 472T626 330Q626 250 605 187T546 80T454 12T337 -12ZM337 89Q376
89 407 106T460 154T494 230T506 330Q506 440 461 502T337 565Q259 565 214 503T168 330Q168 275 180 231T214 155T267 106T337 89ZM178 725L275 836H399L496 725L446 692L339 780H335L228 692L178 725Z" />
<glyph unicode="&#xd5;" glyph-name="Otilde" horiz-adv-x="674" d="M337 -12Q273 -12 220 11T129 79T70 187T49 330Q49 409 70 471T129 577T220 643T337 666Q401 666 454 643T545 577T605 472T626 330Q626 250 605 187T546 80T454 12T337 -12ZM337 89Q376 89
407 106T460 154T494 230T506 330Q506 440 461 502T337 565Q259 565 214 503T168 330Q168 275 180 231T214 155T267 106T337 89ZM410 700Q383 700 363 710T326 732T296 754T267 764Q250 764 239 751T225 707L149 713Q153 780 184 813T264 846Q291 846 311 836T348
814T378 792T407 782Q442 782 449 840L525 834Q521 767 490 734T410 700Z" />
<glyph unicode="&#xd6;" glyph-name="Odieresis" horiz-adv-x="674" d="M337 -12Q273 -12 220 11T129 79T70 187T49 330Q49 409 70 471T129 577T220 643T337 666Q401 666 454 643T545 577T605 472T626 330Q626 250 605 187T546 80T454 12T337 -12ZM337 89Q376
89 407 106T460 154T494 230T506 330Q506 440 461 502T337 565Q259 565 214 503T168 330Q168 275 180 231T214 155T267 106T337 89ZM230 708Q204 708 188 724T171 767Q171 793 187 810T230 827Q256 827 273 810T290 767Q290 741 273 725T230 708ZM444 708Q418 708
401 724T384 767Q384 793 401 810T444 827Q470 827 486 810T503 767Q503 741 487 725T444 708Z" />
<glyph unicode="&#xd7;" glyph-name="multiply" horiz-adv-x="513" d="M108 119L49 179L197 329L49 480L108 540L256 388L405 540L464 480L315 329L464 179L405 119L256 270L108 119Z" />
<glyph unicode="&#xd8;" glyph-name="Oslash" horiz-adv-x="674" d="M339 -12Q239 -12 169 44L106 -36L45 12L115 101Q84 144 68 201T51 330Q51 409 72 471T131 577T222 643T339 666Q442 666 514 609L578 690L640 642L568 551Q597 509 612 454T628 330Q628 250
607 187T548 80T456 12T339 -12ZM170 330Q170 292 175 259T192 199L446 522Q403 565 339 565Q261 565 216 503T170 330ZM339 89Q378 89 409 106T462 154T496 230T508 330Q508 398 489 450L237 130Q278 89 339 89Z" />
<glyph unicode="&#xd9;" glyph-name="Ugrave" horiz-adv-x="655" d="M328 -12Q271 -12 226 4T148 57T98 149T80 287V654H196V278Q196 225 205 189T232 130T274 99T328 89Q358 89 383 98T426 130T454 188T464 278V654H575V287Q575 206 558 150T509 57T431 5T328
-12ZM341 688L173 805L235 881L392 746L341 688Z" />
<glyph unicode="&#xda;" glyph-name="Uacute" horiz-adv-x="655" d="M328 -12Q271 -12 226 4T148 57T98 149T80 287V654H196V278Q196 225 205 189T232 130T274 99T328 89Q358 89 383 98T426 130T454 188T464 278V654H575V287Q575 206 558 150T509 57T431 5T328
-12ZM313 688L262 746L419 881L481 805L313 688Z" />
<glyph unicode="&#xdb;" glyph-name="Ucircumflex" horiz-adv-x="655" d="M328 -12Q271 -12 226 4T148 57T98 149T80 287V654H196V278Q196 225 205 189T232 130T274 99T328 89Q358 89 383 98T426 130T454 188T464 278V654H575V287Q575 206 558 150T509 57T431
5T328 -12ZM168 725L265 836H389L486 725L436 692L329 780H325L218 692L168 725Z" />
<glyph unicode="&#xdc;" glyph-name="Udieresis" horiz-adv-x="655" d="M328 -12Q271 -12 226 4T148 57T98 149T80 287V654H196V278Q196 225 205 189T232 130T274 99T328 89Q358 89 383 98T426 130T454 188T464 278V654H575V287Q575 206 558 150T509 57T431 5T328
-12ZM220 708Q194 708 178 724T161 767Q161 793 177 810T220 827Q246 827 263 810T280 767Q280 741 263 725T220 708ZM434 708Q408 708 391 724T374 767Q374 793 391 810T434 827Q460 827 476 810T493 767Q493 741 477 725T434 708Z" />
<glyph unicode="&#xdd;" glyph-name="Yacute" horiz-adv-x="501" d="M192 0V243L-4 654H120L191 487Q205 450 219 416T249 343H253Q269 381 284 415T313 487L384 654H505L308 243V0H192ZM236 688L185 746L342 881L404 805L236 688Z" />
<glyph unicode="&#xde;" glyph-name="Thorn" horiz-adv-x="600" d="M83 0V654H199V550H303Q357 550 402 540T481 506T533 444T552 348Q552 293 533 253T481 187T402 149T303 136H199V0H83ZM199 229H294Q438 229 438 348Q438 409 402 433T294 457H199V229Z" />
<glyph unicode="&#xdf;" glyph-name="germandbls" horiz-adv-x="604" d="M404 -12Q362 -12 327 0T258 35L300 114Q351 75 401 75Q434 75 452 94T470 139Q470 163 456 179T422 208T377 233T333 261T298 300T284 357Q284 388 296 410T323 453T350 495T363 547Q363
581 345 603T290 625Q240 625 214 589T187 484V0H73V501Q73 549 87 588T128 656T195 700T290 716Q335 716 369 703T427 669T462 619T474 560Q474 523 461 498T432 452T403 412T390 371Q390 351 404 337T438 311T483 287T528 256T563 210T577 144Q577 111 566 83T532
33T478 0T404 -12Z" />
<glyph unicode="&#xe0;" glyph-name="agrave" horiz-adv-x="516" d="M192 -12Q127 -12 87 27T47 132Q47 171 63 201T115 254T205 291T336 314Q335 333 331 350T316 381T288 402T246 410Q210 410 176 396T108 362L66 439Q107 465 158 484T268 503Q360 503 405 449T451
291V0H356L348 54H344Q311 26 274 7T192 -12ZM229 78Q259 78 283 92T336 132V242Q286 236 252 226T197 204T167 175T158 141Q158 108 178 93T229 78ZM271 573L101 728L181 804L328 630L271 573Z" />
<glyph unicode="&#xe1;" glyph-name="aacute" horiz-adv-x="516" d="M192 -12Q127 -12 87 27T47 132Q47 171 63 201T115 254T205 291T336 314Q335 333 331 350T316 381T288 402T246 410Q210 410 176 396T108 362L66 439Q107 465 158 484T268 503Q360 503 405 449T451
291V0H356L348 54H344Q311 26 274 7T192 -12ZM229 78Q259 78 283 92T336 132V242Q286 236 252 226T197 204T167 175T158 141Q158 108 178 93T229 78ZM267 573L210 630L357 804L437 728L267 573Z" />
<glyph unicode="&#xe2;" glyph-name="acircumflex" horiz-adv-x="516" d="M192 -12Q127 -12 87 27T47 132Q47 171 63 201T115 254T205 291T336 314Q335 333 331 350T316 381T288 402T246 410Q210 410 176 396T108 362L66 439Q107 465 158 484T268 503Q360 503
405 449T451 291V0H356L348 54H344Q311 26 274 7T192 -12ZM229 78Q259 78 283 92T336 132V242Q286 236 252 226T197 204T167 175T158 141Q158 108 178 93T229 78ZM100 607L211 742H327L438 607L393 564L271 667H267L145 564L100 607Z" />
<glyph unicode="&#xe3;" glyph-name="atilde" horiz-adv-x="516" d="M192 -12Q127 -12 87 27T47 132Q47 171 63 201T115 254T205 291T336 314Q335 333 331 350T316 381T288 402T246 410Q210 410 176 396T108 362L66 439Q107 465 158 484T268 503Q360 503 405 449T451
291V0H356L348 54H344Q311 26 274 7T192 -12ZM229 78Q259 78 283 92T336 132V242Q286 236 252 226T197 204T167 175T158 141Q158 108 178 93T229 78ZM338 575Q313 575 294 586T260 612T231 637T202 649Q167 649 161 582L87 586Q89 655 117 692T200 730Q225 730
244 719T278 693T308 668T337 656Q355 656 364 673T377 723L451 719Q449 651 421 613T338 575Z" />
<glyph unicode="&#xe4;" glyph-name="adieresis" horiz-adv-x="516" d="M192 -12Q127 -12 87 27T47 132Q47 171 63 201T115 254T205 291T336 314Q335 333 331 350T316 381T288 402T246 410Q210 410 176 396T108 362L66 439Q107 465 158 484T268 503Q360 503 405
449T451 291V0H356L348 54H344Q311 26 274 7T192 -12ZM229 78Q259 78 283 92T336 132V242Q286 236 252 226T197 204T167 175T158 141Q158 108 178 93T229 78ZM166 578Q140 578 123 595T105 639Q105 665 122 682T166 700Q193 700 210 683T227 639Q227 613 210 596T166
578ZM372 578Q345 578 328 595T311 639Q311 665 328 682T372 700Q398 700 415 683T433 639Q433 613 416 596T372 578Z" />
<glyph unicode="&#xe5;" glyph-name="aring" horiz-adv-x="516" d="M192 -12Q127 -12 87 27T47 132Q47 171 63 201T115 254T205 291T336 314Q335 333 331 350T316 381T288 402T246 410Q210 410 176 396T108 362L66 439Q107 465 158 484T268 503Q360 503 405 449T451
291V0H356L348 54H344Q311 26 274 7T192 -12ZM229 78Q259 78 283 92T336 132V242Q286 236 252 226T197 204T167 175T158 141Q158 108 178 93T229 78ZM269 559Q211 559 180 588T148 660Q148 704 179 733T269 762Q327 762 358 733T390 660Q390 617 359 588T269 559ZM269
605Q290 605 304 620T319 660Q319 686 305 701T269 716Q248 716 234 701T219 660Q219 635 233 620T269 605Z" />
<glyph unicode="&#xe6;" glyph-name="ae" horiz-adv-x="785" d="M198 -12Q133 -12 93 27T52 132Q52 211 120 254T338 314Q337 333 333 350T318 381T292 402T250 410Q215 410 181 396T114 362L72 439Q113 465 162 484T265 503Q316 503 350 480T404 414Q434 456
471 479T557 503Q604 503 639 486T699 437T735 363T748 268Q748 234 743 214H443Q449 150 486 115T578 80Q610 80 636 90T689 118L730 41Q695 18 653 3T563 -12Q505 -12 463 12T392 72Q341 28 294 8T198 -12ZM234 78Q263 78 295 93T354 136Q346 153 343 175T338
219L336 242Q242 229 203 204T164 141Q164 108 183 93T234 78ZM443 287H649Q649 347 625 380T553 414Q511 414 481 381T443 287Z" />
<glyph unicode="&#xe7;" glyph-name="ccedilla" horiz-adv-x="462" d="M278 -12Q228 -12 185 5T109 55T59 136T41 245Q41 306 61 354T115 435T193 485T287 503Q335 503 369 487T431 448L375 373Q355 390 336 399T293 409Q233 409 196 365T159 245Q159 171 195
127T290 82Q319 82 344 94T391 124L438 48Q403 18 362 3T278 -12ZM184 -233L174 -183Q235 -179 257 -169T280 -136Q280 -119 264 -108T203 -91L249 3H319L290 -62Q326 -71 345 -87T365 -135Q365 -183 318 -206T184 -233Z" />
<glyph unicode="&#xe8;" glyph-name="egrave" horiz-adv-x="507" d="M283 -12Q232 -12 188 5T111 56T60 136T41 245Q41 305 60 353T110 434T183 485T267 503Q317 503 355 486T418 438T457 364T470 270Q470 253 469 238T465 214H153Q161 148 199 113T298 77Q330
77 357 86T412 113L451 41Q416 18 373 3T283 -12ZM152 292H370Q370 349 346 381T270 414Q226 414 193 383T152 292ZM269 573L99 728L179 804L326 630L269 573Z" />
<glyph unicode="&#xe9;" glyph-name="eacute" horiz-adv-x="507" d="M283 -12Q232 -12 188 5T111 56T60 136T41 245Q41 305 60 353T110 434T183 485T267 503Q317 503 355 486T418 438T457 364T470 270Q470 253 469 238T465 214H153Q161 148 199 113T298 77Q330
77 357 86T412 113L451 41Q416 18 373 3T283 -12ZM152 292H370Q370 349 346 381T270 414Q226 414 193 383T152 292ZM265 573L208 630L355 804L435 728L265 573Z" />
<glyph unicode="&#xea;" glyph-name="ecircumflex" horiz-adv-x="507" d="M283 -12Q232 -12 188 5T111 56T60 136T41 245Q41 305 60 353T110 434T183 485T267 503Q317 503 355 486T418 438T457 364T470 270Q470 253 469 238T465 214H153Q161 148 199 113T298 77Q330
77 357 86T412 113L451 41Q416 18 373 3T283 -12ZM152 292H370Q370 349 346 381T270 414Q226 414 193 383T152 292ZM98 607L209 742H325L436 607L391 564L269 667H265L143 564L98 607Z" />
<glyph unicode="&#xeb;" glyph-name="edieresis" horiz-adv-x="507" d="M283 -12Q232 -12 188 5T111 56T60 136T41 245Q41 305 60 353T110 434T183 485T267 503Q317 503 355 486T418 438T457 364T470 270Q470 253 469 238T465 214H153Q161 148 199 113T298 77Q330
77 357 86T412 113L451 41Q416 18 373 3T283 -12ZM152 292H370Q370 349 346 381T270 414Q226 414 193 383T152 292ZM164 578Q138 578 121 595T103 639Q103 665 120 682T164 700Q191 700 208 683T225 639Q225 613 208 596T164 578ZM370 578Q343 578 326 595T309
639Q309 665 326 682T370 700Q396 700 413 683T431 639Q431 613 414 596T370 578Z" />
<glyph unicode="&#xec;" glyph-name="igrave" horiz-adv-x="262" d="M73 0V491H188V0H73ZM133 573L-37 728L43 804L190 630L133 573Z" />
<glyph unicode="&#xed;" glyph-name="iacute" horiz-adv-x="262" d="M73 0V491H188V0H73ZM129 573L72 630L219 804L299 728L129 573Z" />
<glyph unicode="&#xee;" glyph-name="icircumflex" horiz-adv-x="262" d="M73 0V491H188V0H73ZM-38 607L73 742H189L300 607L255 564L133 667H129L7 564L-38 607Z" />
<glyph unicode="&#xef;" glyph-name="idieresis" horiz-adv-x="262" d="M73 0V491H188V0H73ZM28 578Q2 578 -15 595T-33 639Q-33 665 -16 682T28 700Q55 700 72 683T89 639Q89 613 72 596T28 578ZM234 578Q207 578 190 595T173 639Q173 665 190 682T234 700Q260
700 277 683T295 639Q295 613 278 596T234 578Z" />
<glyph unicode="&#xf0;" glyph-name="eth" horiz-adv-x="552" d="M271 -12Q226 -12 186 4T115 51T66 126T48 225Q48 277 64 319T109 390T174 435T252 451Q286 451 317 439T372 397Q358 447 334 486T276 559L134 487L103 540L225 602Q202 619 177 634T124 664L175
735Q211 716 246 695T313 647L456 720L487 666L363 603Q422 543 460 460T498 262Q498 202 482 152T437 65T365 8T271 -12ZM274 82Q329 82 359 127T389 256Q389 269 389 281T387 306Q360 340 332 352T273 364Q218 364 186 327T154 225Q154 192 163 166T189 121T228
92T274 82Z" />
<glyph unicode="&#xf1;" glyph-name="ntilde" horiz-adv-x="560" d="M73 0V491H168L176 425H180Q213 457 251 480T341 503Q420 503 456 453T492 308V0H377V293Q377 354 359 379T300 404Q268 404 244 389T188 343V0H73ZM369 575Q344 575 325 586T291 612T262 637T233
649Q198 649 192 582L118 586Q120 655 148 692T231 730Q256 730 275 719T309 693T339 668T368 656Q386 656 395 673T408 723L482 719Q480 651 452 613T369 575Z" />
<glyph unicode="&#xf2;" glyph-name="ograve" horiz-adv-x="549" d="M274 -12Q228 -12 186 5T112 55T60 136T41 245Q41 306 60 354T111 435T186 485T274 503Q320 503 362 486T437 435T488 354T508 245Q508 184 489 136T437 55T363 5T274 -12ZM274 82Q328 82 359
126T390 245Q390 320 359 364T274 409Q220 409 190 365T159 245Q159 171 189 127T274 82ZM276 573L106 728L186 804L333 630L276 573Z" />
<glyph unicode="&#xf3;" glyph-name="oacute" horiz-adv-x="549" d="M274 -12Q228 -12 186 5T112 55T60 136T41 245Q41 306 60 354T111 435T186 485T274 503Q320 503 362 486T437 435T488 354T508 245Q508 184 489 136T437 55T363 5T274 -12ZM274 82Q328 82 359
126T390 245Q390 320 359 364T274 409Q220 409 190 365T159 245Q159 171 189 127T274 82ZM272 573L215 630L362 804L442 728L272 573Z" />
<glyph unicode="&#xf4;" glyph-name="ocircumflex" horiz-adv-x="549" d="M274 -12Q228 -12 186 5T112 55T60 136T41 245Q41 306 60 354T111 435T186 485T274 503Q320 503 362 486T437 435T488 354T508 245Q508 184 489 136T437 55T363 5T274 -12ZM274 82Q328
82 359 126T390 245Q390 320 359 364T274 409Q220 409 190 365T159 245Q159 171 189 127T274 82ZM105 607L216 742H332L443 607L398 564L276 667H272L150 564L105 607Z" />
<glyph unicode="&#xf5;" glyph-name="otilde" horiz-adv-x="549" d="M274 -12Q228 -12 186 5T112 55T60 136T41 245Q41 306 60 354T111 435T186 485T274 503Q320 503 362 486T437 435T488 354T508 245Q508 184 489 136T437 55T363 5T274 -12ZM274 82Q328 82 359
126T390 245Q390 320 359 364T274 409Q220 409 190 365T159 245Q159 171 189 127T274 82ZM343 575Q318 575 299 586T265 612T236 637T207 649Q172 649 166 582L92 586Q94 655 122 692T205 730Q230 730 249 719T283 693T313 668T342 656Q360 656 369 673T382 723L456
719Q454 651 426 613T343 575Z" />
<glyph unicode="&#xf6;" glyph-name="odieresis" horiz-adv-x="549" d="M274 -12Q228 -12 186 5T112 55T60 136T41 245Q41 306 60 354T111 435T186 485T274 503Q320 503 362 486T437 435T488 354T508 245Q508 184 489 136T437 55T363 5T274 -12ZM274 82Q328 82
359 126T390 245Q390 320 359 364T274 409Q220 409 190 365T159 245Q159 171 189 127T274 82ZM171 578Q145 578 128 595T110 639Q110 665 127 682T171 700Q198 700 215 683T232 639Q232 613 215 596T171 578ZM377 578Q350 578 333 595T316 639Q316 665 333 682T377
700Q403 700 420 683T438 639Q438 613 421 596T377 578Z" />
<glyph unicode="&#xf7;" glyph-name="divide" horiz-adv-x="513" d="M34 288V372H479V288H34ZM256 84Q227 84 208 102T188 150Q188 179 207 197T256 215Q285 215 304 197T324 150Q324 121 305 103T256 84ZM256 444Q227 444 208 462T188 510Q188 539 207 557T256
575Q285 575 304 557T324 510Q324 481 305 463T256 444Z" />
<glyph unicode="&#xf8;" glyph-name="oslash" horiz-adv-x="549" d="M274 -12Q237 -12 202 -1T138 32L92 -24L46 12L96 73Q70 105 56 148T41 245Q41 306 60 354T111 435T186 485T274 503Q351 503 410 459L457 516L503 480L453 418Q479 386 493 343T508 245Q508
184 489 136T437 55T363 5T274 -12ZM153 251Q153 199 167 160L349 384Q318 413 274 413Q220 413 187 368T153 251ZM274 78Q328 78 362 122T396 239Q396 292 382 331L199 108Q229 78 274 78Z" />
<glyph unicode="&#xf9;" glyph-name="ugrave" horiz-adv-x="556" d="M219 -12Q140 -12 104 38T68 183V491H183V198Q183 137 201 112T259 87Q291 87 315 103T368 155V491H483V0H389L380 72H377Q345 34 308 11T219 -12ZM281 573L111 728L191 804L338 630L281 573Z" />
<glyph unicode="&#xfa;" glyph-name="uacute" horiz-adv-x="556" d="M219 -12Q140 -12 104 38T68 183V491H183V198Q183 137 201 112T259 87Q291 87 315 103T368 155V491H483V0H389L380 72H377Q345 34 308 11T219 -12ZM277 573L220 630L367 804L447 728L277 573Z" />
<glyph unicode="&#xfb;" glyph-name="ucircumflex" horiz-adv-x="556" d="M219 -12Q140 -12 104 38T68 183V491H183V198Q183 137 201 112T259 87Q291 87 315 103T368 155V491H483V0H389L380 72H377Q345 34 308 11T219 -12ZM110 607L221 742H337L448 607L403 564L281
667H277L155 564L110 607Z" />
<glyph unicode="&#xfc;" glyph-name="udieresis" horiz-adv-x="556" d="M219 -12Q140 -12 104 38T68 183V491H183V198Q183 137 201 112T259 87Q291 87 315 103T368 155V491H483V0H389L380 72H377Q345 34 308 11T219 -12ZM176 578Q150 578 133 595T115 639Q115
665 132 682T176 700Q203 700 220 683T237 639Q237 613 220 596T176 578ZM382 578Q355 578 338 595T321 639Q321 665 338 682T382 700Q408 700 425 683T443 639Q443 613 426 596T382 578Z" />
<glyph unicode="&#xfd;" glyph-name="yacute" horiz-adv-x="495" d="M106 -202Q86 -202 71 -200T42 -192L63 -102Q70 -104 79 -106T98 -109Q137 -109 160 -86T196 -25L205 6L12 491H129L214 250Q225 218 235 183T257 112H261Q270 146 279 181T298 250L372 491H483L305
-22Q290 -64 272 -97T231 -153T177 -189T106 -202ZM253 573L196 630L343 804L423 728L253 573Z" />
<glyph unicode="&#xfe;" glyph-name="thorn" horiz-adv-x="564" d="M73 -194V706H188V524L186 447Q215 471 249 487T322 503Q369 503 406 486T468 435T507 356T521 253Q521 190 504 141T457 58T390 6T311 -12Q276 -12 246 1T186 38L188 -40V-194H73ZM287 83Q336
83 369 125T402 252Q402 326 377 367T296 408Q244 408 188 353V124Q215 101 240 92T287 83Z" />
<glyph unicode="&#xff;" glyph-name="ydieresis" horiz-adv-x="495" d="M106 -202Q86 -202 71 -200T42 -192L63 -102Q70 -104 79 -106T98 -109Q137 -109 160 -86T196 -25L205 6L12 491H129L214 250Q225 218 235 183T257 112H261Q270 146 279 181T298 250L372 491H483L305
-22Q290 -64 272 -97T231 -153T177 -189T106 -202ZM152 578Q126 578 109 595T91 639Q91 665 108 682T152 700Q179 700 196 683T213 639Q213 613 196 596T152 578ZM358 578Q331 578 314 595T297 639Q297 665 314 682T358 700Q384 700 401 683T419 639Q419 613 402
596T358 578Z" />
<glyph unicode="&#x2013;" glyph-name="endash" horiz-adv-x="480" d="M42 214V290H438V214H42Z" />
<glyph unicode="&#x2014;" glyph-name="emdash" horiz-adv-x="800" d="M42 214V290H758V214H42Z" />
<glyph unicode="&#x2018;" glyph-name="quoteleft" horiz-adv-x="275" d="M134 382Q96 382 76 411T56 493Q56 624 180 689L208 638Q166 614 146 585T125 512Q128 513 134 513Q161 513 180 497T200 451Q200 419 182 401T134 382Z" />
<glyph unicode="&#x2019;" glyph-name="quoteright" horiz-adv-x="275" d="M95 391L67 442Q109 466 129 495T150 568Q147 567 141 567Q115 567 96 583T76 629Q76 661 94 679T141 698Q179 698 199 669T220 587Q220 456 95 391Z" />
<glyph unicode="&#x201a;" glyph-name="quotesinglbase" horiz-adv-x="275" d="M95 -156L67 -105Q109 -81 129 -52T150 21Q147 20 141 20Q115 20 96 36T76 82Q76 114 94 132T141 151Q179 151 199 122T220 40Q220 -91 95 -156Z" />
<glyph unicode="&#x201c;" glyph-name="quotedblleft" horiz-adv-x="482" d="M134 382Q96 382 76 411T56 493Q56 624 180 689L208 638Q166 614 146 585T125 512Q128 513 134 513Q161 513 180 497T200 451Q200 419 182 401T134 382ZM341 382Q303 382 283 411T263
493Q263 624 387 689L415 638Q373 614 353 585T332 512Q335 513 341 513Q368 513 387 497T407 451Q407 419 389 401T341 382Z" />
<glyph unicode="&#x201d;" glyph-name="quotedblright" horiz-adv-x="482" d="M95 391L67 442Q109 466 129 495T150 568Q147 567 141 567Q115 567 96 583T76 629Q76 661 94 679T141 698Q179 698 199 669T220 587Q220 456 95 391ZM302 391L274 442Q316 466 336
495T357 568Q354 567 348 567Q322 567 303 583T283 629Q283 661 301 679T348 698Q386 698 406 669T427 587Q427 456 302 391Z" />
<glyph unicode="&#x201e;" glyph-name="quotedblbase" horiz-adv-x="482" d="M95 -156L67 -105Q109 -81 129 -52T150 21Q147 20 141 20Q115 20 96 36T76 82Q76 114 94 132T141 151Q179 151 199 122T220 40Q220 -91 95 -156ZM302 -156L274 -105Q316 -81 336 -52T357
21Q354 20 348 20Q322 20 303 36T283 82Q283 114 301 132T348 151Q386 151 406 122T427 40Q427 -91 302 -156Z" />
<glyph unicode="&#x2022;" glyph-name="bullet" horiz-adv-x="325" d="M162 133Q137 133 115 142T76 169T50 210T40 263Q40 291 49 315T75 356T114 383T162 393Q187 393 209 383T249 356T275 315T285 263Q285 234 276 211T249 170T210 143T162 133Z" />
<glyph unicode="&#x2039;" glyph-name="guilsinglleft" horiz-adv-x="282" d="M182 61L47 210V294L182 443L228 406L113 252L228 97L182 61Z" />
<glyph unicode="&#x203a;" glyph-name="guilsinglright" horiz-adv-x="282" d="M99 61L54 97L168 252L54 406L99 443L235 294V210L99 61Z" />
</font>
</defs>
</svg>
